Скачать фильм липучка через торрент в хорошем качестве


Скачать фильм Липучка (2011) через торрент

18 января 2016 08:38 Липучка / Flypaper (2011) BDRip | A .torrent   [Информация о файле (нажмите для просмотра)] Перевод: Авторский (одноголосый закадровый)Андрей ГавриловКодек: XviDКачество: BDRip (источник: рутрекер / BDRemux / 1080p)Видео: 720x304 (2.37:1), 23.976 fps, XviD build 64 ~1921 kbps avg, 0.37 bit/pixelАудио: 48 kHz, AC3 Dolby Digital, 3/2 (L,C,R,l,r) + LFE ch, ~448 kbpsСубтитры: нет 1,45 Gb 19 3 18 января 2016 08:38 Липучка / Flypaper (2011) BDRip 720p от Leonardo and Scarabey .torrent   [Информация о файле (нажмите для просмотра)] Перевод: Профессиональный (полное дублирование) ЛицензияФормат: MKVВидео кодек: MPEG-4 AVC Аудио кодек: AC3Видео: AVC, 1280x546 (2.35:1) at 23.976 fps, AVC at 2768 kbps avg, 0.165 bit/pixelАудио: Russian; AC3; 448 Kbps; CBR; 6 ch; 16 bit; DUBСубтитры: Русские, английские 2 Gb 51 8 18 января 2016 08:38 Липучка / Flypaper (2011) BDRip от HQCLUB | Лицензия .torrent   [Информация о файле (нажмите для просмотра)] Перевод: профессиональный (полное дублирование)Субтитры: русские, английскиеФормат: AVIКачество: BDRip (источник:Видео: 720x304 (2.37:1), 23.976 fps, XviD build 64, 1925 kbps avg, 0.37 bit/pixelАудио #1: 48 kHz, AC3 Dolby Digital, 3/2 (L,C,R,l,r) + LFE ch, 448 kbps avg|Dub R5|Аудио #2: 48 kHz, AC3 Dolby Digital, 3/2 (L,C,R,l,r) + LFE ch, 448 kbps avg|AVO (Гаврилов)|Аудио #3: 48 kHz, AC3 Dolby Digital, 3/2 (L,C,R,l,r) + LFE ch, 448 kbps avg|AVO (Дасевич)|Аудио #4: 48 kHz, AC3 Dolby Digital, 3/2 (L,C,R,l,r) + LFE ch, 448 kbps avg|AVO (Карповский)|Аудио #5: 48 kHz, AC3 Dolby Digital, 3/2 (L,C,R,l,r) + LFE ch, 448 kbps avg|VO (den904)|Аудио #6: 48 kHz, AC3 Dolby Digital, 3/2 (L,C,R,l,r) + LFE ch, 448 kbps avg|Ukr Dub|Аудио #7: 48 kHz, AC3 Dolby Digital, 3/2 (L,C,R,l,r) + LFE ch, 448 kbps avg|Original| 1,45 Gb 49 7 18 января 2016 08:38 Липучка / Flypaper (2011) BDRip-AVC | iPad .torrent   [Информация о файле (нажмите для просмотра)] Перевод: ДублированныйСубтитры: русские, английскиеФормат: MP4 (контейнер m4v)Видео: AVC,, 1024x436 (2.35:1) at 23.976 fps, AVC at 1523 kbps avg, 0.142 bit/pixelАудио: Русский: 48 kHz, AAC, 2ch, 128 kbps | ДублированныйАудио: Английский: 48 kHz, AAC, 2ch, 128 Kbps | Оригинал 1,09 Gb 2 5 18 января 2016 08:38 Липучка / Flypaper (2011) BDRip от Scarabey | D | Лицензия .torrent   [Информация о файле (нажмите для просмотра)] Перевод: Полное дублированиеСубтитры: нетВидео: 688x288 (2.39:1), 23.976 fps, XviD build 50 ~1050 kbps avg, 0.22 bit/pixelАудио: 48 kHz, MPEG Layer 3, 2 ch, ~128.00 kbps avg 741,33 Mb 11 7 18 января 2016 08:38 Липучка / Flypaper (2011) BDRip от Scarabey | Лицензия .torrent   [Информация о файле (нажмите для просмотра)] Перевод: Полное дублированиеСубтитры: нетВидео: 720x304 (2.37:1), 23.976 fps, XviD MPEG-4 ~1921 kbps avg, 0.37 bit/pixelАудио: 48 kHz, AC3 Dolby Digital, 3/2 (L,C,R,l,r) + LFE ch, ~448.00 kbps avg 1,45 Gb 111 4 18 января 2016 08:38 Липучка / Flypaper (2011) BDRip от Rulya74 .torrent   [Информация о файле (нажмите для просмотра)] Перевод: Дубляж (Русский)+ Дубляж (Украинский) + Оригинал (Английский)Кодек: XviDКачество: BDRipВидео: 720х304 (2,35:1), 23.976 fps, 1998 kbps, 0.381 bit/pixelАудио#1: 48 kHz, AC3 5.1, 448.00 kbps / Дубляж (Русский)Аудио#2: 48 kHz, AC3 5.1 448.00 kbps / Дубляж (Украинский)Аудио#3: 48 kHz, AC3 5.1, 448.00 kbps / Оригинал (Английский) 2,05 Gb 24 6 18 января 2016 08:38 Липучка / Flypaper (2011) DVD9 .torrent   [Информация о файле (нажмите для просмотра)] Перевод: дублированныйСубтитры: Русские, АнглийскиеКодек: MPEG2Качество: DVD9Видео: PAL 16:9 () VBR, ~8000KbpsЗвук: Аудио#1 - Русский (Dolby AC3, 6 ch), 48000Hz, 448Kbps Аудио#2 - Английский (Dolby AC3, 6 ch), 48000Hz, 448Kbps Аудио#3 - Русский (DTS, 6 ch), 48000Hz, 755Kbps 5,05 Gb 3 2 18 января 2016 08:38 Липучка / Flypaper (2011) BDRip 1080p by Bluebird .torrent   [Информация о файле (нажмите для просмотра)] Перевод: Дублированный|RUS, UKR|, Закадровый одноголосый |den904|Контейнер: MKVВидео: x264, 1920x818 pix., ~10 000 Kbps, 0.266 bit/pix, 2 passАудио 1: 48 kHz, AC3, 3/2 (L,C,R,l,r) + LFE ch, ~448.00 kbps avg |Дубляж | RUSАудио 2: 48 kHz, AC3, 3/2 (L,C,R,l,r) + LFE ch, ~448.00 kbps avg |Дубляж | UKRАудио 3: 48 kHz, DTS, 3/2 (L,C,R,l,r) + LFE ch, ~1510.00 kbps avg |VO - Den904Аудио 4: 48 kHz, DTS, 3/2 (L,C,R,l,r) + LFE ch, ~1510.00 kbps avg |ОригиналСубтитры: Русские, Английские 8,48 Gb 12 6 18 января 2016 08:38 Липучка / Flypaper (2011) BDRip от HELLYWOOD .torrent   [Информация о файле (нажмите для просмотра)] Перевод: Дублированный[лицензия] + Украинский дубляж (отдельным файлом) + оригинал (отдельным файлом)Субтитры: Русские, английские(отдельным файлом)Формат: AVIКачество: BDRip (источник:/BD-Remux/ 1080p) Видео: 720x304 (2.37:1), 23.976 fps, XviD build 64 ~1917 kbps avg, 0.36 bit/pixelАудио #1: 48 kHz, AC3 Dolby Digital, 3/2 (L,C,R,l,r) + LFE ch, 448 kbps|DUB RUS|Аудио #2: 48 kHz, AC3 Dolby Digital, 3/2 (L,C,R,l,r) + LFE ch, 448 kbps|ENG|Аудио #2: 48 kHz, AC3 Dolby Digital, 3/2 (L,C,R,l,r) + LFE ch, 448 kbps|DUB UKR| 1,99 Gb 2 2 18 января 2016 08:38 Липучка / Flypaper (2011) BDRip-AVC .torrent   [Информация о файле (нажмите для просмотра)] Перевод: Дублированный (Лицензия R5)Контейнер: .mkvКачество: BDRip (AVC)Видео: MPEG-4 AVC, 1616 Кбит/с, 960x408, 23.976 кадр/сАудио: Русский / Украинский (AC3, 6 ch, 448 Кбит/c, 48,0 КГц), Английский (AC3, 2 ch, 192 Кбит/c, 48,0 КГц)Субтитры: Русские, английские 1,65 Gb 4 4 18 января 2016 08:38 Липучка / Flypaper (2011) BDRip 1080p .torrent   [Информация о файле (нажмите для просмотра)] Качество: BDRip (1080p)Видео: MPEG4 (AVC), 1920x818, 23.976 fps, 9200 Kbit/sАудио: DTS, 48 kHz, 6 ch, 755 kbit/s (Rus)Аудио: AC3, 48 kHz, 6 ch, 448 kbit/s (Ukr)Аудио: DTS, 48 kHz, 6 ch, 1510 kbit/s (Eng)Субтитры: Russian, EnglishПеревод: Дублированный [лицензия] 7,24 Gb 6 3 18 января 2016 08:38 Липучка / Flypaper (2011) BDRip 720p .torrent   [Информация о файле (нажмите для просмотра)] Перевод: Дублированный (Лицензия R5)Контейнер: .mkvКачество: BDRip (AVC)Видео: MPEG-4 AVC, 4244 Кбит/с, 1280x546, 23.976 кадр/сАудио: Русский / Украинский (AC3, 6 ch, 448 Кбит/c, 48,0 КГц), Английский (AC3, 2 ch, 192 Кбит/c, 48,0 КГц)Субтитры: Русские, английские 3,25 Gb 11 1 18 января 2016 08:38 Липучка / Flypaper (2011) HDRip-AVC от potroks | Лицензия .torrent   [Информация о файле (нажмите для просмотра)] Перевод: Профессиональный (полное дублирование) лицензияКодек: H.264Качество: HDRip-AVC [BDRip 720p]Видео: 1280x544 (2,35:1), 23,976 кадр/сек, 1900 Кбит/сек, 0.114 bit/pixelЗвук: AC3,6 ch., 48 kHz, ~448.00 kbps (RUS/ENG) 1,7 Gb 5 2 18 января 2016 08:38 Липучка / Flypaper (2011) HDRip | Лицензия .torrent   [Информация о файле (нажмите для просмотра)] Качество: HDRipВидео: XviD, 640x272, 23.976 fps, ~ 985 Kbit/sАудио: MP3, 48000 Hz, 2 каналов, 128 kbit/sПеревод: Дублированный [лицензия] 697,23 Mb 4 5

gig-torrent.net

Скачать фильм Липучка через торрент в хорошем качестве бесплатно 720p by msltel] DUB

ОбщееПолное имя : D:\Video\Липучка.2011.BDRip.720p\Липучка.2011.AVO.rus.А.Карповский.ac3Формат : AC-3Формат/Информация : Audio Coding 3Размер файла : 279 МбайтПродолжительность : 1 ч. 27 м.Режим общего битрейта : ПостоянныйОбщий поток : 448 Кбит/сек

АудиоФормат : AC-3Формат/Информация : Audio Coding 3Расширение режима : CM (complete main)Параметр Endianness формата : BigПродолжительность : 1 ч. 27 м.Вид битрейта : ПостоянныйБитрейт : 448 Кбит/секКаналы : 6 каналовРасположение каналов : Front: L C R, Side: L R, LFEЧастота : 48,0 КГцЧастота кадров : 31,250 кадров/сек (1536 spf)Метод сжатия : С потерямиРазмер потока : 279 Мбайт (100%)

ОбщееУникальный идентификатор : 219429500749826931525972638506473412202 (0xA51495A97FCEE2FF8828DF7BAB2AD66A)Полное имя : D:\Video\Липучка.2011.BDRip.720p\Липучка.2011.BDRip.720p.mkvФормат : MatroskaВерсия формата : Version 4 / Version 2Размер файла : 2,66 ГбайтПродолжительность : 1 ч. 27 м.Общий поток : 4368 Кбит/секДата кодирования : UTC 2016-04-19 14:17:11Программа кодирования : mkvmerge v8.2.0 ('World of Adventure') 64bitБиблиотека кодирования : libebml v1.3.1 + libmatroska v1.4.2

ВидеоИдентификатор : 1Формат : AVCФормат/Информация : Advanced Video CodecПрофиль формата : [email protected]Параметр CABAC формата : ДаПараметр ReFrames формата : 9 кадровИдентификатор кодека : V_MPEG4/ISO/AVCПродолжительность : 1 ч. 27 м.Битрейт : 3473 Кбит/секШирина : 1280 пикселейВысота : 546 пикселейСоотношение сторон : 2,35:1Режим частоты кадров : ПостоянныйЧастота кадров : 23,976 (24000/1001) кадра/секЦветовое пространство : YUVСубдискретизация насыщенности : 4:2:0Битовая глубина : 8 битТип развёртки : ПрогрессивнаяБит/(Пиксели*Кадры) : 0.207Размер потока : 2,12 Гбайт (79%)Библиотека кодирования : x264 core 146 r2538 121396cНастройки программы : cabac=1 / ref=9 / deblock=1:-1:-1 / analyse=0x3:0x113 / me=umh / subme=10 / psy=1 / psy_rd=1.00:0.15 / mixed_ref=1 / me_range=32 / chroma_me=1 / trellis=2 / 8x8dct=1 / cqm=0 / deadzone=21,11 / fast_pskip=1 / chroma_qp_offset=-3 / threads=6 / lookahead_threads=1 / sliced_threads=0 / nr=0 / decimate=1 / interlaced=0 / bluray_compat=0 / constrained_intra=0 / bframes=6 / b_pyramid=2 / b_adapt=2 / b_bias=0 / direct=1 / weightb=1 / open_gop=0 / weightp=2 / keyint=230 / keyint_min=23 / scenecut=40 / intra_refresh=0 / rc_lookahead=40 / rc=crf / mbtree=0 / crf=17.5 / qcomp=0.60 / qpmin=0 / qpmax=69 / qpstep=4 / vbv_maxrate=40000 / vbv_bufsize=50000 / crf_max=0.0 / nal_hrd=none / filler=0 / ip_ratio=1.40 / pb_ratio=1.30 / aq=1:1.00Язык : EnglishDefault : ДаForced : Нет

Аудио #1Идентификатор : 2Формат : AC-3Формат/Информация : Audio Coding 3Расширение режима : CM (complete main)Параметр Endianness формата : BigИдентификатор кодека : A_AC3Продолжительность : 1 ч. 27 м.Вид битрейта : ПостоянныйБитрейт : 448 Кбит/секКаналы : 6 каналовРасположение каналов : Front: L C R, Side: L R, LFEЧастота : 48,0 КГцЧастота кадров : 31,250 кадров/сек (1536 spf)Метод сжатия : С потерямиРазмер потока : 280 Мбайт (10%)Заголовок : DUBЯзык : RussianDefault : ДаForced : Нет

Аудио #2Идентификатор : 3Формат : AC-3Формат/Информация : Audio Coding 3Расширение режима : CM (complete main)Параметр Endianness формата : BigИдентификатор кодека : A_AC3Продолжительность : 1 ч. 27 м.Вид битрейта : ПостоянныйБитрейт : 448 Кбит/секКаналы : 6 каналовРасположение каналов : Front: L C R, Side: L R, LFEЧастота : 48,0 КГцЧастота кадров : 31,250 кадров/сек (1536 spf)Метод сжатия : С потерямиРазмер потока : 280 Мбайт (10%)Заголовок : AVO (Андрей Гаврилов)Язык : RussianDefault : НетForced : Нет

ОбщееПолное имя : D:\Video\Липучка.2011.BDRip.720p\Липучка.2011.eng.srtРазмер файла : 108 Кбайт

ОбщееПолное имя : D:\Video\Липучка.2011.BDRip.720p\Липучка.2011.Original.eng.ac3Формат : AC-3Формат/Информация : Audio Coding 3Размер файла : 279 МбайтПродолжительность : 1 ч. 27 м.Режим общего битрейта : ПостоянныйОбщий поток : 448 Кбит/сек

АудиоФормат : AC-3Формат/Информация : Audio Coding 3Расширение режима : CM (complete main)Параметр Endianness формата : BigПродолжительность : 1 ч. 27 м.Вид битрейта : ПостоянныйБитрейт : 448 Кбит/секКаналы : 6 каналовРасположение каналов : Front: L C R, Side: L R, LFEЧастота : 48,0 КГцЧастота кадров : 31,250 кадров/сек (1536 spf)Метод сжатия : С потерямиРазмер потока : 279 Мбайт (100%)

ОбщееПолное имя : D:\Video\Липучка.2011.BDRip.720p\Липучка.2011.rus.srtРазмер файла : 81,1 Кбайт

ОбщееПолное имя : D:\Video\Липучка.2011.BDRip.720p\Липучка.2011.VO.rus.любительский одноголосый, den904.ac3Формат : AC-3Формат/Информация : Audio Coding 3Размер файла : 280 МбайтПродолжительность : 1 ч. 27 м.Режим общего битрейта : ПостоянныйОбщий поток : 448 Кбит/сек

АудиоФормат : AC-3Формат/Информация : Audio Coding 3Расширение режима : CM (complete main)Параметр Endianness формата : BigПродолжительность : 1 ч. 27 м.Вид битрейта : ПостоянныйБитрейт : 448 Кбит/секКаналы : 6 каналовРасположение каналов : Front: L C R, Side: L R, LFEЧастота : 48,0 КГцЧастота кадров : 31,250 кадров/сек (1536 spf)Метод сжатия : С потерямиРазмер потока : 280 Мбайт (100%)

ОбщееПолное имя : D:\Video\Липучка.2011.BDRip.720p\Липучка.2011.VO.rus.профессиональный одноголосый, Александр Дасевич.ac3Формат : AC-3Формат/Информация : Audio Coding 3Размер файла : 280 МбайтПродолжительность : 1 ч. 27 м.Режим общего битрейта : ПостоянныйОбщий поток : 448 Кбит/сек

АудиоФормат : AC-3Формат/Информация : Audio Coding 3Расширение режима : CM (complete main)Параметр Endianness формата : BigПродолжительность : 1 ч. 27 м.Вид битрейта : ПостоянныйБитрейт : 448 Кбит/секКаналы : 6 каналовРасположение каналов : Front: L C R, Side: L R, LFEЧастота : 48,0 КГцЧастота кадров : 31,250 кадров/сек (1536 spf)Метод сжатия : С потерямиРазмер потока : 280 Мбайт (100%)

piratbit.ru

Скачать фильм Липучка через торрент в хорошем качестве бесплатно HDRip

Раздают: 1 [ 0 KB/s ]
Размер: 1.37 GB | Добавлен: 5 лет 11 мес. назад | Торрент скачан:8078 раз
Реклама Дарим 3000 рублей за регистрацию, не упусти свой шанс получить шикарный бонус!!!

08-11-2011 18:07 Липучка Скачать торрент  

Липучка / Flypaper

Год выпуска: 2011Страна: США, ГерманияЖанр: комедия, криминал, детективПродолжительность: 01:27:14Перевод: Дублированный (Лицензия)

Режиссер: Роб МинкоффПродюссер: Питер Сафран, Марк Дэймон, Патрик ДемпсиСценарий: Джон Лукас, Скотт Мур

Бюджет: $5 000 000

Мировой рейтинг IMDB 6.40 (751)

В ролях: Патрик Демпси, Эшли Джадд, Тим Блейк Нельсон, Мехи Файфер, Мэтт Райан, Джефри Тэмбор, Джон Вентимилья, Прюитт Тэйлор Винс, Октавия Спенсер, Бо Брас

Описание: Перед самым закрытием в банк врывается две группы грабителей. Посетители и работники банка оказываются между двух огней. Один из посетителей старается примирить представителей двух криминальных групп — ведь это единственный шанс выжить для тех кто оказался в банке, а для него шанс произвести впечатление на девушку-кассира, в которую он влюбился с первого взгляда. Постепенно наш герой понимает, что похоже, все кроме него оказались в этом банке в момент ограбления не случайно...

Качество: HDRipФормат: AVIВидео кодек: XviDАудио кодек: AC3Видео: MPEG4, XviD, 720x304 (2.35), 23.976 fps, 1 789 Kbps (0.341 bit/pixel)Аудио: AC-3, 48.0 KHz, 6 ch, 448 Kbps, CBR--> 1080p <-- :ad: --> Укр. дубляж HDRip <-- :ad: --> Ненормативная лексика <--        

Скачать Липучка через торрент http://i32.fastpic.ru/big/2011/1108/29/b2535ec06c5c5d44ad34c54405ffc729.png Скачать фильм Липучка через торрент бесплантно в хорошем качестве Описание: Перед самым закрытием в банк врывается две группы грабителей. Посетители и работники банка оказываются между двух огней. Один ... 2011-11-08 18:07 9.9 10 11

Loading...

Loading...

Последний раз редактировалось: shuller (2011-11-10 18:47), всего редактировалось 1 раз

Рекламный пират

08-11-2011 19:12 Липучка Скачать торрент  

08-11-2011 21:31 Липучка Скачать торрент  

Посмотрел, время потеряно зря. Лишь в конце чуток улыбнулся, т.к не ожидал такой концовки..)

09-11-2011 06:36 Липучка Скачать торрент  

И это ... получило оценку выше семи??!!!Дааа мельчает народец

09-11-2011 09:50 Липучка Скачать торрент  

Неплохо... Мне понравился :)

09-11-2011 15:24 Липучка Скачать торрент  

Супер!!! Давно меня так комедии не радовали

10-11-2011 19:10 Липучка Скачать торрент  

вполне достойный фильм. скоротать вечерок в самый раз. вам что что не фильм то нужен взрыв кинематографа ??? иди х...и сами тогда снимайте умники

Александр Сыркашев

10-11-2011 20:12 Липучка Скачать торрент  

ЗАЧЕТНЫЙ ФИЛЬМ!!!СНЯТ ПРОСТЕНЬКО НО СО ВКУСОМ!!!!ОБАЖАЮ ТАКИЕ ФИЛЬМЫ ПРО АФЕРЫ!!!!А ТУТ ЕЩЕ И ЮМОР ЕСТЬ!!!!ОГРОМНОЕ СПАСИБО!!!!

11-11-2011 09:13 Липучка Скачать торрент  

Фильм зачетний оч. понравился!!!!!!!!!!!!!!!!!

Pекламный агент PB

11-11-2011 09:56 Липучка Скачать торрент  

давно смотрел. фильм хороший! :)

11-11-2011 10:07 Липучка Скачать торрент  

Чоткий фильмец

11-11-2011 20:21 Липучка Скачать торрент  

Люди вы за*рались, если фильм не многомиллионный, то все не айс теперь что ли?

12-11-2011 01:20 Липучка Скачать торрент  

на раз!можно немного душу отвести!

12-11-2011 08:57 Липучка Скачать торрент  

12-11-2011 09:13 Липучка Скачать торрент  

Фильм нормуль, смотреть всем кто любит комедии!!!

12-11-2011 14:09 Липучка Скачать торрент  

от души кино, хоть какая-то новая задумка.

12-11-2011 16:02 Липучка Скачать торрент  

я поржал. раздающим чупс!

Pекламный агент PB

12-11-2011 20:36 Липучка Скачать торрент  

нормальная комедия! лёгкий сюжетик про тупых и умных ,смотрел вполглаза и вполуха!с пивом потянет,с косячком тем более!!!

13-11-2011 00:03 Липучка Скачать торрент  

легкий,в тоже время с закрученным сюжетом. все действо затягивает с первых минут просмотра,очень понравился.советую.

13-11-2011 15:52 Липучка Скачать торрент  

Зря потратил время, фильм неинтересный, и как комедия, фильм вообще никакой!

13-11-2011 17:38 Липучка Скачать торрент  

ладно гляну

14-11-2011 06:03 Липучка Скачать торрент  

Честно сказть : Фильм просто ах**нный!

14-11-2011 11:26 Липучка Скачать торрент  

Концовку все угадали? :)

14-11-2011 14:40 Липучка Скачать торрент  

2 дебила это сила (грабители) Я просто угарал на них реально дебилы!!

14-11-2011 16:18 Липучка Скачать торрент  

охерительный фильм

Pекламный агент PB

Дорогой пользователь! Огромная просьба, поблагодарите релизера, оцените раздачу и оставьте свои комментарий, если Вы скачали Липучка через торрент бесплатно! Внесите свою лепту в развитие PiratBit!

Комментировать посты могут только пользователи прошедшие не сложную регистрацию

Липучка через торрент Скачать бесплатно Липучка Липучка скачать торрент Липучка смотреть онлайн Cкачать фильм Липучка бесплатно Липучка скачать торрент в хорошем качестве Липучка смотреть онлайн бесплатно в хорошем качестве

Вы не можете начинать темыВы не можете отвечать на сообщенияВы не можете редактировать свои сообщенияВы не можете удалять свои сообщенияВы не можете голосовать в опросахВы не можете прикреплять файлы к сообщениямВы можете скачивать файлы

piratbit.ru

Скачать фильм Липучка через торрент в хорошем качестве бесплатно 1080p

Размер: 11.28 GB &verbar; Добавлен: 3 года 8 мес. назад &verbar; Торрент скачан:127 раз
Реклама Дарим 3000 рублей за регистрацию, не упусти свой шанс получить шикарный бонус!!!

11-02-2014 14:11 Липучка Скачать торрент  

Липучка / Flypaper

«Two Bank Heists. One Very Sticky Situation.»

Год выпуска: 2011Страна: Германия, СШАЖанр: комедия, криминалПродолжительность: 01:27:11Перевод №1: Профессиональный (дублированный)Перевод №2: Профессиональный одноголосый, закадровый (А.Дасевич)Перевод №3: Авторский одноголосый, закадровый (А.Карповский, ненормативная лексика)Перевод №4: Любительский одноголосый, закадровый (den904 по субтитрам yarahort)Субтитры: Русские, Английские

Режиссер: Роб МинкоффПродюссер: Марк Дэймон, Патрик Демпси, Моше ДайамантСценарий: Джон Лукас, Скотт Мур

Бюджет: $5 000 000Премьера в мире: 28 января 2011

В ролях: Патрик Демпси / Patrick Dempsey (Tripp Kennedy), Эшли Джадд / Ashley Judd (Kaitlin), Тим Блейк Нельсон / Tim Blake Nelson (Billy Ray 'Peanut Butter' McCloud), Мехи Файфер / Mekhi Phifer (Darrien), Мэтт Райан / Matt Ryan (Gates), Джефри Тэмбор / Jeffrey Tambor (Gordon Blythe), Джон Вентимилья / John Ventimiglia (Weinstein), Прюитт Тэйлор Винс / Pruitt Taylor Vince (Wyatt 'Jelly' Jenkins), Октавия Спенсер / Octavia Spencer (Madge Wiggins), Роб Хюбел / Rob Huebel (Rex Newbauer), Кертис Армстронг / Curtis Armstrong (Mitchell Wolf), Адриан Мартинез / Adrian Martinez (Mr. Clean)

Описание: Перед самым закрытием в банк врывается две группы грабителей. Посетители и работники банка оказываются между двух огней. Один из посетителей старается примирить представителей двух криминальных групп — ведь это единственный шанс выжить для тех кто оказался в банке, а для него шанс произвести впечатление на девушку-кассира, в которую он влюбился с первого взгляда. Постепенно наш герой понимает, что похоже, все кроме него оказались в этом банке в момент ограбления не случайно...

Качество: BDRip 1080pФормат: MKVВидео кодек: MPEG-4 AVC (h364)Аудио кодек: DTSВидео: 1920x818, 23.976 fps, High Profile 4.1, ~11000 kbps avg, bit/(pixel*frame) 0.292Аудио#1: 48 kHz, DTS, 3/2 (L,C,R,l,r) + LFE ch, ~1510.00 kbps avg дубляжАудио#2: 48 kHz, DTS, 3/2 (L,C,R,l,r) + LFE ch, ~1510.00 kbps avg одноголосый закадровый (А.Дасевич)Аудио#3: 48 kHz, DTS, 3/2 (L,C,R,l,r) + LFE ch, ~1510.00 kbps avg одноголосый закадровый (А.Карповский, ненормативная лексика)Аудио#4: 48 kHz, DTS, 3/2 (L,C,R,l,r) + LFE ch, ~1510.00 kbps avg одноголосый закадровый (den904 по субтитрам yarahort)Аудио#5: 48 kHz, DTS, 3/2 (L,C,R,l,r) + LFE ch, ~1510.00 kbps avg original EnglishАвтор рипа: Cugel Goes Outlands

F:Flypaper [Липучка] (2011) 1920x818 BDRip RusEngSubsChpt.mkvGeneralUnique ID : 185079759622141630990320732921802733768 (0x8B3D10AB6AF23B71A544879EEF4B38C8)Complete name : F:Flypaper [Липучка] (2011) 1920x818 BDRip RusEngSubsChpt.mkvFormat : MatroskaFormat version : Version 4 / Version 2File size : 11.3 GiBDuration : 1h 27mnOverall bit rate : 18.5 MbpsEncoded date : UTC 2013-02-08 05:17:18Writing application : mkvmerge v6.0.0 ('Coming Up For Air') built on Jan 20 2013 09:52:00Writing library : libebml v1.3.0 + libmatroska v1.4.0Video #1ID : 1Format : AVCFormat/Info : Advanced Video CodecFormat profile : [email protected] settings, CABAC : YesFormat settings, ReFrames : 5 framesCodec ID : V_MPEG4/ISO/AVCDuration : 1h 27mnBit rate : 11.0 MbpsWidth : 1 920 pixelsHeight : 818 pixelsDisplay aspect ratio : 2.35:1Frame rate mode : ConstantFrame rate : 23.976 fpsColor space : YUVChroma subsampling : 4:2:0Bit depth : 8 bitsScan type : ProgressiveBits/(Pixel*Frame) : 0.292Stream size : 6.46 GiB (57%)Writing library : x264 core 129 r2245+704+36 8e61944 tMod+MixAQ [[email protected] X86_64]Encoding settings : cabac=1 / ref=5 / deblock=1:-3:-3 / analyse=0x3:0x133 / me=umh / subme=10 / psy=1 / fade_compensate=0.00 / psy_rd=1.00:0.15 / mixed_ref=1 / me_range=32 / chroma_me=1 / trellis=2 / 8x8dct=1 / cqm=0 / deadzone=21,11 / fast_pskip=0 / chroma_qp_offset=-3 / threads=12 / lookahead_threads=2 / sliced_threads=0 / nr=0 / decimate=0 / interlaced=0 / bluray_compat=0 / constrained_intra=0 / fgo=0 / bframes=10 / b_pyramid=2 / b_adapt=2 / b_bias=0 / direct=3 / weightb=1 / open_gop=0 / weightp=2 / keyint=250 / keyint_min=23 / scenecut=40 / intra_refresh=0 / rc_lookahead=80 / rc=2pass / mbtree=1 / bitrate=11000 / ratetol=1.0 / qcomp=0.70 / qpmin=0 / qpmax=69 / qpstep=4 / cplxblur=20.0 / qblur=0.5 / ip_ratio=1.40 / aq=4 / aq-strength=0.80 / aq-sensitivity=10.00 / aq-ifactor=1.00 / aq-pfactor=1.00 / aq-bfactor=1.00 / aq2=0 / zones=119532,125438,b=0.3Language : EnglishDefault : YesForced : NoColor primaries : BT.709Transfer characteristics : BT.709Matrix coefficients : BT.709Audio #2ID : 2Format : DTSFormat/Info : Digital Theater SystemsMode : 16Format settings, Endianness : BigCodec ID : A_DTSDuration : 1h 27mnBit rate mode : ConstantBit rate : 1 509 KbpsChannel(s) : 6 channelsChannel positions : Front: L C R, Side: L R, LFESampling rate : 48.0 KHzBit depth : 24 bitsCompression mode : LossyStream size : 942 MiB (8%)Title : Dub DTS 6ch 1510kbpsLanguage : RussianDefault : YesForced : NoAudio #3ID : 3Format : DTSFormat/Info : Digital Theater SystemsMode : 16Format settings, Endianness : BigCodec ID : A_DTSDuration : 1h 27mnBit rate mode : ConstantBit rate : 1 509 KbpsChannel(s) : 6 channelsChannel positions : Front: L C R, Side: L R, LFESampling rate : 48.0 KHzBit depth : 16 bitsCompression mode : LossyStream size : 942 MiB (8%)Title : AVO DTS 6ch 1510kbps (А.Дасевич)Language : RussianDefault : NoForced : NoAudio #4ID : 4Format : DTSFormat/Info : Digital Theater SystemsMode : 16Format settings, Endianness : BigCodec ID : A_DTSDuration : 1h 27mnBit rate mode : ConstantBit rate : 1 509 KbpsChannel(s) : 6 channelsChannel positions : Front: L C R, Side: L R, LFESampling rate : 48.0 KHzBit depth : 16 bitsCompression mode : LossyStream size : 942 MiB (8%)Title : AVO DTS 6ch 1510kbps (А.Карповский, ненормативная лексика)Language : RussianDefault : NoForced : NoAudio #5ID : 5Format : DTSFormat/Info : Digital Theater SystemsMode : 16Format settings, Endianness : BigCodec ID : A_DTSDuration : 1h 27mnBit rate mode : ConstantBit rate : 1 509 KbpsChannel(s) : 6 channelsChannel positions : Front: L C R, Side: L R, LFESampling rate : 48.0 KHzBit depth : 16 bitsCompression mode : LossyStream size : 942 MiB (8%)Title : VO DTS 6ch 1510kbps (den904 по субтитрам yarahort)Language : RussianDefault : NoForced : NoAudio #6ID : 6Format : DTSFormat/Info : Digital Theater SystemsMode : 16Format settings, Endianness : BigCodec ID : A_DTSDuration : 1h 27mnBit rate mode : ConstantBit rate : 1 509 KbpsChannel(s) : 6 channelsChannel positions : Front: L C R, Side: L R, LFESampling rate : 48.0 KHzBit depth : 16 bitsCompression mode : LossyStream size : 942 MiB (8%)Title : Original DTS 6ch 1510kbpsLanguage : EnglishDefault : NoForced : NoText #7ID : 7Format : UTF-8Codec ID : S_TEXT/UTF8Codec ID/Info : UTF-8 Plain TextTitle : R5Language : RussianDefault : NoForced : NoText #8ID : 8Format : UTF-8Codec ID : S_TEXT/UTF8Codec ID/Info : UTF-8 Plain TextLanguage : RussianDefault : NoForced : NoText #9ID : 9Format : UTF-8Codec ID : S_TEXT/UTF8Codec ID/Info : UTF-8 Plain TextLanguage : EnglishDefault : NoForced : NoMenu00:00:00.000 : :0:00:00.00000:13:39.902 : :0:13:39.90200:20:48.580 : :0:20:48.58000:28:49.519 : :0:28:49.51900:35:16.656 : :0:35:16.65600:39:59.063 : :0:39:59.06300:47:08.116 : :0:47:08.11600:53:16.985 : :0:53:16.98500:58:56.074 : :0:58:56.07401:07:00.641 : :1:07:00.64101:13:59.935 : :1:13:59.93501:18:27.411 : :1:18:27.411

x264 [info]: frame I:946 Avg QP:13.41 size:242217 PSNR Mean Y:50.47 U:56.01 V:57.07 Avg:51.63 Global:51.31x264 [info]: frame P:28486 Avg QP:15.60 size: 95383 PSNR Mean Y:48.60 U:55.21 V:56.07 Avg:49.82 Global:49.40x264 [info]: frame B:96006 Avg QP:17.34 size: 44030 PSNR Mean Y:47.08 U:53.71 V:54.83 Avg:48.33 Global:47.96x264 [info]: consecutive B-frames: 2.6% 2.6% 12.7% 13.8% 18.4% 45.6% 3.0% 0.5% 0.3% 0.2% 0.2%x264 [info]: mb I I16..4: 13.3% 73.1% 13.6%x264 [info]: mb P I16..4: 3.4% 20.7% 2.5% P16..4: 32.9% 18.3% 11.4% 1.2% 0.4% skip: 9.2%x264 [info]: mb B I16..4: 0.4% 3.6% 0.3% B16..8: 39.6% 12.9% 2.9% direct: 9.7% skip:30.8% L0:43.4% L1:39.4% BI:17.2%x264 [info]: 8x8 transform intra:79.3% inter:51.4%x264 [info]: direct mvs spatial:98.6% temporal:1.4%x264 [info]: coded y,uvDC,uvAC intra: 86.4% 69.2% 47.4% inter: 34.2% 26.1% 7.5%x264 [info]: i16 v,h,dc,p: 43% 10% 17% 30%x264 [info]: i8 v,h,dc,ddl,ddr,vr,hd,vl,hu: 15% 12% 18% 8% 9% 9% 9% 10% 11%x264 [info]: i4 v,h,dc,ddl,ddr,vr,hd,vl,hu: 20% 10% 7% 8% 12% 12% 11% 9% 11%x264 [info]: i8c dc,h,v,p: 55% 21% 17% 8%x264 [info]: Weighted P-Frames: Y:97.8% UV:1.0%x264 [info]: ref P L0: 45.4% 8.2% 25.2% 10.1% 9.8% 1.2% 0.0%x264 [info]: ref B L0: 74.6% 18.1% 5.7% 1.7%x264 [info]: ref B L1: 91.7% 8.3%x264 [info]: SSIM Mean Y:0.9862970 (18.632db)x264 [info]: PSNR Mean Y:47.451 U:54.068 V:55.129 Avg:48.691 Global:48.265 kb/s:10968.87x264 [info]: encoded 125438 frames, 8.599 fps, 10968.87 kb/s, 6841.1 MBx264 [info]: ended at Fri Feb 08 12:12:13 2013x264 [info]: encoding duration 4:03:07

Липучка скачать торрент

Скачать Липучка через торрент http://pic.pb.wtf/images/6/a15s8.jpg Скачать фильм Липучка через торрент бесплантно в хорошем качестве Описание: Перед самым закрытием в банк врывается две группы грабителей. Посетители и работники банка оказываются между двух огней. Один из ... 2014-02-11 14:11 10 10 8

Loading...

Loading...

Последний раз редактировалось: -Lexx- (2014-02-11 15:44), всего редактировалось 2 раз(а)

Рекламный пират

06-04-2014 06:28 Липучка Скачать торрент  

Дорогой пользователь! Огромная просьба, поблагодарите релизера, оцените раздачу и оставьте свои комментарий, если Вы скачали Липучка через торрент бесплатно! Внесите свою лепту в развитие PiratBit!

Комментировать посты могут только пользователи прошедшие не сложную регистрацию

Липучка через торрент Скачать бесплатно Липучка Липучка скачать торрент Липучка смотреть онлайн Cкачать фильм Липучка бесплатно Липучка скачать торрент в хорошем качестве Липучка смотреть онлайн бесплатно в хорошем качестве

Вы не можете начинать темыВы не можете отвечать на сообщенияВы не можете редактировать свои сообщенияВы не можете удалять свои сообщенияВы не можете голосовать в опросахВы не можете прикреплять файлы к сообщениямВы можете скачивать файлы

piratbit.ru


Смотрите также