Скачать фильм малхолланд драйв через торрент в хорошем качестве бесплатно


Малхолланд Драйв (2001) скачать торрент в хорошем качестве бесплатно

Описание фильма "Малхолланд Драйв"

Таинственный триллер талантливого режиссера Дэведа Линча “Малхолланд Драйв” стал культурным феноменом в 2001 году. 15 лет прошло, после его выхода, однако восторги и споры вокруг этой ленты, до сих пор не утихли. А причина этого проста: эта кинолента представляет собой нечто, что нельзя назвать просто фильмом. Режиссер предлагает нам настоящую филигранную головоломку, а не просто двухчасовое зрелище. Решить эту головоломку крайне сложно, ведь существует масса объяснений происходящего, которые имеют логическую цепочку, однако истина здесь одна, и чтобы понять ее, придется не раз пересматривать этот шедевр кинематографа.

Сюжет картины начинается с автокатастрофы, которая происходит неподалеку от Лос-Анджелеса, на шоссе Малхолланд. Главным персонажем в этом происшествии является темноволосая девушка, которой удается выжить, однако она ничего не может вспомнить о себе. Главный герой отправляется в ближайший город и проникает в пустую квартиру. Вскоре туда также прибывает Бэтти - девушка, мечтающая стать актрисой. Хозяйкой квартиры является ее тетя, которая уехала в отпуск, а племянницу попросила присмотреть за имуществом.

Далее последует неожиданное столкновение и знакомство двух девушек. Тайно проникшая в дом девушка рассказывает Бэтти свою историю, и та решает помочь ей в поиске информации о себе. Чтобы узнать, каким образом она оказалась на шоссе Малхолланд, пара пускаются в пугающее и загадочное путешествие по городу Лос-Анджелес, где таинственные люди проводят странные кастинги вовсе не на роль в кино, где ночные кошмары становятся явью а реальность и искусство настолько тесно переплетены, что становится трудно отличить реальность и галлюциногенную фантазию. Чем дальше главные герои заходят в поисках, тем более эфемерным становится все вокруг них.

Этот киношедевр определенно придется по вкусу любителям запутанных и таинственных историй, где ответ скрыт намного глубже, чем может показаться, но для полного понимания происходящего на экране, зрителю следует не упускать ни одну сюжетную деталь. Каждая мелочь в этой картине, это крупица ответа.

Скачать Малхолланд Драйв через торрент

Сиды Качество Перевод Размер Видео Аудио
Скачать Загрузка... BDRemux Дублированный / Профессиональный многоголосый (Видеосервис, Карусель, CP Digital) / Профессиональный двухголосый (Гланц и И. Королева) / Авторский одноголосый (Юрий Сербин, Василий Горчаков, Юрий Живов, Сергей Визгунов) 48,80 Гб MPEG-4 AVC, 24002 Кбит/с, 1920х1080, 23.976 кадр/с Русский (AC3, 6 ch, 384 Кбит/с), (AC3, 6 ch, 448 Кбит/с), (DTS-HD МА, 6 ch, ~1964 Кбит/с), английский (DTS-HD МА, 6 ch, 3711 Кбит/с)
Скачать Загрузка... BDRip1080 Дублированный (Невафильм) + Двухголосый закадровый (Видеосервис) + Авторский (Ю.Сербин) 15,31 Гб 1920x1036 (1,85:1), 23.976 fps, 11,6 Mbps AC-3, 6 ch, 640 kbps (Original)
Скачать Загрузка... BDRip1080 Дублированный / Профессиональный многоголосый (Видеосервис, Карусель, CP Digital) / Авторский одноголосый (Юрий Сербин, Василий Горчаков) 49,77 Гб MPEG-4 AVC, 24002 Кбит/с, 1920х1080, 23.976 кадр/с Русский (AC3, 6 ch, 384 Кбит/с), (AC3, 6 ch, 448 Кбит/с), английский (DTS-HD МА, 6 ch, 3711 Кбит/с)
Скачать Загрузка... WEB-DL Профессиональный (многоголосый закадровый) - Россия 1,57 Гб XviD, 656x352 (1.85:1), 23.976 fps, 1224 kbps avg 48 khz, AC3 Dolby Digital, 2/0 (L,R) ch, ~192 kbps
Скачать Загрузка... WEB-DL Дублированный + Профессиональный, многоголосый (Карусель) + Профессиональный, многоголосый (CP Digital) + Профессиональный, многоголосый (Видеосервис) + Авторский, одноголосый (Юрий Живов) + Авторский, одноголосый (Василий Горчаков) 5,11 Гб 704x384 (1.83:1), 23.976 fps, XviD ~2014 kbps avg, 0.31 bit/pixel Русский (Dolby AC3, 6 ch, 448 Кбит/с) (пять аудиодорожек), Русский (Dolby AC3, 6 ch, 384 Кбит/с) (Дублированный)

У нас вы можете легко скачать Малхолланд Драйв через торрент бесплатно в хорошем качестве, оставляйте комментарии и делитесь впечатлениями!

kino.kak.to

Скачать фильм Малхолланд Драйв через торрент в хорошем качестве бесплатно HDRip

Размер: 2.18 GB | Добавлен: 4 года 5 мес. назад | Торрент скачан:257 раз
Реклама Дарим 3000 рублей за регистрацию, не упусти свой шанс получить шикарный бонус!!!

14-05-2013 10:02 Малхолланд Драйв Скачать торрент  

Малхолланд Драйв / Mulholland Dr.

«Beware what you dream for...»Год выпуска: 2001Страна: Жанр: триллер, драма, детектив,Продолжительность: 02:27:00Перевод: Дубляж, Лицензия

Режиссер: Дэвид ЛинчПродюссер: Нил Эдельштейн, Тони Крантц, Майкл ПолейрСценарий: Дэвид Линч

Бюджет: $15 000 000Премьера в мире: 16 мая 2001

Рейтинг MPAA: Лицам до 17 лет обязательно присутствие взрослого

В ролях: Наоми Уоттс, Лаура Хэрринг, Джастин Теру, Энн Миллер, Дэн Хедайя, Брент Бриско, Роберт Форстер, Кэтрин Таун, Ли Грант, Скотт Коффи

Описание: Загадочная девушка, страдающая потерей памяти после автомобильной аварии, выбирает себе имя Рита с рекламного плаката к фильму с Ритой Хейворт и пытается с новым именем начать в Голливуде новую жизнь. Но тайны прошлого неотступно преследуют ее.Кто были те двое мужчин, что сидели в одной машине с ней и погибли в аварии? Почему полиция подозревает, что она была похищена ими? И случайно ли в ее жизни появляется новая подруга, начинающая актриса Бетти?

Оскар, 2002 годНоминации (1):[img]http://pic.pb.wtf/images/2/vxzlkimkg8.gif [/img]Лучший режиссер (Дэвид Линч)

Золотой глобус, 2002 годНоминации (4):[img]http://pic.pb.wtf/images/2/vxzlkimkg8.gif [/img]Лучший фильм (драма)[img]http://pic.pb.wtf/images/2/vxzlkimkg8.gif [/img]Лучший режиссер (Дэвид Линч)[img]http://pic.pb.wtf/images/2/vxzlkimkg8.gif [/img]Лучший сценарий[img]http://pic.pb.wtf/images/2/vxzlkimkg8.gif [/img]Лучший саундтрек

Британская академия, 2002 годПобедитель (1):[img]http://pic.pb.wtf/images/2/vxzlkimkg8.gif [/img]Лучший монтажНоминации (1):[img]http://pic.pb.wtf/images/2/vxzlkimkg8.gif [/img]Премия имени Энтони Эскуита за достижения в создании музыки к фильму

Сезар, 2002 годПобедитель (1):[img]http://pic.pb.wtf/images/2/vxzlkimkg8.gif [/img]Лучший фильм на иностранном языке

Каннский кинофестиваль, 2001 годПобедитель (1):[img]http://pic.pb.wtf/images/2/vxzlkimkg8.gif [/img]Лучший режиссер (Дэвид Линч)Номинации (1):[img]http://pic.pb.wtf/images/2/vxzlkimkg8.gif [/img]Золотая пальмовая ветвь

* Фильм появился на свет в 1999 году и состоял из нескольких пилотных телевизионных-серий (первые 120 мин. фильма), снятых с бюджетом 8 млн.$ и новых сцен (последние 26 минут фильма), доснятых год спустя на 7 млн.$. Эти деньги были предоставлены французской киностудией «Studio Canal» для прояснения финала фильма, который в первоначальном варианте фильма оставался нераскрытым, так как планировалось продолжать съёмки «Малхолланд Драйва» в качестве телевизионного сериала.* Лимузин, на котором ехала Рита/Камилла Роудс, имел номерной знак «2GAT123». Машины, точно с такими же Калифорнийскими номерными знаками появлялись в таких фильмах, как «Полицейский из Беверли-Хиллз II» (1987), «Лос-Анджелесская история» (1991), «Траффик» (2000), «Заплати другому» (2000), «Безумная и прекрасная» (2001).* Когда Рита и Бэтти приходят в жилой комплекс «Sierra Bonita», рядом с квартирой № 17 на двери написано имя L. J. DeRosa — имя члена художественного отдела Лауры Дж. ДеРосы.* Героиня Н. Уоттс Бэтти родом из Дип Ривер, Онтарио (Deep River, Ontario). Точное такое же название апартаментов было в другом фильме Д. Линча «Синий бархат» (1986).* На многие женские роли в фильме Линч отобрал актрис из телевизионных сериалов. По совпадению, Наоми Уоттс (Бэтти/Дайан), Мелисса Джордж (Камилла Роудс) и Элизабет Лэки (Кэрол) имели совместный опыт работы в австралийском сериале «Дома и в пути» (1988).* Фильм посвящён молодой Дженнифер Сайм, чья жизненная история очень похожа на историю Бэтти. К сожалению, она ушла из жизни во время съёмок фильма, когда бОльшая часть его уже была отснята.* В роли голливудского воротилы, любителя кофе эспрессо снялся композитор фильма Анджело Бадаламенти.* В роли леди с голубыми волосами снялась редактор сценария Кори Глейзер.* В роли человека с пылесосом — координатор трюковой группы Чарли Крафвелл.* На DVD фильма отсутствует деление ленты на небольшие фрагменты. Как и в случае с фильмом «Простая история», на этом настоял сам Дэвид Линч: по его мнению, это призывает зрителей просматривать фильм за один присест. К такой же хитрости в DVD-релизе своего фильма «Форрест Гамп» (1994) прибегнул режиссёр Роберт Земекис.* Записи фильма поступили в кинотеатры вместе со специальным обращением Дэвида Линча. В нём он просит киномехаников не располагать изображение по центру экрана, а сместить его несколько выше, чтобы верхняя часть кадра была видна лучше, чем нижняя.* Направляясь для прослушивания на роль Камиллы Роудс/Риты, актриса Лора Харринг попала в небольшую автомобильную аварию.* Сцена, где Адам Кешер разбивает лобовое стекло продюсерской машины клюшкой для гольфа — это, не что иное, как отсылка к реальному инциденту 1994 года, в котором волю рукам дал разъярённый Джек Николсон. Интересно то, что Николсон известен под прозвищем «Человек с Малхолланда» (Mulholland Man).* Во время сцены на ферме, у персонажа Ковбоя отсутствуют брови. Это было сделано специально, для того, чтоб его появление на экране выглядело более коварно и устрашаюше.* Несмотря на то, что картину, высящую в квартире тёти Бэтти, ошибочно принимают за творение Яна Вермеера «Девушка с жемчужной серёжкой», на самом деле это не что иное, как картина Гуидо Рени «Беатриче Ченчи».* 10 подсказок Дэвида Линча о том, как разгадать этот триллер:1. Уделите особое внимание началу фильма: как минимум две подсказки появляются перед титрами.2. Проследите появление на экране красного абажура.3. Можете ли вы расслышать название фильма, на роль в котором Адам Кешер прослушивает актрис? Упоминается ли оно снова?4. Автомобильная авария — ужасное происшествие… обратите внимание на место, где авария произошла.5. Кто даёт ключ и зачем?6. Обратите внимание на халат, пепельницу и кофейную чашку.7. Какие ощущения, соображения и выводы появляются в клубе «Силенсио» (Silencio).8. Только ли один талант помогает добиться успеха Камилле?9. Отметьте происшествия, окружающие человека за баром «Винкис» (Winkies).10. Где тётушка Рут?

Качество: HDRip Формат: AVIВидео кодек: XviDАудио кодек: AC3Видео: 720x384 (1.88:1), 23.976 fps, XviD build 47 ~1678 kbps avg, 0.25 bit/pixelАудио#1: 48 kHz, AC3 Dolby Digital, 3/2 (L,C,R,l,r) + LFE ch, ~448 kbps

Mulholland Drive.aviGeneralComplete name : Mulholland Drive.aviFormat : AVIFormat/Info : Audio Video InterleaveFormat profile : OpenDMLFile size : 2.18 GiBDuration : 2h 26mnOverall bit rate : 2 134 KbpsMovie name : Малхолланд Драйв / Mulholland Drive (2001)Director : SENATOR (HDRip 1080)Writing application : VirtualDubMod 1.5.10.2 (build 2540/release)Copyright : HQ-ViDEO (www.hq-video.ru)Comment : 6.06.2008Video #0ID : 0Format : MPEG-4 VisualFormat profile : Advanced [email protected] settings, BVOP : 1Format settings, QPel : NoFormat settings, GMC : No warppointsFormat settings, Matrix : Default (MPEG)Codec ID : XVIDCodec ID/Hint : XviDDuration : 2h 26mnBit rate : 1 674 KbpsWidth : 720 pixelsHeight : 384 pixelsDisplay aspect ratio : 1.85:1Frame rate : 23.976 fpsColor space : YUVChroma subsampling : 4:2:0Bit depth : 8 bitsScan type : ProgressiveCompression mode : LossyBits/(Pixel*Frame) : 0.253Stream size : 1.71 GiB (78%)Writing library : XviD 1.2.0.dev47 (UTC 2006-11-01)Audio #1ID : 1Format : AC-3Format/Info : Audio Coding 3Mode extension : CM (complete main)Format settings, Endianness : BigCodec ID : 2000Duration : 2h 26mnBit rate mode : ConstantBit rate : 448 KbpsChannel(s) : 6 channelsChannel positions : Front: L C R, Side: L R, LFESampling rate : 48.0 KHzBit depth : 16 bitsCompression mode : LossyStream size : 470 MiB (21%)Alignment : Split accross interleavesInterleave, duration : 42 ms (1.00 video frame)Interleave, preload duration : 500 ms

Малхолланд Драйв скачать торрент

Скачать Малхолланд Драйв через торрент http://i.imgur.com/7ztCwBx.jpg Скачать фильм Малхолланд Драйв через торрент бесплантно в хорошем качестве Описание: Загадочная девушка, страдающая потерей памяти после автомобильной аварии, выбирает себе имя Рита с рекламного плаката к фильму с ... 2013-05-14 10:02 9.7 10 10

Loading...

Loading...

Рекламный пират

13-10-2013 09:43 Малхолланд Драйв Скачать торрент  

Встаньте на раздачу

Дорогой пользователь! Огромная просьба, поблагодарите релизера, оцените раздачу и оставьте свои комментарий, если Вы скачали Малхолланд Драйв через торрент бесплатно! Внесите свою лепту в развитие PiratBit!

Комментировать посты могут только пользователи прошедшие не сложную регистрацию

Малхолланд Драйв через торрент Скачать бесплатно Малхолланд Драйв Малхолланд Драйв скачать торрент Малхолланд Драйв смотреть онлайн Cкачать фильм Малхолланд Драйв бесплатно Малхолланд Драйв скачать торрент в хорошем качестве Малхолланд Драйв смотреть онлайн бесплатно в хорошем качестве

Вы не можете начинать темыВы не можете отвечать на сообщенияВы не можете редактировать свои сообщенияВы не можете удалять свои сообщенияВы не можете голосовать в опросахВы не можете прикреплять файлы к сообщениямВы можете скачивать файлы

piratbit.ru

Малхолланд Драйв 2001 - скачать бесплатно через торрент в хорошем качестве. Без регистрации

Название: Малхолланд Драйв / Mulholland Drive (2001) BDRemux 1080p от NovaLan | 4K Remastered
Качество видео: BDRemux 1080p
Перевод: Дублированный / Профессиональный многоголосый (Видеосервис, Карусель, CP Digital) / Профессиональный двухголосый (Гланц и И. Королева) / Авторский одноголосый (Юрий Сербин, Василий Горчаков, Юрий Живо
Видео: H.264 MPEG-4 AVC, 24002 Кбит/с, 1920х1080, 23.976 кадр/с
Аудио: Русский (AC3, 6 ch, 384 Кбит/с), (AC3, 6 ch, 448 Кбит/с), (DTS-HD МА, 6 ch, ~1964 Кбит/с), английский (DTS-HD МА, 6 ch, 3711 Кбит/с)
Скачать

Загрузка начнется в течение 5 сек.

45.45 GB

Название: Малхолланд Драйв / Mulholland Drive (2001) Blu-ray 1080p от NovaLan | 4K Remastered
Качество видео: Blu-ray 1080p
Перевод: Дублированный / Профессиональный многоголосый (Видеосервис, Карусель, CP Digital) / Авторский одноголосый (Юрий Сербин, Василий Горчаков)
Видео: H.264 MPEG-4 AVC, 24002 Кбит/с, 1920х1080, 23.976 кадр/с
Аудио: Русский (AC3, 6 ch, 384 Кбит/с), (AC3, 6 ch, 448 Кбит/с), английский (DTS-HD МА, 6 ch, 3711 Кбит/с)
Скачать

Загрузка начнется в течение 5 сек.

46.35 GB

Название: Малхолланд Драйв / Mulholland Drive (2001) BDRip
Качество видео: BDRip
Перевод: Дублированный + Профессиональный, многоголосый (Карусель) + Профессиональный, многоголосый (CP Digital) + Профессиональный, многоголосый (Видеосервис) + Авторский, одноголосый (Юрий Живов) + Авторский
Видео: XviD 704x384 (1.83:1), 23.976 fps, XviD ~2014 kbps avg, 0.31 bit/pixel
Аудио: Русский (Dolby AC3, 6 ch, 448 Кбит/с) (пять аудиодорожек), Русский (Dolby AC3, 6 ch, 384 Кбит/с) (Дублированный)
Скачать

Загрузка начнется в течение 5 сек.

4.76 GB

Название: Малхолланд Драйв / Mulholland Drive (2001) HDRip от Scarabey
Качество видео: HDRip
Перевод: Профессиональный (полное дублирование)
Формат видео: AVI
Видео: 688x368 (1.87:1), 24.000 fps, XviD build 50 ~1218 kbps avg, 0.20 bit/pixel
Аудио: 48 kHz, AC3 Dolby Digital, 2/0 (L,R) ch, ~192.00 kbps avg
Скачать

Загрузка начнется в течение 5 сек.

1.45 GB

www.kinovit.net

Скачать фильм Малхолланд Драйв через торрент в хорошем качестве бесплатно 1080p] DUB

Format                                   : MatroskaFormat version                           : Version 2File size                                : 18.3 GiBDuration                                 : 2h 26mnOverall bit rate                         : 17.9 MbpsMovie name                               : Malholland Drajv.(2001).BDRip.1080p.[denis100]Encoded date                             : UTC 2015-06-10 07:46:45Writing application                      : mkvmerge v5.8.0 ('No Sleep / Pillow') built on Sep  2 2012 15:37:04Writing library                          : libebml v1.2.3 + libmatroska v1.3.0

VideoID                                       : 1Format                                   : AVCFormat/Info                              : Advanced Video CodecFormat profile                           : [email protected] settings, CABAC                   : YesFormat settings, ReFrames                : 4 framesCodec ID                                 : V_MPEG4/ISO/AVCDuration                                 : 2h 26mnBit rate                                 : 13.0 MbpsWidth                                    : 1 920 pixelsHeight                                   : 1 038 pixelsDisplay aspect ratio                     : 1.850Frame rate                               : 23.976 fpsColor space                              : YUVChroma subsampling                       : 4:2:0Bit depth                                : 8 bitsScan type                                : ProgressiveBits/(Pixel*Frame)                       : 0.272Stream size                              : 12.9 GiB (71%)Title                                    : Malholland Drajv.(2001).BDRip.1080p.[denis100]Writing library                          : x264 core 146 r2538 121396cEncoding settings                        : cabac=1 / ref=4 / deblock=1:-3:-3 / analyse=0x3:0x133 / me=umh / subme=11 / psy=1 / psy_rd=1.00:0.05 / mixed_ref=1 / me_range=32 / chroma_me=1 / trellis=2 / 8x8dct=1 / cqm=0 / deadzone=21,11 / fast_pskip=0 / chroma_qp_offset=-3 / threads=6 / lookahead_threads=1 / sliced_threads=0 / nr=0 / decimate=1 / interlaced=0 / bluray_compat=0 / constrained_intra=0 / bframes=8 / b_pyramid=2 / b_adapt=2 / b_bias=0 / direct=3 / weightb=1 / open_gop=0 / weightp=2 / keyint=240 / keyint_min=23 / scenecut=40 / intra_refresh=0 / rc=2pass / mbtree=0 / bitrate=13000 / ratetol=1.0 / qcomp=0.60 / qpmin=0 / qpmax=69 / qpstep=4 / cplxblur=20.0 / qblur=0.5 / ip_ratio=1.40 / pb_ratio=1.30 / aq=1:0.90Language                                 : EnglishDefault                                  : YesForced                                   : No

Audio #1ID                                       : 2Format                                   : AC-3Format/Info                              : Audio Coding 3Mode extension                           : CM (complete main)Codec ID                                 : A_AC3Duration                                 : 2h 26mnBit rate mode                            : ConstantBit rate                                 : 384 KbpsChannel(s)                               : 6 channelsChannel positions                        : Front: L C R, Side: L R, LFESampling rate                            : 48.0 KHzBit depth                                : 16 bitsCompression mode                         : LossyStream size                              : 403 MiB (2%)Title                                    : Дублированный,R5Language                                 : RussianDefault                                  : YesForced                                   : No

Audio #2ID                                       : 3Format                                   : AC-3Format/Info                              : Audio Coding 3Mode extension                           : CM (complete main)Codec ID                                 : A_AC3Duration                                 : 2h 26mnBit rate mode                            : ConstantBit rate                                 : 640 KbpsChannel(s)                               : 6 channelsChannel positions                        : Front: L C R, Side: L R, LFESampling rate                            : 48.0 KHzBit depth                                : 16 bitsCompression mode                         : LossyStream size                              : 671 MiB (4%)Title                                    : Двухголосый закадровый, ВидеосервисLanguage                                 : RussianDefault                                  : NoForced                                   : No

Audio #3ID                                       : 4Format                                   : AC-3Format/Info                              : Audio Coding 3Mode extension                           : CM (complete main)Codec ID                                 : A_AC3Duration                                 : 2h 26mnBit rate mode                            : ConstantBit rate                                 : 640 KbpsChannel(s)                               : 6 channelsChannel positions                        : Front: L C R, Side: L R, LFESampling rate                            : 48.0 KHzBit depth                                : 16 bitsCompression mode                         : LossyStream size                              : 671 MiB (4%)Title                                    : Двухголосый закадровый, КарусельLanguage                                 : RussianDefault                                  : NoForced                                   : No

Audio #4ID                                       : 5Format                                   : AC-3Format/Info                              : Audio Coding 3Mode extension                           : CM (complete main)Codec ID                                 : A_AC3Duration                                 : 2h 26mnBit rate mode                            : ConstantBit rate                                 : 640 KbpsChannel(s)                               : 6 channelsChannel positions                        : Front: L C R, Side: L R, LFESampling rate                            : 48.0 KHzBit depth                                : 16 bitsCompression mode                         : LossyStream size                              : 671 MiB (4%)Title                                    : Двухголосый закадровый, П.Гланц и И.КоролеваLanguage                                 : RussianDefault                                  : NoForced                                   : No

Audio #5ID                                       : 6Format                                   : AC-3Format/Info                              : Audio Coding 3Mode extension                           : CM (complete main)Codec ID                                 : A_AC3Duration                                 : 2h 26mnBit rate mode                            : ConstantBit rate                                 : 448 KbpsChannel(s)                               : 6 channelsChannel positions                        : Front: L C R, Side: L R, LFESampling rate                            : 48.0 KHzBit depth                                : 16 bitsCompression mode                         : LossyStream size                              : 470 MiB (3%)Title                                    : Двухголосый закадровый, CP DigitalLanguage                                 : RussianDefault                                  : NoForced                                   : No

Audio #6ID                                       : 7Format                                   : AC-3Format/Info                              : Audio Coding 3Mode extension                           : CM (complete main)Codec ID                                 : A_AC3Duration                                 : 2h 26mnBit rate mode                            : ConstantBit rate                                 : 640 KbpsChannel(s)                               : 6 channelsChannel positions                        : Front: L C R, Side: L R, LFESampling rate                            : 48.0 KHzBit depth                                : 16 bitsCompression mode                         : LossyStream size                              : 671 MiB (4%)Title                                    : Авторский, Ю.СербинLanguage                                 : RussianDefault                                  : NoForced                                   : No

Audio #7ID                                       : 8Format                                   : AC-3Format/Info                              : Audio Coding 3Mode extension                           : CM (complete main)Codec ID                                 : A_AC3Duration                                 : 2h 26mnBit rate mode                            : ConstantBit rate                                 : 640 KbpsChannel(s)                               : 6 channelsChannel positions                        : Front: L C R, Side: L R, LFESampling rate                            : 48.0 KHzBit depth                                : 16 bitsCompression mode                         : LossyStream size                              : 671 MiB (4%)Title                                    : Авторский, Ю.ЖивовLanguage                                 : RussianDefault                                  : NoForced                                   : No

Audio #8ID                                       : 9Format                                   : AC-3Format/Info                              : Audio Coding 3Mode extension                           : CM (complete main)Codec ID                                 : A_AC3Duration                                 : 2h 26mnBit rate mode                            : ConstantBit rate                                 : 640 KbpsChannel(s)                               : 6 channelsChannel positions                        : Front: L C R, Side: L R, LFESampling rate                            : 48.0 KHzBit depth                                : 16 bitsCompression mode                         : LossyStream size                              : 671 MiB (4%)Title                                    : Авторский, В.ГорчаковLanguage                                 : RussianDefault                                  : NoForced                                   : No

Audio #9ID                                       : 10Format                                   : AC-3Format/Info                              : Audio Coding 3Mode extension                           : CM (complete main)Codec ID                                 : A_AC3Duration                                 : 2h 26mnBit rate mode                            : ConstantBit rate                                 : 192 KbpsChannel(s)                               : 2 channelsChannel positions                        : Front: L RSampling rate                            : 48.0 KHzBit depth                                : 16 bitsCompression mode                         : LossyStream size                              : 201 MiB (1%)Title                                    : Авторский, С.ВизгуновLanguage                                 : RussianDefault                                  : NoForced                                   : No

Audio #10ID                                       : 11Format                                   : AC-3Format/Info                              : Audio Coding 3Mode extension                           : CM (complete main)Codec ID                                 : A_AC3Duration                                 : 2h 26mnBit rate mode                            : ConstantBit rate                                 : 640 KbpsChannel(s)                               : 6 channelsChannel positions                        : Front: L C R, Side: L R, LFESampling rate                            : 48.0 KHzBit depth                                : 16 bitsCompression mode                         : LossyStream size                              : 671 MiB (3%)Language                                 : EnglishDefault                                  : NoForced                                   : No

Text #1ID                                       : 11Format                                   : UTF-8Codec ID                                 : S_TEXT/UTF8Codec ID/Info                            : UTF-8 Plain TextTitle                                    : v1Language                                 : RussianDefault                                  : NoForced                                   : No

Text #2ID                                       : 12Format                                   : UTF-8Codec ID                                 : S_TEXT/UTF8Codec ID/Info                            : UTF-8 Plain TextTitle                                    : v2Language                                 : RussianDefault                                  : NoForced                                   : No

Text #3ID                                       : 13Format                                   : UTF-8Codec ID                                 : S_TEXT/UTF8Codec ID/Info                            : UTF-8 Plain TextTitle                                    : v3Language                                 : RussianDefault                                  : NoForced                                   : No

Text #4ID                                       : 14Format                                   : UTF-8Codec ID                                 : S_TEXT/UTF8Codec ID/Info                            : UTF-8 Plain TextLanguage                                 : EnglishDefault                                  : NoForced                                   : No

Menu00:00:00.000                             : en:00:00:00.00000:01:19.037                             : en:00:01:19.03700:02:23.894                             : en:00:02:23.89400:07:13.767                             : en:00:07:13.76700:09:25.356                             : en:00:09:25.35600:11:11.337                             : en:00:11:11.33700:11:40.533                             : en:00:11:40.53300:15:01.734                             : en:00:15:01.73400:15:19.585                             : en:00:15:19.58500:16:42.210                             : en:00:16:42.21000:17:43.312                             : en:00:17:43.31200:17:49.944                             : en:00:17:49.94400:19:55.778                             : en:00:19:55.77800:21:55.147                             : en:00:21:55.14700:23:29.533                             : en:00:23:29.53300:25:04.420                             : en:00:25:04.42000:27:26.478                             : en:00:27:26.47800:28:20.699                             : en:00:28:20.69900:31:00.609                             : en:00:31:00.60900:34:53.466                             : en:00:34:53.46600:36:21.054                             : en:00:36:21.05400:40:52.367                             : en:00:40:52.36700:43:06.709                             : en:00:43:06.70900:44:22.910                             : en:00:44:22.91000:44:46.350                             : en:00:44:46.35000:48:32.993                             : en:00:48:32.99300:53:06.392                             : en:00:53:06.39200:54:09.037                             : en:00:54:09.03700:55:32.246                             : en:00:55:32.24600:57:41.958                             : en:00:57:41.95800:59:33.361                             : en:00:59:33.36101:05:21.501                             : en:01:05:21.50101:05:57.954                             : en:01:05:57.95401:09:15.818                             : en:01:09:15.81801:10:58.963                             : en:01:10:58.96301:13:24.817                             : en:01:13:24.81701:27:26.533                             : en:01:27:26.53301:37:27.550                             : en:01:37:27.55001:43:44.385                             : en:01:43:44.38501:44:42.485                             : en:01:44:42.48501:52:12.434                             : en:01:52:12.43401:52:55.602                             : en:01:52:55.60201:56:14.050                             : en:01:56:14.05001:57:45.558                             : en:01:57:45.55801:58:51.041                             : en:01:58:51.04102:00:40.733                             : en:02:00:40.73302:06:40.092                             : en:02:06:40.09202:08:03.593                             : en:02:08:03.59302:14:15.422                             : en:02:14:15.42202:14:51.625                             : en:02:14:51.62502:16:08.535                             : en:02:16:08.53502:16:54.373                             : en:02:16:54.37302:17:27.239                             : en:02:17:27.23902:18:52.324                             : en:02:18:52.32402:18:58.622                             : en:02:18:58.62202:19:05.546                             : en:02:19:05.546

piratbit.ru

/ Mulholland Dr. ( / David Lynch) [2001, , , , , BDRip 720p] [Criterion Collection] Dub + 4x DVO + 4x AVO + Sub (Rus, Eng) + Original Eng

General Unique ID : 231788760881853571023729548155856763422 (0xAE60E43BAB46E5648E4C19B42A3E3A1E) Complete name : Mulholland Dr.2001.Criterion.720p.x264-DON. rutracker.mkv Format : Matroska Format version : Version 2 File size : 19.4 GiB Duration : 2h 27mn Overall bit rate : 18.9 Mbps Movie name : Release for RuTracker Writing application : mkvmerge v5.0.1 ('Es ist Sommer') built on Nov 6 2011 16:23:40 Writing library : libebml v1.2.2 + libmatroska v1.3.0

Video

ID : 1 Format : AVC Format/Info : Advanced Video Codec Format profile : [email protected] Format settings, CABAC : Yes Format settings, ReFrames : 9 frames Codec ID : V_MPEG4/ISO/AVC Duration : 2h 27mn Bit rate : 13.0 Mbps Width : 1 280 pixels Height : 692 pixels Display aspect ratio : 1.85:1 Frame rate mode : Constant Frame rate : 23.976 fps Color space : YUV Chroma subsampling : 4:2:0 Bit depth : 8 bits Scan type : Progressive Bits/(Pixel*Frame) : 0.611 Stream size : 13.4 GiB (69%) Title : Mulholland Dr.2001.Criterion.720p.x264-DON. rutracker Writing library : x264 core 148 r2597kMod e86f3a1 Encoding settings : cabac=1 / ref=9 / deblock=1:-3:-3 / analyse=0x3:0x133 / me=umh / subme=11 / psy=1 / fade_compensate=0.00 / psy_rd=1.10:0.00 / mixed_ref=1 / me_range=32 / chroma_me=1 / trellis=2 / 8x8dct=1 / cqm=0 / deadzone=21,11 / fast_pskip=0 / chroma_qp_offset=-2 / threads=12 / lookahead_threads=3 / sliced_threads=0 / nr=0 / decimate=0 / interlaced=0 / bluray_compat=0 / constrained_intra=0 / fgo=0 / bframes=10 / b_pyramid=2 / b_adapt=2 / b_bias=0 / direct=3 / weightb=1 / open_gop=0 / weightp=2 / keyint=250 / keyint_min=23 / scenecut=40 / intra_refresh=0 / rc_lookahead=60 / rc=crf / mbtree=0 / crf=19.5000 / qcomp=0.60 / qpmin=0 / qpmax=69 / qpstep=4 / vbv_maxrate=62500 / vbv_bufsize=78125 / crf_max=0.0 / nal_hrd=none / filler=0 / ip_ratio=1.20 / pb_ratio=1.10 / aq=3:0.65 Language : English Default : Yes Forced : No

Audio #1

ID : 2 Format : AC-3 Format/Info : Audio Coding 3 Mode extension : CM (complete main) Format settings, Endianness : Big Codec ID : A_AC3 Duration : 2h 27mn Bit rate mode : Constant Bit rate : 384 Kbps Channel(s) : 6 channels Channel positions : Front: L C R, Side: L R, LFE Sampling rate : 48.0 KHz Bit depth : 16 bits Compression mode : Lossy Stream size : 404 MiB (2%) Title : Language : Russian Default : Yes Forced : No

Audio #2

ID : 3 Format : AC-3 Format/Info : Audio Coding 3 Mode extension : CM (complete main) Format settings, Endianness : Big Codec ID : A_AC3 Duration : 2h 27mn Bit rate mode : Constant Bit rate : 448 Kbps Channel(s) : 6 channels Channel positions : Front: L C R, Side: L R, LFE Sampling rate : 48.0 KHz Bit depth : 16 bits Compression mode : Lossy Stream size : 472 MiB (2%) Title : CP Digital Language : Russian Default : No Forced : No

Audio #3

ID : 4 Format : AC-3 Format/Info : Audio Coding 3 Mode extension : CM (complete main) Format settings, Endianness : Big Codec ID : A_AC3 Duration : 2h 27mn Bit rate mode : Constant Bit rate : 640 Kbps Channel(s) : 6 channels Channel positions : Front: L C R, Side: L R, LFE Sampling rate : 48.0 KHz Bit depth : 16 bits Compression mode : Lossy Stream size : 674 MiB (3%) Title : Language : Russian Default : No Forced : No

Audio #4

ID : 5 Format : AC-3 Format/Info : Audio Coding 3 Mode extension : CM (complete main) Format settings, Endianness : Big Codec ID : A_AC3 Duration : 2h 27mn Bit rate mode : Constant Bit rate : 640 Kbps Channel(s) : 6 channels Channel positions : Front: L C R, Side: L R, LFE Sampling rate : 48.0 KHz Bit depth : 16 bits Compression mode : Lossy Stream size : 674 MiB (3%) Title : Language : Russian Default : No Forced : No

Audio #5

ID : 6 Format : AC-3 Format/Info : Audio Coding 3 Mode extension : CM (complete main) Format settings, Endianness : Big Codec ID : A_AC3 Duration : 2h 27mn Bit rate mode : Constant Bit rate : 640 Kbps Channel(s) : 6 channels Channel positions : Front: L C R, Side: L R, LFE Sampling rate : 48.0 KHz Bit depth : 16 bits Compression mode : Lossy Stream size : 674 MiB (3%) Title : . . Language : Russian Default : No Forced : No

Audio #6

ID : 7 Format : AC-3 Format/Info : Audio Coding 3 Mode extension : CM (complete main) Format settings, Endianness : Big Codec ID : A_AC3 Duration : 2h 27mn Bit rate mode : Constant Bit rate : 640 Kbps Channel(s) : 6 channels Channel positions : Front: L C R, Side: L R, LFE Sampling rate : 48.0 KHz Bit depth : 16 bits Compression mode : Lossy Stream size : 674 MiB (3%) Title : . Language : Russian Default : No Forced : No

Audio #7

ID : 8 Format : AC-3 Format/Info : Audio Coding 3 Mode extension : CM (complete main) Format settings, Endianness : Big Codec ID : A_AC3 Duration : 2h 27mn Bit rate mode : Constant Bit rate : 640 Kbps Channel(s) : 6 channels Channel positions : Front: L C R, Side: L R, LFE Sampling rate : 48.0 KHz Bit depth : 16 bits Compression mode : Lossy Stream size : 674 MiB (3%) Title : . Language : Russian Default : No Forced : No

Audio #8

ID : 9 Format : AC-3 Format/Info : Audio Coding 3 Mode extension : CM (complete main) Format settings, Endianness : Big Codec ID : A_AC3 Duration : 2h 27mn Bit rate mode : Constant Bit rate : 640 Kbps Channel(s) : 6 channels Channel positions : Front: L C R, Side: L R, LFE Sampling rate : 48.0 KHz Bit depth : 16 bits Compression mode : Lossy Stream size : 674 MiB (3%) Title : . Language : Russian Default : No Forced : No

Audio #9

ID : 10 Format : AC-3 Format/Info : Audio Coding 3 Mode extension : CM (complete main) Format settings, Endianness : Big Codec ID : A_AC3 Duration : 2h 27mn Bit rate mode : Constant Bit rate : 192 Kbps Channel(s) : 2 channels Channel positions : Front: L R Sampling rate : 48.0 KHz Bit depth : 16 bits Compression mode : Lossy Stream size : 202 MiB (1%) Title : . Language : Russian Default : No Forced : No

Audio #10

ID : 11 Format : AC-3 Format/Info : Audio Coding 3 Mode extension : CM (complete main) Format settings, Endianness : Big Codec ID : A_AC3 Duration : 2h 27mn Bit rate mode : Constant Bit rate : 640 Kbps Channel(s) : 6 channels Channel positions : Front: L C R, Side: L R, LFE Sampling rate : 48.0 KHz Bit depth : 16 bits Compression mode : Lossy Stream size : 674 MiB (3%) Language : English Default : No Forced : No

Text #1

ID : 12 Format : UTF-8 Codec ID : S_TEXT/UTF8 Codec ID/Info : UTF-8 Plain Text Title : CP Digital Language : Russian Default : No Forced : No

Text #2

ID : 13 Format : UTF-8 Codec ID : S_TEXT/UTF8 Codec ID/Info : UTF-8 Plain Text Language : Russian Default : No Forced : No

Text #3

ID : 14 Format : UTF-8 Codec ID : S_TEXT/UTF8 Codec ID/Info : UTF-8 Plain Text Language : Russian Default : No Forced : No

Text #4

ID : 15 Format : UTF-8 Codec ID : S_TEXT/UTF8 Codec ID/Info : UTF-8 Plain Text Language : English Default : No Forced : No

unionpeer.com


Смотрите также