Скачать фильм мешок без дна через торрент бесплатно в хорошем качестве


Мешки для трупов через торрент

x264 [info]: frame I:862 Avg QP:16.24 size: 95059x264 [info]: frame P:24325 Avg QP:18.87 size: 33325x264 [info]: frame B:110581 Avg QP:20.91 size: 13151x264 [info]: consecutive B-frames: 1.1% 1.4% 4.6% 10.2% 11.9% 43.8% 7.7% 3.0% 4.3% 1.8% 2.7% 4.3% 2.4% 0.9%_________________________________________________________________________________________________________

ОбщееУникальный идентификатор : 172817541139359766378474248618535991518 (0x8203729F0F6BABFAB80CCDF26676B8DE)Полное имя : Body Bags.1993.BDRip-AVC.mkvФормат : MatroskaВерсия формата : Version 4 / Version 2Размер файла : 2,74 ГбайтПродолжительность : 1 ч. 34 м.Общий поток : 4150 Кбит/секНазвание фильма : Body Bags.1993.BDRip-AVC by KoenigДата кодирования : UTC 2017-10-24 10:23:30Программа кодирования : mkvmerge v12.0.0 ('Trust / Lust') 32bitБиблиотека кодирования : libebml v1.3.4 + libmatroska v1.4.5Обложка : YesAttachments : cover.jpg

ВидеоИдентификатор : 1Формат : AVCФормат/Информация : Advanced Video CodecПрофиль формата : [email protected]Параметр CABAC формата : ДаПараметр ReFrames формата : 11 кадровИдентификатор кодека : V_MPEG4/ISO/AVCПродолжительность : 1 ч. 34 м.Битрейт : 3319 Кбит/секШирина : 1024 пикселяВысота : 576 пикселейСоотношение сторон : 16:9Режим частоты кадров : ПостоянныйЧастота кадров : 23,976 (24000/1001) кадра/секЦветовое пространство : YUVСубдискретизация насыщенности : 4:2:0Битовая глубина : 8 битТип развёртки : ПрогрессивнаяБит/(Пиксели*Кадры) : 0.235Размер потока : 2,19 Гбайт (80%)Заголовок : Body Bags.1993.BDRip-AVCБиблиотека кодирования : x264 core 148 r2744 b97ae06Настройки программы : cabac=1 / ref=11 / deblock=1:-3:-3 / analyse=0x3:0x133 / me=umh / subme=10 / psy=1 / psy_rd=1.05:0.10 / mixed_ref=1 / me_range=32 / chroma_me=1 / trellis=2 / 8x8dct=1 / cqm=0 / deadzone=21,11 / fast_pskip=0 / chroma_qp_offset=-3 / threads=3 / lookahead_threads=1 / sliced_threads=0 / nr=0 / decimate=1 / interlaced=0 / bluray_compat=0 / constrained_intra=0 / bframes=13 / b_pyramid=2 / b_adapt=2 / b_bias=0 / direct=3 / weightb=1 / open_gop=0 / weightp=2 / keyint=240 / keyint_min=23 / scenecut=40 / intra_refresh=0 / rc_lookahead=40 / rc=2pass / mbtree=1 / bitrate=3319 / ratetol=1.0 / qcomp=0.60 / qpmin=10 / qpmax=51 / qpstep=4 / cplxblur=20.0 / qblur=0.5 / vbv_maxrate=50000 / vbv_bufsize=62500 / nal_hrd=none / filler=0 / ip_ratio=1.40 / aq=1:1.00Default : ДаForced : Нет

Аудио #1Идентификатор : 2Формат : AC-3Формат/Информация : Audio Coding 3Параметр Endianness формата : BigИдентификатор кодека : A_AC3Продолжительность : 1 ч. 34 м.Вид битрейта : ПостоянныйБитрейт : 192 Кбит/секКаналы : 2 каналаРасположение каналов : Front: L RЧастота : 48,0 КГцЧастота кадров : 31,250 кадров/сек (1536 spf)Битовая глубина : 16 битМетод сжатия : С потерямиРазмер потока : 130 Мбайт (5%)Заголовок : MVOЯзык : RussianServiceKind/String : Complete MainDefault : ДаForced : Нет

Аудио #2Идентификатор : 3Формат : AC-3Формат/Информация : Audio Coding 3Параметр Endianness формата : BigИдентификатор кодека : A_AC3Продолжительность : 1 ч. 34 м.Вид битрейта : ПостоянныйБитрейт : 192 Кбит/секКаналы : 2 каналаРасположение каналов : Front: L RЧастота : 48,0 КГцЧастота кадров : 31,250 кадров/сек (1536 spf)Битовая глубина : 16 битМетод сжатия : С потерямиРазмер потока : 130 Мбайт (5%)Заголовок : AVO - ГорчаковЯзык : RussianServiceKind/String : Complete MainDefault : НетForced : Нет

Аудио #3Идентификатор : 4Формат : AC-3Формат/Информация : Audio Coding 3Параметр Endianness формата : BigИдентификатор кодека : A_AC3Продолжительность : 1 ч. 34 м.Вид битрейта : ПостоянныйБитрейт : 448 Кбит/секКаналы : 6 каналовРасположение каналов : Front: L C R, Side: L R, LFEЧастота : 48,0 КГцЧастота кадров : 31,250 кадров/сек (1536 spf)Битовая глубина : 16 битМетод сжатия : С потерямиРазмер потока : 302 Мбайт (11%)Заголовок : OriginalЯзык : EnglishServiceKind/String : Complete MainDefault : НетForced : Нет

Текст #1Идентификатор : 5Формат : UTF-8Идентификатор кодека : S_TEXT/UTF8Идентификатор кодека/Информация : UTF-8 Plain TextПродолжительность : 1 ч. 24 м.Битрейт : 3 бит/секElementCount : 41Размер потока : 2,13 Кбайт (0%)Заголовок : ForcedЯзык : RussianDefault : ДаForced : Да

Текст #2Идентификатор : 6Формат : UTF-8Идентификатор кодека : S_TEXT/UTF8Идентификатор кодека/Информация : UTF-8 Plain TextПродолжительность : 1 ч. 33 м.Битрейт : 72 бит/секElementCount : 844Размер потока : 49,6 Кбайт (0%)Заголовок : FullЯзык : RussianDefault : НетForced : Нет

Текст #3Идентификатор : 7Формат : UTF-8Идентификатор кодека : S_TEXT/UTF8Идентификатор кодека/Информация : UTF-8 Plain TextПродолжительность : 1 ч. 30 м.Битрейт : 46 бит/секElementCount : 1029Размер потока : 30,8 Кбайт (0%)Заголовок : OriginalЯзык : EnglishDefault : НетForced : Нет

Меню00:00:00.000 : en:Chapter 100:06:15.000 : en:Chapter 200:13:45.825 : en:Chapter 300:20:36.235 : en:Chapter 400:26:40.224 : en:Chapter 500:33:11.990 : en:Chapter 600:42:14.532 : en:Chapter 700:48:26.904 : en:Chapter 800:55:14.311 : en:Chapter 901:04:37.874 : en:Chapter 1001:13:12.013 : en:Chapter 1101:23:52.653 : en:Chapter 1201:31:34.114 : en:Chapter 13

piratbit.ru

Мешок без дна (2017) смотреть онлайн бесплатно в качестве hd 720

Подводная эра мультфильм 2017

Подводная эра мультфильм 2017

Баба Яга мультфильм 2017

Баба Яга мультфильм 2017

Баба Яга (мультфильм 2017)

Баба Яга (мультфильм 2017)

мультфильм Баба Яга 2017

мультфильм Баба Яга 2017

Сказ о Петре и Февронии мультфильм (2017)

Сказ о Петре и Февронии мультфильм (2017)

Сказ о Петре и Февронии мультфильм (2017)

Сказ о Петре и Февронии мультфильм (2017)

Сказ о Петре и Февронии мультфильм (2017)

Сказ о Петре и Февронии мультфильм (2017)

Викинг (фильм 2016)

Викинг (фильм 2016)

Геннадий Головкин - Канело Альварес (лайв трансляция 17 09 2017)

Геннадий Головкин - Канело Альварес (лайв трансляция 17 09 2017)

Gennady Golovkin - Saul ‘Canelo’ Alvarez 17 сентября 2017 в прямом эфире

Gennady Golovkin - Saul ‘Canelo’ Alvarez 17 сентября 2017 в прямом эфире

Геннадий Головкин - Сауль Альварес 17 сентября 2017 в прямом эфире

Геннадий Головкин - Сауль Альварес 17 сентября 2017 в прямом эфире

бокс Геннадий Головкин - Саулем Альваресом 17 сентября 2017

бокс Геннадий Головкин - Саулем Альваресом 17 сентября 2017

Бокс Геннадий Головкин – Сауль «Канело» Альварес 17 09 2017

Бокс Геннадий Головкин – Сауль «Канело» Альварес 17 09 2017

ТРАНСЛЯЦИЯ: Геннадий Головкин - Сауль Альварес 17 09 2017

ТРАНСЛЯЦИЯ: Геннадий Головкин - Сауль Альварес 17 09 2017

Бой Геннадий Головкин – Сауль Канело Альварес 17 сентября 2017

Бой Геннадий Головкин – Сауль Канело Альварес 17 сентября 2017

Геннадий Головкин - Саулем Альваресом 17 сентября 2017

Геннадий Головкин - Саулем Альваресом 17 сентября 2017

трансляция Геннадий Головкин - Саулем Альваресом 17 09 2017

трансляция Геннадий Головкин - Саулем Альваресом 17 09 2017

бокс Геннадий Головкин - Саулем Альваресом 17 09 2017

бокс Геннадий Головкин - Саулем Альваресом 17 09 2017

Геннадий Головкин - Саулем Альваресом 17 сентября 2017 LIV трансляция

Геннадий Головкин - Саулем Альваресом 17 сентября 2017 LIV трансляция

в прямом эфире Геннадий Головкин - Сауль Альварес 17 сентября 2017

в прямом эфире Геннадий Головкин - Сауль Альварес 17 сентября 2017

kinobos.ru

Скачать фильм Мешки для трупов через торрент в хорошем качестве бесплатно HDRip-AVC

Format : MatroskaFormat version : Version 4 / Version 2File size : 1.56 GiBDuration : 1h 34mnOverall bit rate : 2 365 KbpsEncoded date : UTC 2013-11-28 01:54:28Writing application : mkvmerge v6.5.0 ('Isn't she lovely') built on Oct 20 2013 12:50:05Writing library : libebml v1.3.0 + libmatroska v1.4.1

VideoID : 1Format : AVCFormat/Info : Advanced Video CodecFormat profile : [email protected] settings, CABAC : YesFormat settings, ReFrames : 8 framesCodec ID : V_MPEG4/ISO/AVCDuration : 1h 34mnBit rate : 1 748 KbpsWidth : 720 pixelsHeight : 400 pixelsDisplay aspect ratio : 16:9Frame rate : 23.976 fpsColor space : YUVChroma subsampling : 4:2:0Bit depth : 8 bitsScan type : ProgressiveBits/(Pixel*Frame) : 0.253Stream size : 1.11 GiB (71%)Title : Rip ot kepWriting library : x264 core 130 r2273 b3065e6Encoding settings : cabac=1 / ref=8 / deblock=1:-1:-1 / analyse=0x3:0x133 / me=umh / subme=7 / psy=1 / psy_rd=1.00:0.10 / mixed_ref=1 / me_range=16 / chroma_me=1 / trellis=2 / 8x8dct=1 / cqm=0 / deadzone=21,11 / fast_pskip=0 / chroma_qp_offset=-3 / threads=3 / lookahead_threads=1 / sliced_threads=0 / nr=0 / decimate=1 / interlaced=0 / bluray_compat=0 / constrained_intra=0 / bframes=3 / b_pyramid=2 / b_adapt=2 / b_bias=0 / direct=1 / weightb=1 / open_gop=0 / weightp=2 / keyint=250 / keyint_min=23 / scenecut=40 / intra_refresh=0 / rc_lookahead=50 / rc=abr / mbtree=1 / bitrate=1748 / ratetol=1.0 / qcomp=0.60 / qpmin=0 / qpmax=69 / qpstep=4 / ip_ratio=1.40 / aq=1:1.00Default : YesForced : No

Audio #1ID : 2Format : AC-3Format/Info : Audio Coding 3Mode extension : CM (complete main)Codec ID : A_AC3Duration : 1h 34mnBit rate mode : ConstantBit rate : 192 KbpsChannel(s) : 2 channelsChannel positions : Front: L RSampling rate : 48.0 KHzBit depth : 16 bitsCompression mode : LossyStream size : 130 MiB (8%)Language : RussianDefault : YesForced : No

Audio #2ID : 3Format : AC-3Format/Info : Audio Coding 3Mode extension : CM (complete main)Codec ID : A_AC3Duration : 1h 34mnBit rate mode : ConstantBit rate : 448 KbpsChannel(s) : 6 channelsChannel positions : Front: L C R, Side: L R, LFESampling rate : 48.0 KHzBit depth : 16 bitsCompression mode : LossyStream size : 302 MiB (19%)Language : EnglishDefault : NoForced : No

Text #1ID : 4Format : UTF-8Codec ID : S_TEXT/UTF8Codec ID/Info : UTF-8 Plain TextLanguage : RussianDefault : NoForced : No

Text #2ID : 5Format : UTF-8Codec ID : S_TEXT/UTF8Codec ID/Info : UTF-8 Plain TextLanguage : EnglishDefault : YesForced : No

piratbit.ru

Скачать фильм Мешки для трупов (1993) через торрент

5 сентября 2016 07:17 Мешки для трупов / Body Bags (1993) BDRip 1080p MediaClub | P, A .torrent   [Информация о файле (нажмите для просмотра)] Перевод: Профессиональный многоголосый, авторский, субтитрыКодек: h.264Качество: BDRip 1080pВидео: MPEG-4 AVC, 17500 Кбит/с, 1920x1080, 23.976 кадр/сЗвук: Русский (AC3, 2 ch, 192 Кбит/с) / Профессиональный многоголосый (СТС) Русский (AC3, 2 ch, 192 Кбит/с) / Авторский (Василий Горчаков) Английский (DTS, 6 ch, 1509 Кбит/с)Субтитры: Русские (форсированные и полные), английскиеВидео: Идентификатор : 1 Формат : AVC Формат/Информация : Advanced Video Codec Профиль формата : [email protected] Параметр CABAC формата : Да Параметр ReFrames формата : 4 кадра Идентификатор кодека : V_MPEG4/ISO/AVC Продолжительность : 1 ч. 34 м. Битрейт : 17,5 Мбит/сек Ширина : 1920 пикселей Высота : 1080 пикселей Соотношение сторон : 16:9 Режим частоты кадров : Постоянный Частота кадров : 23,976 (24000/1001) кадра/сек Цветовое пространство : YUV Субдискретизация насыщенности : 4:2:0 Битовая глубина : 8 бит Тип развёртки : Прогрессивная Бит/(Пиксели*Кадры) : 0.352 Размер потока : 11,3 Гбайт (88%) Заголовок : BDRip by Silverok Библиотека кодирования : x264 core 148 r2638 7599210 Настройки программы : cabac=1 / ref=4 / deblock=1:-3:-3 / analyse=0x3:0x113 / me=umh / subme=11 / psy=1 / psy_rd=1.15:0.15 / mixed_ref=1 / me_range=48 / chroma_me=1 / trellis=2 / 8x8dct=1 / cqm=0 / deadzone=21,11 / fast_pskip=1 / chroma_qp_offset=-3 / threads=12 / lookahead_threads=3 / sliced_threads=0 / nr=0 / decimate=1 / interlaced=0 / bluray_compat=0 / constrained_intra=0 / bframes=12 / b_pyramid=2 / b_adapt=2 / b_bias=0 / direct=3 / weightb=1 / open_gop=0 / weightp=2 / keyint=240 / keyint_min=24 / scenecut=40 / intra_refresh=0 / rc_lookahead=60 / rc=2pass / mbtree=1 / bitrate=17500 / ratetol=1.0 / qcomp=0.60 / qpmin=10 / qpmax=61 / qpstep=4 / cplxblur=20.0 / qblur=0.5 / ip_ratio=1.40 / aq=1:1.20 Default : Да Forced : НетАудио #1: Идентификатор : 2 Формат : AC-3 Формат/Информация : Audio Coding 3 Расширение режима : CM (complete main) Параметр Endianness формата : Big Идентификатор кодека : A_AC3 Продолжительность : 1 ч. 34 м. Вид битрейта : Постоянный Битрейт : 192 Кбит/сек Каналы : 2 канала Расположение каналов : Front: L R Частота : 48,0 КГц Частота кадров : 31,250 кадров/сек (1536 spf) Метод сжатия : С потерями Размер потока : 130 Мбайт (1%) Заголовок : Профессиональный многоголосый (СТС) Язык : Russian Default : Да Forced : НетАудио #2: Идентификатор : 3 Формат : AC-3 Формат/Информация : Audio Coding 3 Расширение режима : CM (complete main) Параметр Endianness формата : Big Идентификатор кодека : A_AC3 Продолжительность : 1 ч. 34 м. Вид битрейта : Постоянный Битрейт : 192 Кбит/сек Каналы : 2 канала Расположение каналов : Front: L R Частота : 48,0 КГц Частота кадров : 31,250 кадров/сек (1536 spf) Метод сжатия : С потерями Размер потока : 130 Мбайт (1%) Заголовок : Авторский (Василий Горчаков) Язык : Russian Default : Нет Forced : НетАудио #3: Идентификатор : 4 Формат : DTS Формат/Информация : Digital Theater Systems Режим : 16 Параметр Endianness формата : Big Идентификатор кодека : A_DTS Продолжительность : 1 ч. 34 м. Вид битрейта : Постоянный Битрейт : 1509 Кбит/сек Каналы : 6 каналов Расположение каналов : Front: L C R, Side: L R, LFE Частота : 48,0 КГц Частота кадров : 93,750 кадра/сек (512 spf) Битовая глубина : 24 бит Метод сжатия : С потерями Размер потока : 1019 Мбайт (8%) Заголовок : DTS 5.1 / 48 kHz / 1509 kbps Язык : English Default : Нет Forced : Нет 12,78 Gb 9 1 5 сентября 2016 07:17 Мешки для трупов / Body Bags (1993) BDRip от HQCLUB .torrent   [Информация о файле (нажмите для просмотра)] Перевод: профессиональный (многоголосый, закадровый)СТССубтитры: русские (форсированные), английскиеФормат: AVIКачество: BDRip (источник:Видео: 704x400 (1.76:1), 23,976 fps, XviD build 65 ~2001 kbps avg, 0.30 bit/pixelАудио #1: 48 kHz, AC3 Dolby Digital, 2/0 (L,R) ch, ~192 kbps avg (RUS)Аудио #2: 48 kHz, AC3 Dolby Digital, 3/2 (L,C,R,l,r) + LFE ch, ~448 kbps avg (ENG)(отдельно) 1,45 Gb 6 3 5 сентября 2016 07:17 Мешки для трупов / Body Bags (1993) BDRip 720p | P .torrent   [Информация о файле (нажмите для просмотра)] Перевод: Профессиональный (многоголосый закадровый)СТСКодек: H.264Качество: BDRip 720pВидео: MPEG-4 AVC, 1280x720, 9192 Кбит/с, 23.976 кадр/сАудио#1: Русский (AC3, 2ch, 192 Кбит/с, 48.0 KHz)Аудио#2: Английский (DTS, 6ch, 1510 Кбит/с, 48.0 KHz)Субтитры: Русские, английские 7,33 Gb 4 4 5 сентября 2016 07:17 Мешки для трупов / Body Bags (1993) BDRip .torrent   [Информация о файле (нажмите для просмотра)] Перевод: Профессиональный (многоголосый закадровый)СТСКодек: XviDКачество: BDRip [Body.Bags.1993.1080p.BluRay]Видео: 720x400 (1.80:1), 23.976 fps, XviD build 50 ~1999 kbps avg, 0.29 bit/pixelЗвук: 48 kHz, AC3 Dolby Digital, 2/0 (L,R) ch, ~192 kbps 1,45 Gb 4 5 5 сентября 2016 07:17 Мешки для трупов / Body Bags (1993) HDRip-AVC | P .torrent   [Информация о файле (нажмите для просмотра)] Перевод: Профессиональный (многоголосый, закадровый) |СТС| + ОригинальныйКодек: AVCКачество: HDRip-AVCВидео: AVC, 720x400 (16:9), 1748 kbps, 23,976 fps, 0,253 bppЗвук: Аудио №1: русский / AC3 / 2.0 / 48 kHz / 192 kbps / 16 bit Аудио №2: английский / AC3 / 5.1 / 48 kHz / 448 kbps / 16 bitСубтитры: UTF-8 |Russian, English| 1,56 Gb 3 2

gig-torrent.net

Мешок без дна - смотреть онлайн бесплатно в хорошем качестве в кинозале

Мешок без дна

В центре сюжета этой исторической драмы показан один из ярких моментов российской истории.На дворе царская Россия середины 19 века времен правления императора Александра 2. Правитель был очень ярым любителем всевозможных ярких историй и былин, которые он любил слушать по вечерам. Лучшим рассказчики всегда могли рассчитывать на милость императора и порой даже денежный приз, часто к нему приезжали всякие писатели и путешественники рассказывать о том что повидали. Но все же самой лучшей рассказчицей была одна из фрейлин императорского дворца.Однажды фрейлина рассказала одну запутанную историю которая произошла в 13 веке, история рассказывала о таинственном убийстве в лесу одного из древнерусских князей. Дело было запутанное были привлечены сотни свидетелей, каждый из которых путаясь в показаниях и выгораживая себя рассказывал свою историю тех событий. Оказалось что это был заговор в котором приняло участие очень много придворных, но в силу обстоятельств и отсутствия улик дело так и не было раскрыто. Проникнувшись данной историей император решает по прошествии стольких лет все же докопаться до правды. Александр 2 собирает следственную комиссию и приступает к расследованию давнего дела.название Мешок без днагод 2017дата выхода скорожанр драмастрана РоссияРежиссер: Рустам ХамдамовРоли сыграли: Светлана Немоляева, Сергей Колтаков, Елена Морозова, Андрей Кузичев, Кирилл Плетнёв, Евгений Ткачук, Анна Михалкова, Алла Демидова, Анастасия Цой

Смотреть Мешок без дна онлайн (трейлер)СКОРО

Категория: Трейлеры | Просмотров: 619 | Рейтинг: 0.0/0
Если фильм не работает, удален, отсутствует плеер. Посмотрите его на нашем втором сайте Ros-Serial.RUДобро пожаловать, там Вы найдете множество фильмов и сериалови всё работает в хорошем качестве >> Перейти Поделитесь в соц. сетях:

Для просмотра онлайн фильмов у Вас должен быть установлен Adobe Flash Player (флеш плеер).

Приятного Вам просмотра фильмов на нашем сайте! На нашем сайте вы можете смотреть Мешок без дна онлайн полный фильм, доступный в хорошем качестве HD 720 и также на айфоне, айпаде, андроиде. Фильм Мешок без дна смотреть онлайн можно бесплатно прямо сейчас. Оставьте отзыв после просмотра фильма или сериала.
Всего комментариев: 0
Форма входа
Ваш профиль
Гость

Группа: Гости

Мы рады вас видеть.Пожалуйста зарегистрируйтесь или авторизуйтесь и вы увидите меньше рекламы

Смотрим это интересно
Статистика

Сейчас на сайте: 24

Гостей: 24

Пользователей: 0

LoveKinozal.ru- фильмы онлайн бесплатно в хорошем качестве в вашем любимом кинозалеCopyright © 2009-2017 Хостинг от uCoz

www.lovekinozal.ru


Смотрите также