Скачать фильм на грани через торрент бесплатно в хорошем качестве 2012


Скачать фильм На грани (2012) через торрент

21 января 2016 07:31 На грани / Man on a Ledge (2012) BDRip 1080p от NNNB | D,A .torrent   [Информация о файле (нажмите для просмотра)] Перевод: Дублированный - [Лицензия], Авторский (одноголосый)[Андрей Гаврилов]Качество: BDRip 1080pФормат: AVC (библиотека кодирования x.264)Видео: 1920x800, 14250 Кбит/сек, 23,976 кадр/сек, 0,387 Бит/[Пиксели*Кадры]Аудио №1: русский / AC3 / 5.1 / 48 kHz / 640 kbps / 16 bit|Дублированный| Аудио №2: русский / AC3 / 5.1 / 48 kHz / 640 kbps / 16 bit|Авторский, Андрей Гаврилов| Аудио №3: английский / AC3 / 5.1 / 48 kHz / 640 kbps /Субтитры: русские (Voronin), английские (SDH), английские 11,56 Gb 27 4 21 января 2016 07:31 На грани / Man on a Ledge (2012) BDRip от HQ-ViDEO | Лицензия .torrent   [Информация о файле (нажмите для просмотра)] Перевод: Профессиональный дублированный (Лицензия) + Оригинальная дорожка (Английская/Отдельно)Субтитры: Русские, Английские |.srt|Видео: XviD / 720 x 304 / 2.37:1 / 1641 kbps / 23,976 fpsАудио 1: Русский / AC3 Dolby Digital / 48 KHz / 384 kbps / 3/2 (L,C,R,l,r) + LFE chАудио 2: Английский / AC3 Dolby Digital / 48 KHz / 384 kbps / 3/2 (L,C,R,l,r) + LFE ch| narod.ru 1,45 Gb 93 5 21 января 2016 07:31 На грани / Man on a Ledge (2012) BDRip 720p от Leonardo and Scarabey | Лицензия .torrent   [Информация о файле (нажмите для просмотра)] Перевод: Профессиональный (полное дублирование) ЛицензияФормат: MKVВидео кодек: MPEG-4 AVC Аудио кодек: AC3Видео: AVC, 1280x534 (2.40:1) at 23.976 fps, AVC at 5413 kbps avg, 0.330 bit/pixelАудио: Russian: 48 kHz; AC3 5.1; 384.00 kbps avg; профессиональный, полное дублированиеСубтитры: Русские, английские 4,23 Gb 84 7 21 января 2016 07:31 На грани / Man on a Ledge (2012) BDRip-AVC | D, Гаврилов .torrent   [Информация о файле (нажмите для просмотра)] Перевод: Профессиональный (полное дублирование), Авторский (одноголосый, закадровый) - «А. Гаврилов»Субтитры: русские, английскиеКонтейнер: MKVВидео: 1104x460 (2.40:1), 23.976 fps, x264 ~2250 kbps avg, 0.185 bit/pixelАудио: #1: 48 kHz, AAC-LC, 3/2 (L,C,R,l,r) + LFE ch, ~264 kbps CBR - DubАудио: #2: 48 kHz, AAC-LC, 3/2 (L,C,R,l,r) + LFE ch, ~264 kbps CBR - AVOАудио: #3: 48 kHz, AAC-LC, 3/2 (L,C,R,l,r) + LFE ch, ~264 kbps CBR - OriginalВидео: Идентификатор : 1 Формат : AVC Формат/Информация : Advanced Video Codec Профиль формата : [email protected] Параметр CABAC формата : Да Параметр ReFrames формата : 9 кадров Идентификатор кодека : V_MPEG4/ISO/AVC Продолжительность : 1 ч. 42 м. Номинальный битрейт : 2250 Кбит/сек Ширина : 1104 пикселя Высота : 460 пикселей Соотношение сторон : 2,40:1 Частота кадров : 23,976 кадра/сек Цветовое пространство : YUV Субдискретизация насыщенности : 4:2:0 Битовая глубина : 8 бит Тип развёртки : Прогрессивная Бит/(Пиксели*Кадры) : 0.185 Заголовок : Na.Grani.2012.BDRip.AVC.[All.Films].by.VremeniNet Библиотека кодирования : x264 core 128 r2216kMod 198a7ea Настройки программы : cabac=1 / ref=9 / deblock=1:-2:-1 / analyse=0x3:0x133 / me=umh / subme=11 / psy=1 / fade_compensate=0.00 / psy_rd=1.15:0.05 / mixed_ref=1 / me_range=48 / chroma_me=1 / trellis=2 / 8x8dct=1 / cqm=0 / deadzone=21,11 / fast_pskip=0 / chroma_qp_offset=-3 / threads=6 / lookahead_threads=1 / sliced_threads=0 / nr=0 / decimate=0 / interlaced=0 / bluray_compat=0 / constrained_intra=0 / bframes=10 / b_pyramid=2 / b_adapt=2 / b_bias=0 / direct=3 / weightb=1 / open_gop=0 / weightp=2 / keyint=240 / keyint_min=23 / scenecut=40 / intra_refresh=0 / rc_lookahead=60 / rc=2pass / mbtree=0 / bitrate=2250 / ratetol=1.0 / qcomp=0.60 / qpmin=10 / qpmax=51 / qpstep=4 / cplxblur=20.0 / qblur=0.5 / vbv_maxrate=50000 / vbv_bufsize=62500 / nal_hrd=none / ip_ratio=1.40 / pb_ratio=1.30 / aq=3:0.90 / zones=139900,147287,q=35 Язык : English Default : Да Forced : Нет Основные цвета : BT.709-5, BT.1361, IEC 61966-2-4, SMPTE RP177 Характеристики трансфера : BT.709-5, BT.1361 Коэффициенты матрицы : BT.709-5, BT.1361, IEC 61966-2-4 709, SMPTE RP177Аудио #1: Идентификатор : 2 Формат : AAC Формат/Информация : Advanced Audio Codec Профиль формата : LC Идентификатор кодека : A_AAC Продолжительность : 1 ч. 42 м. Каналы : 6 каналов Расположение каналов : Front: L C R, Side: L R, LFE Частота : 48,0 КГц Метод сжатия : С потерями Задержка видео : 9 мс. Заголовок : Профессиональный (дублированный) Blu-Ray Язык : Russian Default : Да Forced : НетАудио #2: Идентификатор : 3 Формат : AAC Формат/Информация : Advanced Audio Codec Профиль формата : LC Идентификатор кодека : A_AAC Продолжительность : 1 ч. 42 м. Каналы : 6 каналов Расположение каналов : Front: L C R, Side: L R, LFE Частота : 48,0 КГц Метод сжатия : С потерями Задержка видео : 9 мс. Заголовок : Авторский (одноголосый закадровый) А. Гаврилов Язык : Russian Default : Нет Forced : НетАудио #3: Идентификатор : 4 Формат : AAC Формат/Информация : Advanced Audio Codec Профиль формата : LC Идентификатор кодека : A_AAC Продолжительность : 1 ч. 42 м. Каналы : 6 каналов Расположение каналов : Front: L C R, Side: L R, LFE Частота : 48,0 КГц Метод сжатия : С потерями Задержка видео : 9 мс. Заголовок : Оригинал Язык : English Default : Нет Forced : Нет 2,18 Gb 16 2 21 января 2016 07:31 На грани / Man on a Ledge (2012) HDRip-AVC | D .torrent   [Информация о файле (нажмите для просмотра)] Перевод: Профессиональный (полное дублирование)Субтитры: русские, английские,softsub (SRT)Качество: HDRip-AVC[BDRip 720p]Формат: MKVВидео: H.264, 720х300 (2,40:1), 23,976 fps, ~843 Kbps, 0.217 bit/pixelАудио: Русский: 48 kHz, A_AАС-НЕ, 88 Kbps, 2 channels 748,76 Mb 21 2 21 января 2016 07:31 На грани / Man on a Ledge (2012) BDRip-AVC | iPad .torrent   [Информация о файле (нажмите для просмотра)] Перевод: ДублированныйСубтитры: русские, английскиеФормат: MP4 (контейнер m4v)Видео: AVC, 1024x432 (2.35:1) at 23.976 fps, AVC at 2426 kbps avg, 0.229 bit/pixelАудио: 48 kHz, AAC, 2ch, ~128 kbps | Russian | DUBАудио: 48 kHz, AAC, 2ch, ~128 Kbps | Original | ENG 1,93 Gb 10 2 21 января 2016 07:31 На грани / Man on a Ledge (2012) BDRip | A .torrent   [Информация о файле (нажмите для просмотра)] Перевод: Авторский (одноголосый закадровый) -Андрей ГавриловКачество: BDRipВидео: 720x304 (2.37:1), 23.976 fps, XviD build 65 ~2333 kbps avg, 0.44 bit/pixelАудио: 48 kHz, AC3 Dolby Digital, 3/2 (L,C,R,l,r) + LFE ch, ~448 kbpsСубтитры: Нет 1,99 Gb 7 2 21 января 2016 07:31 На грани / Man on a Ledge (2012) HDRip от Scarabey | Лицензия .torrent   [Информация о файле (нажмите для просмотра)] Перевод: Профессиональный (полное дублирование)Качество: HDRipФормат: AVIВидео: 688x288 (2.39:1), 23.976 fps, XviD build 50 ~878 kbps avg, 0.19 bit/pixelАудио: 48 kHz, MPEG Layer 3, 2 ch, ~128.00 kbps avg 744,16 Mb 14 4 21 января 2016 07:31 На грани / Man on a Ledge (2012) HDRip от Scarabey | Лицензия .torrent   [Информация о файле (нажмите для просмотра)] Перевод: Профессиональный (полное дублирование)Качество: HDRipФормат: AVIВидео: 720x304 (2.37:1), 23.976 fps, XviD build 50 ~1636 kbps avg, 0.31 bit/pixelАудио: 48 kHz, AC3 Dolby Digital, 3/2 (L,C,R,l,r) + LFE ch, ~384.00 kbps avg 1,45 Gb 223 13 21 января 2016 07:31 На грани / Man on a Ledge (2012) BDRip-AVC от R.G. AVI | AVC | Лицензия .torrent   [Информация о файле (нажмите для просмотра)] Перевод: Профессиональный (полное дублирование)Качество: BDRip-AVC [BDRemux]Формат: MKVВидео: H.264, 960x400 (2,40:1), 23,976 кадр/сек, 1657 Кбит/сек, 0.180 bit/pixelАудио: 48 kHz, AC3 Dolby Digital, 3/2 (L,C,R,l,r) + LFE ch, ~384.00 kbps avg 1,46 Gb 15 3 21 января 2016 07:31 На грани / Man on a Ledge (2012) BDRip 720p от DHT-Movies .torrent   [Информация о файле (нажмите для просмотра)] Перевод: Дубляж (Профессиональный[Лицензия]) + Оригинал (Английский)Субтитры: Русские/Английские UTF-8 (full)Качество: BDRip720pФормат: MKVВидео: 1280x536 23.976 fps 5 175 Kbps 0.315 Bits/(Pixel*Frame) 4,25 Gb 15 4 21 января 2016 07:31 На грани / Man on a Ledge (2012) Blu-Ray .torrent   [Информация о файле (нажмите для просмотра)] Формат: BDMVКачество: Blu-RayВидео: MPEG-4 AVC Video / 30000 kbps / 1080p / 24 fps / 16:9 / Main Profile 4.1Аудио 1: English / DTS-HD Master Audio / 5.1 / 48 kHz / 2138 kbps / 16-bit (DTS Core: 5.1 / 48 kHz / 1509 kbps / 16-bit)Аудио 2: Russian / DTS-HD Master Audio / 5.1 / 48 kHz / 2415 kbps / 16-bit (DTS Core: 5.1 / 48 kHz / 1509 kbps / 16-bit) ДубляжАудио 3: Russian / Dolby TrueHD Audio / 5.1 / 48 kHz / 1786 kbps / 16-bit (AC3 Embedded: 5.1 / 48 kHz / 640 kbps / DN -4dB) ДубляжАудио 4: Russian / Dolby Digital Audio / 2.0 / 48 kHz / 192 kbps / DN -4dB ДубляжСубтитры: Русские 33,14 Gb 6 2 21 января 2016 07:31 На грани / Man on a Ledge (2012) HDRip | КПК | D .torrent   [Информация о файле (нажмите для просмотра)] Перевод: Профессиональный (дублированный)Кодек: MPEG4Качество: HDRip /источник: BDRip 1080pВидео: 640x264, 23.976 fps, 734 kbpsАудио: AAC, 2 ch, 96 kbpsСубтитры: Недоступны 609,64 Mb 1 2 21 января 2016 07:31 На грани / Man on a Ledge (2012) BDRip-AVC от HQ-ViDEO | Лицензия .torrent   [Информация о файле (нажмите для просмотра)] Перевод: Профессиональный дублированный (Лицензия) + Оригинальная дорожка (Английская)Субтитры: Русские, Английские |.srt|Видео: x.264 / 1056 x 440 / 2.40:1 / 2253 kbps / 23,976 fpsАудио 1: Русский / AC3 Dolby Digital / 48 KHz / 384 kbps / 3/2 (L,C,R,l,r) + LFE chАудио 2: Английский / AC3 Dolby Digital / 48 KHz / 384 kbps / 3/2 (L,C,R,l,r) + LFE ch 2,21 Gb 10 1 21 января 2016 07:31 На грани / Man on a Ledge (2012) BDRemux .torrent   [Информация о файле (нажмите для просмотра)] Формат: MKVКачество: BDRemuxВидео: MPEG-4 AVC, 29.4 Мбит/с, 1920x1080Звук: Русский (AC3, 6 ch, 384 Кбит/с ), английский (DTS-HD МА, 6 ch, 3707 Кбит/с)Субтитры: Русские, английские 24,01 Gb 5 5 21 января 2016 07:30 На грани / Man on a Ledge (2012) BDRip от HQCLUB | Лицензия .torrent   [Информация о файле (нажмите для просмотра)] Перевод: Профессиональный (полное дублирование) + Оригинальная звуковая дорожкаСубтитры: Русскиe, английские (внешние srt*)Формат: AVIКачество: BDRip (источник: HDChina /Blu-ray / 1080p)Видео: 720x304 (2.37:1), 23.976 fps, XviD build 65 ~2209 kbps avg, 0.42 bit/pixelАудио #1: 48 kHz, AC3 Dolby Digital, 3/2 (L,C,R,l,r) + LFE ch, ~384.00 kbps avgАудио #2: 48 kHz, AC3 Dolby Digital, 3/2 (L,C,R,l,r) + LFE ch, ~448.00 kbps avg 2,18 Gb 56 7 21 января 2016 07:30 На грани / Man on a Ledge (2012) BDRip 1080p | Лицензия .torrent   [Информация о файле (нажмите для просмотра)] Перевод: Дублированный [лицензия]Кодек: H 264Качество: BDRip 1080pВидео: 17,6 Мбит/сек, 1920х800Звук: Аудио#1: Russian: AC3, (6 ch), 384 kb/s Аудио#2: English: DTS, (6 ch), 1510 kb/sСубтитры: English 13,94 Gb 8 4 21 января 2016 07:30 На грани / Man on a Ledge (2012) DVD5 | Лицензия .torrent   [Информация о файле (нажмите для просмотра)] Формат: DVD-VideoКачество: DVD5 | ЛицензияВидео: MPEG2 PAL 16:9 (720x576) ~ 6062 KbpsЗвук: Russian (Dolby AC3, 6 ch) 384 KbpsСкриншоты 4,36 Gb 4 2 21 января 2016 07:30 На грани / Man on a Ledge (2012) DVD9 | Лицензия .torrent   [Информация о файле (нажмите для просмотра)] Перевод: Дублированный [Лицензия]Качество: DVD9Видео: PAL 16:9 (720x576) VBR Auto Letterboxed ~ 6914.78 kbps avgАудио: Русский (Dolby AC3, 6 ch, 384 kbps)Аудио: Русский (Dolby AC3, 2 ch, 192 kbps) 5,86 Gb 1 2

gig-torrent.net

Скачать фильм На грани через торрент в хорошем качестве бесплатно DVDRip

Размер: 698 MB | Добавлен: 5 лет 6 мес. назад | Торрент скачан:519 раз
Реклама Дарим 3000 рублей за регистрацию, не упусти свой шанс получить шикарный бонус!!!

06-04-2012 18:40 На грани Скачать торрент  

На грани / Man on a LedgeГод выпуска: 2012.Страна: США.Жанр: Триллер, криминал.Продолжительность: 01:38:15.Перевод: Дублированный. (Лицензия)Субтитры: нетРежиссер: Асгер Лет.В ролях: Сэм Уортингтон, Элизабет Бэнкс, Джейми Белл, Энтони Маки, Генезис Родригез, Эд Харрис, Мэнди Гонзалес, Barbara Marineau, Дж. Смит-Камерон, Патрик Коллинз.Описание: Экс-полицейский, обвиняемый в преступлении, которого он якобы не совершал, собирается покончить жизнь самоубийством, сбросившись с крыши одного из отелей на Манхэттене. С ним в переговоры вступает психолог нью-йоркской полиции. Напряжение нарастает с каждой минутой, на площадь стягиваются наряды спецподразделений, толпа оглашается женскими криками. А в это время на месте происшествия, прямо под носом у полиции, совершается грандиозное ограбление века: неизвестные похищают уникальные бриллианты…

Качество: DVDRip.Формат: AVI.Видео кодек: XviD.Аудио кодек: МР3.Видео: 640x272 (2.35:1), 25 fps, XviD MPEG-4 ~854 kbps avg, 0.20 bit/pixelАудио: 48 kHz, MPEG Layer 3, 2 ch, ~128.00 kbps avg

http://multi-up.com/681620

Скачать На грани через торрент http://pic.pb.wtf/images/2011/qznudvb5c4.png Скачать фильм На грани через торрент бесплантно в хорошем качестве Описание: Экс-полицейский, обвиняемый в преступлении, которого он якобы не совершал, собирается покончить жизнь самоубийством, сбросившись ... 2012-04-06 18:40 10 10 1

Loading...

Loading...

Рекламный пират

08-04-2012 10:30 На грани Скачать торрент  

Как фильм отпишите)

Дорогой пользователь! Огромная просьба, поблагодарите релизера, оцените раздачу и оставьте свои комментарий, если Вы скачали На грани через торрент бесплатно! Внесите свою лепту в развитие PiratBit!

Комментировать посты могут только пользователи прошедшие не сложную регистрацию

На грани через торрент Скачать бесплатно На грани На грани скачать торрент На грани смотреть онлайн Cкачать фильм На грани бесплатно На грани скачать торрент в хорошем качестве На грани смотреть онлайн бесплатно в хорошем качестве

Вы можете начинать темыВы можете отвечать на сообщенияВы не можете редактировать свои сообщенияВы не можете удалять свои сообщенияВы не можете голосовать в опросахВы не можете прикреплять файлы к сообщениямВы можете скачивать файлы

piratbit.ru

Скачать фильм На грани через торрент в хорошем качестве бесплатно 2012 г.

ОбщееУникальный идентификатор : 202179082961910858938505069703939494606 (0x981A46666EF2D33CA7706EA370C812CE)Полное имя : D:\Фильмы\На грани.1080p.BDRemux.mkvФормат : MatroskaВерсия формата : Version 2Размер файла : 24,0 ГбайтПродолжительность : 1 ч. 42 м.Режим общего битрейта : ПеременныйОбщий поток : 33,6 Мбит/секДата кодирования : UTC 2012-05-12 19:33:57Программа кодирования : mkvmerge v5.3.0 ('I could have danced') built on Feb 9 2012 10:38:07Библиотека кодирования : libebml v1.2.3 + libmatroska v1.3.0

ВидеоИдентификатор : 1Формат : AVCФормат/Информация : Advanced Video CodecПрофиль формата : [email protected]Параметр CABAC формата : ДаПараметр ReFrames формата : 2 кадраПараметр GOP формата : M=1, N=10Режим смешивания : Container [email protected]Идентификатор кодека : V_MPEG4/ISO/AVCПродолжительность : 1 ч. 42 м.Вид битрейта : ПеременныйБитрейт : 30,9 Мбит/секШирина : 1920 пикселейВысота : 1080 пикселейСоотношение сторон : 16:9Частота кадров : 23,976 кадра/секЦветовое пространство : YUVСубдискретизация насыщенности : 4:2:0Битовая глубина : 8 битТип развёртки : ПрогрессивнаяБит/(Пиксели*Кадры) : 0.622Размер потока : 22,1 Гбайт (92%)Default : НетForced : Нет

Аудио #1Идентификатор : 2Формат : AC-3Формат/Информация : Audio Coding 3Расширение режима : CM (complete main)Параметр Endianness формата : BigИдентификатор кодека : A_AC3Продолжительность : 1 ч. 42 м.Вид битрейта : ПостоянныйБитрейт : 384 Кбит/секКаналы : 6 каналовРасположение каналов : Front: L C R, Side: L R, LFEЧастота : 48,0 КГцБитовая глубина : 16 битМетод сжатия : С потерямиРазмер потока : 281 Мбайт (1%)Заголовок : Дубляж R5Язык : RussianDefault : ДаForced : Да

Аудио #2Идентификатор : 3Формат : DTSФормат/Информация : Digital Theater SystemsПрофиль формата : MA / CoreИдентификатор кодека : A_DTSПродолжительность : 1 ч. 42 м.Вид битрейта : ПеременныйБитрейт : 1561 Кбит/сек / 1510 Кбит/секКаналы : 6 каналовРасположение каналов : Front: L C R, Side: L R, LFEЧастота : 48,0 КГцБитовая глубина : 24 битМетод сжатия : Без потерь / LossyЯзык : EnglishDefault : НетForced : Нет

Текст #1Идентификатор : 4Формат : UTF-8Идентификатор кодека : S_TEXT/UTF8Идентификатор кодека/Информация : UTF-8 Plain TextЯзык : EnglishDefault : НетForced : Нет

Текст #2Идентификатор : 5Формат : UTF-8Идентификатор кодека : S_TEXT/UTF8Идентификатор кодека/Информация : UTF-8 Plain TextЯзык : RussianDefault : НетForced : Нет

Меню00:00:00.000 : en:00:00:00.00000:04:04.744 : en:00:04:04.74400:08:02.315 : en:00:08:02.31500:13:43.364 : en:00:13:43.36400:17:10.029 : en:00:17:10.02900:25:02.876 : en:00:25:02.87600:30:20.902 : en:00:30:20.90200:37:03.430 : en:00:37:03.43000:44:58.529 : en:00:44:58.52900:50:51.674 : en:00:50:51.67400:55:50.013 : en:00:55:50.01301:00:18.740 : en:01:00:18.74001:06:13.511 : en:01:06:13.51101:11:18.816 : en:01:11:18.81601:15:50.963 : en:01:15:50.96301:20:46.884 : en:01:20:46.88401:25:06.977 : en:01:25:06.97701:32:40.305 : en:01:32:40.305

piratbit.ru

Скачать фильм На грани сомнения (2012) через торрент

8 февраля 2016 13:27 На грани сомнения / Suspension of Disbelief (2012) BDRip 720p от Leonardo and Scarabey | P | Лицензия .torrent   [Информация о файле (нажмите для просмотра)] Перевод: Профессиональный (многоголосый закадровый) R5Формат: MKVВидео кодек: MPEG-4 AVC Аудио кодек: AC3Видео: AVC, 1280x720 (16:9) at 23.976 fps, AVC at 2564 kbps avg, 0.113 bit/pixelАудио: 48 kHz, AC3 Dolby Digital, 3/2 (L,C,R,l,r) + LFE ch, 448.00 kbps - RussianСубтитры: русские 2,36 Gb 19 5 8 февраля 2016 13:26 На грани сомнения / Suspension of Disbelief (2012) DVDRip от -=HD-NET=- | КПК | P | лицензия .torrent   [Информация о файле (нажмите для просмотра)] Перевод: Профессиональный (многоголосый закадровый)Качество: DVDRip | КПКВидео: AVC, 480x272 (16:9), 25.000 fps, 350 Кбит/сЗвук: AAC LC, 48.0 KHz, 2 ch, 128 Kбит/с 368,99 Mb 1 1 8 февраля 2016 13:26 На грани сомнения / Suspension of Disbelief (2012) DVDRip от -=HD-NET=- | P | лицензия .torrent   [Информация о файле (нажмите для просмотра)] Перевод: Профессиональный (многоголосый закадровый)Качество: DVDRipВидео: XviD, 720x400 (16:9), 25.000 fps, 1 373 Кбит/сЗвук: AC-3, 48.0 KHz, 6 ch, 448 Kбит/с 1,37 Gb 16 2 8 февраля 2016 13:26 На грани сомнения / Suspension of Disbelief (2012) BDRip от Rulya74 | Лицензия .torrent   [Информация о файле (нажмите для просмотра)] Перевод: Профессиональный (многоголосый закадровый) R5Кодек: XVIDКачество: BDRipВидео: 720x400 (16:9), 23.976 fps, XviD MPEG-4 ~1710 kbps avg, 0.248 bit/pixelСубтитры: Русские / внешние 2,06 Gb 7 4 8 февраля 2016 13:26 На грани сомнения / Suspension of Disbelief (2012) DVD5 от New-Team | P | сжатый .torrent   [Информация о файле (нажмите для просмотра)] Перевод: Профессиональный (многоголосый закадровый)Качество: DVD5 (сжатый) /DVD9 R5Формат: DVD VideoВидео: PAL 16x9 (720х576) VBR, 5327 kbps, Auto LetterboxedАудио: 48 kHz, Dolby AC3, 6 ch, 448 kbps,русский 4,37 Gb 3 5 8 февраля 2016 13:26 На грани сомнения / Suspension of Disbelief (2012) DVD9 R5 от New-Team | P | лицензия .torrent   [Информация о файле (нажмите для просмотра)] Перевод: Профессиональный (многоголосый закадровый)Качество: DVD9 R5Формат: DVD VideoВидео: PAL 16x9 (720х576) VBR, 5700 kbps, Auto LetterboxedАудио 1: 48 kHz, Dolby AC3, 6 ch, 448 kbps,русскийАудио 2: 48 kHz, Dolby AC3, 6 ch, 448 kbps, английский 5,43 Gb 3 2 8 февраля 2016 13:26 На грани сомнения / Suspension of Disbelief (2012) WEB-DLRip-AVC | L2 .torrent   [Информация о файле (нажмите для просмотра)] Формат: MKVКачество: WEB-DLRip-AVCВидео: 1561 kb/s, 1024x576Аудио: Russian: AC3, 192 kb/s (2 ch) / English: AC3, 192 kb/s (6 ch) 1,46 Gb 1 3 8 февраля 2016 13:26 На грани сомнения / Suspension of Disbelief (2012) WEB-DL 720p от CINEMANIA | L2 .torrent   [Информация о файле (нажмите для просмотра)] Формат: MKVКачество: WEB-DL 720p[MiLLENiUM]Видео: 3703 kb/s, 960x718(Playback Reslution 1280x718)Аудио: Russian: AC3, 192 kb/s (2 ch) / English: AC3, 384 kb/s (6 ch) 3,27 Gb 1 5

gig-torrent.net

Скачать фильм На грани (1997) через торрент

13 сентября 2016 08:49 На грани / The Edge (1997) BDRip 720p by msltel | 4 x P, 3 x A .torrent   [Информация о файле (нажмите для просмотра)] Перевод: профессиональный многоголосый, авторскийСубтитры: русские, английские (все внешние)Качество: BDRip 720pСравнение с исходникомФормат: MKVВидео: 4047 Кбит/с, 1280x544, 23.976 кадра/с, 0.242 bppАудио 1: русский, AC3, 448 kbps, 6 ch, 48 kHz [профессиональный многоголосый, Позитив Мультимедиа]Аудио 2: русский, AC3, 384 kbps, 6 ch, 48 kHz [профессиональный многоголосый, XX Век Фокс СНГ]Аудио 3: русский, AC3, 448 kbps, 6 ch, 48 kHz [авторский, Андрей Гаврилов]Аудио 4: русский, AC3, 448 kbps, 6 ch, 48 kHz [авторский, Юрий Живов]Аудио: русский, AC3, 224 kbps, 2 ch, 48 kHz [профессиональный многоголосый, OPT]Аудио: русский, AC3, 224 kbps, 2 ch, 48 kHz [профессиональный многоголосый, Премьер-видео]Аудио: русский, AC3, 192 kbps, 2 ch, 48 kHz [авторский, Александр Кашкин (Первомайский)]Аудио: английский, AC3, 448 kbps, 6 ch, 48 kHz [оригинал]Аудио: Формат : AC-3 Формат/Информация : Audio Coding 3 Расширение режима : CM (complete main) Параметр Endianness формата : Big Продолжительность : 1 ч. 57 м. Вид битрейта : Постоянный Битрейт : 192 Кбит/сек Каналы : 2 канала Расположение каналов : Front: L R Частота : 48,0 КГц Битовая глубина : 16 бит Метод сжатия : С потерями Размер потока : 161 Мбайт (100%)Видео: Идентификатор : 1 Формат : AVC Формат/Информация : Advanced Video Codec Профиль формата : [email protected] Параметр CABAC формата : Да Параметр ReFrames формата : 9 кадров Идентификатор кодека : V_MPEG4/ISO/AVC Продолжительность : 1 ч. 57 м. Битрейт : 4047 Кбит/сек Ширина : 1280 пикселей Высота : 544 пикселя Соотношение сторон : 2,35:1 Режим частоты кадров : Постоянный Частота кадров : 23,976 кадра/сек Цветовое пространство : YUV Субдискретизация насыщенности : 4:2:0 Битовая глубина : 8 бит Тип развёртки : Прогрессивная Бит/(Пиксели*Кадры) : 0.242 Размер потока : 3,32 Гбайт (69%) Заголовок : BDRip -- STarankov Библиотека кодирования : x264 core 146 r2538 121396c Настройки программы : cabac=1 / ref=9 / deblock=1:-1:-1 / analyse=0x3:0x113 / me=umh / subme=10 / psy=1 / psy_rd=1.00:0.15 / mixed_ref=1 / me_range=32 / chroma_me=1 / trellis=2 / 8x8dct=1 / cqm=0 / deadzone=21,11 / fast_pskip=1 / chroma_qp_offset=-3 / threads=6 / lookahead_threads=1 / sliced_threads=0 / nr=0 / decimate=1 / interlaced=0 / bluray_compat=0 / constrained_intra=0 / bframes=10 / b_pyramid=2 / b_adapt=2 / b_bias=0 / direct=3 / weightb=1 / open_gop=0 / weightp=2 / keyint=230 / keyint_min=23 / scenecut=40 / intra_refresh=0 / rc_lookahead=40 / rc=crf / mbtree=0 / crf=19.0 / qcomp=0.60 / qpmin=0 / qpmax=69 / qpstep=4 / vbv_maxrate=40000 / vbv_bufsize=50000 / crf_max=0.0 / nal_hrd=none / filler=0 / ip_ratio=1.40 / pb_ratio=1.30 / aq=1:1.00 Язык : English Default : Да Forced : Нет DURATION : 01:57:33.005000000 NUMBER_OF_FRAMES : 169103 NUMBER_OF_BYTES : 3668800051 _STATISTICS_WRITING_APP : mkvmerge v7.8.0 ('River Man') 64bit built on Mar 27 2015 16:31:37 _STATISTICS_WRITING_DATE_UTC : 2015-04-02 18:17:53 _STATISTICS_TAGS : BPS DURATION NUMBER_OF_FRAMES NUMBER_OF_BYTESАудио #1: Идентификатор : 2 Формат : AC-3 Формат/Информация : Audio Coding 3 Расширение режима : CM (complete main) Параметр Endianness формата : Big Идентификатор кодека : A_AC3 Продолжительность : 1 ч. 57 м. Вид битрейта : Постоянный Битрейт : 448 Кбит/сек Каналы : 6 каналов Расположение каналов : Front: L C R, Side: L R, LFE Частота : 48,0 КГц Битовая глубина : 16 бит Метод сжатия : С потерями Размер потока : 377 Мбайт (8%) Заголовок : MVO (Позитив Мультимедиа) Язык : Russian Default : Да Forced : НетАудио #2: Идентификатор : 3 Формат : AC-3 Формат/Информация : Audio Coding 3 Расширение режима : CM (complete main) Параметр Endianness формата : Big Идентификатор кодека : A_AC3 Продолжительность : 1 ч. 57 м. Вид битрейта : Постоянный Битрейт : 384 Кбит/сек Каналы : 6 каналов Расположение каналов : Front: L C R, Side: L R, LFE Частота : 48,0 КГц Битовая глубина : 16 бит Метод сжатия : С потерями Размер потока : 323 Мбайт (7%) Заголовок : MVO (XX Век Фокс СНГ) Язык : Russian Default : Нет Forced : НетАудио #3: Идентификатор : 4 Формат : AC-3 Формат/Информация : Audio Coding 3 Расширение режима : CM (complete main) Параметр Endianness формата : Big Идентификатор кодека : A_AC3 Продолжительность : 1 ч. 57 м. Вид битрейта : Постоянный Битрейт : 448 Кбит/сек Каналы : 6 каналов Расположение каналов : Front: L C R, Side: L R, LFE Частота : 48,0 КГц Битовая глубина : 16 бит Метод сжатия : С потерями Размер потока : 377 Мбайт (8%) Заголовок : AVO (Андрей Гаврилов) Язык : Russian Default : Нет Forced : НетАудио #4: Идентификатор : 5 Формат : AC-3 Формат/Информация : Audio Coding 3 Расширение режима : CM (complete main) Параметр Endianness формата : Big Идентификатор кодека : A_AC3 Продолжительность : 1 ч. 57 м. Вид битрейта : Постоянный Битрейт : 448 Кбит/сек Каналы : 6 каналов Расположение каналов : Front: L C R, Side: L R, LFE Частота : 48,0 КГц Битовая глубина : 16 бит Метод сжатия : С потерями Размер потока : 377 Мбайт (8%) Заголовок : AVO (Юрий Живов) Язык : Russian Default : Нет Forced : НетАудио: Формат : AC-3 Формат/Информация : Audio Coding 3 Расширение режима : CM (complete main) Параметр Endianness формата : Big Продолжительность : 1 ч. 57 м. Вид битрейта : Постоянный Битрейт : 224 Кбит/сек Каналы : 2 канала Расположение каналов : Front: L R Частота : 48,0 КГц Битовая глубина : 16 бит Метод сжатия : С потерями Размер потока : 188 Мбайт (100%)Аудио: Формат : AC-3 Формат/Информация : Audio Coding 3 Расширение режима : CM (complete main) Параметр Endianness формата : Big Продолжительность : 1 ч. 57 м. Вид битрейта : Постоянный Битрейт : 224 Кбит/сек Каналы : 2 канала Расположение каналов : Front: L R Частота : 48,0 КГц Битовая глубина : 16 бит Метод сжатия : С потерями Размер потока : 188 Мбайт (100%)Аудио: Формат : AC-3 Формат/Информация : Audio Coding 3 Расширение режима : CM (complete main) Параметр Endianness формата : Big Продолжительность : 1 ч. 57 м. Вид битрейта : Постоянный Битрейт : 448 Кбит/сек Каналы : 6 каналов Расположение каналов : Front: L C R, Side: L R, LFE Частота : 48,0 КГц Битовая глубина : 16 бит Метод сжатия : С потерями Размер потока : 377 Мбайт (100%) 5,73 Gb 9 3 13 сентября 2016 08:49 На грани / The Edge (1997) BDRip-AVC by msltel | 4 x P, 3 x A .torrent   [Информация о файле (нажмите для просмотра)] Перевод: профессиональный многоголосый, авторскийСубтитры: русские, английские (все внешние)Качество: BDRip-AVCСравнение с исходникомФормат: MKVВидео: 2431 Кбит/с, 1024x434, 23.976 кадра/с, 0.228 bppАудио 1: русский, AC3, 448 kbps, 6 ch, 48 kHz [профессиональный многоголосый, Позитив Мультимедиа]Аудио 2: русский, AC3, 384 kbps, 6 ch, 48 kHz [профессиональный многоголосый, XX Век Фокс СНГ]Аудио 3: русский, AC3, 448 kbps, 6 ch, 48 kHz [авторский, Андрей Гаврилов]Аудио 4: русский, AC3, 448 kbps, 6 ch, 48 kHz [авторский, Юрий Живов]Аудио: русский, AC3, 224 kbps, 2 ch, 48 kHz [профессиональный многоголосый, OPT]Аудио: русский, AC3, 224 kbps, 2 ch, 48 kHz [профессиональный многоголосый, Премьер-видео]Аудио: русский, AC3, 192 kbps, 2 ch, 48 kHz [авторский, Александр Кашкин (Первомайский)]Аудио: английский, AC3, 448 kbps, 6 ch, 48 kHz [оригинал]Аудио: Формат : AC-3 Формат/Информация : Audio Coding 3 Расширение режима : CM (complete main) Параметр Endianness формата : Big Продолжительность : 1 ч. 57 м. Вид битрейта : Постоянный Битрейт : 192 Кбит/сек Каналы : 2 канала Расположение каналов : Front: L R Частота : 48,0 КГц Битовая глубина : 16 бит Метод сжатия : С потерями Размер потока : 161 Мбайт (100%)Видео: Идентификатор : 1 Формат : AVC Формат/Информация : Advanced Video Codec Профиль формата : [email protected] Параметр CABAC формата : Да Параметр ReFrames формата : 9 кадров Идентификатор кодека : V_MPEG4/ISO/AVC Продолжительность : 1 ч. 57 м. Битрейт : 2431 Кбит/сек Ширина : 1024 пикселя Высота : 434 пикселя Соотношение сторон : 2,35:1 Режим частоты кадров : Постоянный Частота кадров : 23,976 кадра/сек Цветовое пространство : YUV Субдискретизация насыщенности : 4:2:0 Битовая глубина : 8 бит Тип развёртки : Прогрессивная Бит/(Пиксели*Кадры) : 0.228 Размер потока : 2,00 Гбайт (57%) Заголовок : BDRip -- STarankov Библиотека кодирования : x264 core 146 r2538 121396c Настройки программы : cabac=1 / ref=9 / deblock=1:-1:-1 / analyse=0x3:0x113 / me=umh / subme=10 / psy=1 / psy_rd=1.00:0.15 / mixed_ref=1 / me_range=32 / chroma_me=1 / trellis=2 / 8x8dct=1 / cqm=0 / deadzone=21,11 / fast_pskip=1 / chroma_qp_offset=-3 / threads=6 / lookahead_threads=1 / sliced_threads=0 / nr=0 / decimate=1 / interlaced=0 / bluray_compat=0 / constrained_intra=0 / bframes=10 / b_pyramid=2 / b_adapt=2 / b_bias=0 / direct=3 / weightb=1 / open_gop=0 / weightp=2 / keyint=230 / keyint_min=23 / scenecut=40 / intra_refresh=0 / rc_lookahead=40 / rc=crf / mbtree=0 / crf=19.0 / qcomp=0.60 / qpmin=0 / qpmax=69 / qpstep=4 / vbv_maxrate=40000 / vbv_bufsize=50000 / crf_max=0.0 / nal_hrd=none / filler=0 / ip_ratio=1.40 / pb_ratio=1.30 / aq=1:1.00 Язык : English Default : Да Forced : Нет DURATION : 01:57:33.005000000 NUMBER_OF_FRAMES : 169103 NUMBER_OF_BYTES : 2215747593 _STATISTICS_WRITING_APP : mkvmerge v7.8.0 ('River Man') 64bit built on Mar 27 2015 16:31:37 _STATISTICS_WRITING_DATE_UTC : 2015-04-02 05:44:47 _STATISTICS_TAGS : BPS DURATION NUMBER_OF_FRAMES NUMBER_OF_BYTESАудио #1: Идентификатор : 2 Формат : AC-3 Формат/Информация : Audio Coding 3 Расширение режима : CM (complete main) Параметр Endianness формата : Big Идентификатор кодека : A_AC3 Продолжительность : 1 ч. 57 м. Вид битрейта : Постоянный Битрейт : 448 Кбит/сек Каналы : 6 каналов Расположение каналов : Front: L C R, Side: L R, LFE Частота : 48,0 КГц Битовая глубина : 16 бит Метод сжатия : С потерями Размер потока : 377 Мбайт (11%) Заголовок : MVO (Позитив Мультимедиа) Язык : Russian Default : Да Forced : НетАудио #2: Идентификатор : 3 Формат : AC-3 Формат/Информация : Audio Coding 3 Расширение режима : CM (complete main) Параметр Endianness формата : Big Идентификатор кодека : A_AC3 Продолжительность : 1 ч. 57 м. Вид битрейта : Постоянный Битрейт : 384 Кбит/сек Каналы : 6 каналов Расположение каналов : Front: L C R, Side: L R, LFE Частота : 48,0 КГц Битовая глубина : 16 бит Метод сжатия : С потерями Размер потока : 323 Мбайт (9%) Заголовок : MVO (XX Век Фокс СНГ) Язык : Russian Default : Нет Forced : НетАудио #3: Идентификатор : 4 Формат : AC-3 Формат/Информация : Audio Coding 3 Расширение режима : CM (complete main) Параметр Endianness формата : Big Идентификатор кодека : A_AC3 Продолжительность : 1 ч. 57 м. Вид битрейта : Постоянный Битрейт : 448 Кбит/сек Каналы : 6 каналов Расположение каналов : Front: L C R, Side: L R, LFE Частота : 48,0 КГц Битовая глубина : 16 бит Метод сжатия : С потерями Размер потока : 377 Мбайт (11%) Заголовок : AVO (Андрей Гаврилов) Язык : Russian Default : Нет Forced : НетАудио #4: Идентификатор : 5 Формат : AC-3 Формат/Информация : Audio Coding 3 Расширение режима : CM (complete main) Параметр Endianness формата : Big Идентификатор кодека : A_AC3 Продолжительность : 1 ч. 57 м. Вид битрейта : Постоянный Битрейт : 448 Кбит/сек Каналы : 6 каналов Расположение каналов : Front: L C R, Side: L R, LFE Частота : 48,0 КГц Битовая глубина : 16 бит Метод сжатия : С потерями Размер потока : 377 Мбайт (11%) Заголовок : AVO (Юрий Живов) Язык : Russian Default : Нет Forced : НетАудио: Формат : AC-3 Формат/Информация : Audio Coding 3 Расширение режима : CM (complete main) Параметр Endianness формата : Big Продолжительность : 1 ч. 57 м. Вид битрейта : Постоянный Битрейт : 224 Кбит/сек Каналы : 2 канала Расположение каналов : Front: L R Частота : 48,0 КГц Битовая глубина : 16 бит Метод сжатия : С потерями Размер потока : 188 Мбайт (100%)Аудио: Формат : AC-3 Формат/Информация : Audio Coding 3 Расширение режима : CM (complete main) Параметр Endianness формата : Big Продолжительность : 1 ч. 57 м. Вид битрейта : Постоянный Битрейт : 224 Кбит/сек Каналы : 2 канала Расположение каналов : Front: L R Частота : 48,0 КГц Битовая глубина : 16 бит Метод сжатия : С потерями Размер потока : 188 Мбайт (100%)Аудио: Формат : AC-3 Формат/Информация : Audio Coding 3 Расширение режима : CM (complete main) Параметр Endianness формата : Big Продолжительность : 1 ч. 57 м. Вид битрейта : Постоянный Битрейт : 448 Кбит/сек Каналы : 6 каналов Расположение каналов : Front: L C R, Side: L R, LFE Частота : 48,0 КГц Битовая глубина : 16 бит Метод сжатия : С потерями Размер потока : 377 Мбайт (100%) 4,38 Gb 5 3 13 сентября 2016 08:49 На грани / The Edge (1997) BDRip от MediaClub | КПК .torrent   [Информация о файле (нажмите для просмотра)] Перевод: Профессиональный многоголосыйКодек: MPEG-4 AVCКачество: BDRipВидео: 500 Кбит/с, 320x128, 23.976 кадр/сЗвук: Русский (AAC, 2 ch, 128 Кбит/с) 530,04 Mb 6 1 13 сентября 2016 08:49 На грани / The Edge (1997) BDRip-AVC от New-Team | P .torrent   [Информация о файле (нажмите для просмотра)] Перевод: Профессиональный (многоголосый, закадровый) 20th Century FoxКачество: BDRip-AVC [BDRemux 1080p]Формат: MKVВидео: 744x314 (2.35:1), 23.976 fps, h364 ~ 821 Kbps, 0.147 bit/pixelАудио: 48 KHz / 24 KHz, AAC HE-AAC / LC, 2/0 (L,R) ch, ~64 kbps 745,36 Mb 9 3 13 сентября 2016 08:49 На грани / The Edge (1997) HDRip от Scarabey | Р .torrent   [Информация о файле (нажмите для просмотра)] Перевод: Профессиональный (многоголосый, закадровый) - Лицензия 20th Century FoxКачество: HDRipФормат: AVIВидео: 720x304 (2.37:1), 23.976 fps, XviD build 50 ~2256 kbps avg, 0.43 bit/pixelАудио: 48 kHz, AC3 Dolby Digital, 3/2 (L,C,R,l,r) + LFE ch, ~384.00 kbps avg 2,17 Gb 40 3 13 сентября 2016 08:49 На грани / The Edge (1997) HDRip от Scarabey | Р .torrent   [Информация о файле (нажмите для просмотра)] Перевод: Профессиональный (многоголосый, закадровый) - Лицензия 20th Century FoxКачество: HDRipФормат: AVIВидео: 720x304 (2.37:1), 23.976 fps, XviD build 50 ~1377 kbps avg, 0.26 bit/pixelАудио: 48 kHz, AC3 Dolby Digital, 3/2 (L,C,R,l,r) + LFE ch, ~384.00 kbps avg 1,45 Gb 81 6 13 сентября 2016 08:49 На грани / The Edge (1997) DVD9 от NovaLan .torrent   [Информация о файле (нажмите для просмотра)] Перевод: Профессиональный, многоголосый (Двадцатый век Фокс) / Профессиональный, многоголосый (Первый канал) / Профессиональный, многоголосый (Премьер Видео)Кодек: MPEG-2Качество: DVD-9Видео: PAL 16:9 (720x576) VBRЗвук: Английский (Dolby AC3, 6 ch) / Русский (Dolby AC3, 6 ch) / Русский (Dolby AC3, 2 ch) / Русский (Dolby AC3, 2 ch)Субтитры: Английские, русские, украинскиеВидео: Идентификатор : 224 (0xE0) Формат : MPEG Video Версия формата : Version 2 Профиль формата : [email protected] Параметр BVOP формата : Да Параметр матрицы формата : Выборочная Продолжительность : 14 м. Вид битрейта : Переменный Битрейт : 8138 Кбит/сек Максимальный битрейт : 8500 Кбит/сек Ширина : 720 пикселей Высота : 576 пикселей Соотношение сторон : 16:9 Частота кадров : 25,000 кадров/сек Стандарт вещания : PAL Цветовое пространство : YUV Субдискретизация насыщенности : 4:2:0 Битовая глубина : 8 бит Тип развёртки : Чересстрочная Порядок развёртки : Верхнее поле первое Метод сжатия : С потерями Бит/(Пиксели*Кадры) : 0.785 Размер потока : 867 Мбайт (85%)Аудио #1: Идентификатор : 189 (0xBD)-128 (0x80) Формат : AC-3 Формат/Информация : Audio Coding 3 Расширение режима : CM (complete main) Параметр Endianness формата : Big Режим смешивания : DVD-Video Продолжительность : 14 м. Вид битрейта : Постоянный Битрейт : 448 Кбит/сек Каналы : 6 каналов Расположение каналов : Front: L C R, Side: L R, LFE Частота : 48,0 КГц Битовая глубина : 16 бит Метод сжатия : С потерями Размер потока : 47,7 Мбайт (5%)Аудио #2: Идентификатор : 189 (0xBD)-129 (0x81) Формат : AC-3 Формат/Информация : Audio Coding 3 Расширение режима : CM (complete main) Параметр Endianness формата : Big Режим смешивания : DVD-Video Продолжительность : 14 м. Вид битрейта : Постоянный Битрейт : 448 Кбит/сек Каналы : 6 каналов Расположение каналов : Front: L C R, Side: L R, LFE Частота : 48,0 КГц Битовая глубина : 16 бит Метод сжатия : С потерями Размер потока : 47,7 Мбайт (5%)Аудио #3: Идентификатор : 189 (0xBD)-130 (0x82) Формат : AC-3 Формат/Информация : Audio Coding 3 Расширение режима : CM (complete main) Параметр Endianness формата : Big Режим смешивания : DVD-Video Продолжительность : 14 м. Вид битрейта : Постоянный Битрейт : 192 Кбит/сек Каналы : 2 канала Расположение каналов : Front: L R Частота : 48,0 КГц Битовая глубина : 16 бит Метод сжатия : С потерями Размер потока : 20,5 Мбайт (2%)Аудио #4: Идентификатор : 189 (0xBD)-131 (0x83) Формат : AC-3 Формат/Информация : Audio Coding 3 Расширение режима : CM (complete main) Параметр Endianness формата : Big Режим смешивания : DVD-Video Продолжительность : 14 м. Вид битрейта : Постоянный Битрейт : 192 Кбит/сек Каналы : 2 канала Расположение каналов : Front: L R Частота : 48,0 КГц Битовая глубина : 16 бит Метод сжатия : С потерями Размер потока : 20,5 Мбайт (2%) 7,82 Gb 3 2 13 сентября 2016 08:49 На грани / The Edge (1997) BDRip-AVC от ExKinoRay .torrent   [Информация о файле (нажмите для просмотра)] Перевод: Профессиональный, многоголосый (Позитив-Мультимедиа) | Авторский, одноголосый (А.Гаврилов) | Профессиональный, многоголосый (Двадцатый Век Фокс СНГ) (отдельно) | Авторский, одноголосый (Ю.Живов) (отдельно)Кодек: x264Качество: BDRip (AVC)Видео: MPEG-4 AVC, 2079 Кбит/с, 1024x434Аудио: ПМ (Позитив-Мультимедиа) (АС3, 6 ch, 384 Кбит/с), АО (А.Гаврилов) (АС3, 6 ch, 192 Кбит/с), ПМ (Двадцатый Век Фокс СНГ) (AC3, 6 ch, 384 Кбит/с - отдельно), АО (Ю.Живов) (АС3, 6 ch, 384 Кбит/с - отдельно), английский (АС3, 6 ch, 640 Кбит/с - отдельно) 3,34 Gb 3 1 13 сентября 2016 08:49 На грани / The Edge (1997) BDRip 1080p .torrent   [Информация о файле (нажмите для просмотра)] Перевод: Многоголосый закадровыйКодек: x264Качество: BDRip 1080pВидео: 1920x816, 6910 Kbps, 23.976 fpsЗвук: Russian: 48 kHz, AC3, 3/2 (L,C,R,l,r) + LFE ch, ~384.00 kbps avg |Многоголосый закадровый, Двадцатый Век Фокс СНГ| Russian: 48 kHz, AC3, 3/2 (L,C,R,l,r) + LFE ch, ~384.00 kbps avg |Многоголосый закадровый, Позитив-Мультимедиа| Russian: 48 kHz, AC3, 3/2 (L,C,R,l,r) + LFE ch, ~384.00 kbps avg |Одноголосый закадровый, Ю.Живов| Russian: 48 kHz, HE-AAC, 3/2 (L,C,R,l,r) + LFE ch, ~220.00 kbps avg |Одноголосый закадровый, А.Гаврилов| English: 48 kHz, DTS, 3/2 (L,C,R,l,r) + LFE ch, ~640.00 kbps avgСубтитры: Russian 7,33 Gb 10 1 13 сентября 2016 08:49 На грани / The Edge (1997) BDRip от HQ-ViDEO | Лицензия .torrent   [Информация о файле (нажмите для просмотра)] Перевод: Русский профессиональный многоголосый перевод (Двадцатый Век Фокс СНГ) + Оригинальная английская дорожка + Русский профессиональный многоголосый перевод (Позитив-Мультимедиа / AC3, 384 Kbps, 5.1 ch / Отдельно) + Русский авторский одноголосый перевод (А.Гаврилов / AC3, 384 Kbps, 5.1 ch / Отдельно) + Русский авторский одноголосый перевод (Ю.Живов / AC3, 384 Kbps, 5.1 ch / Отдельно)Субтитры: Русские, Украинские, Английские.Качество: BDRip (Исходник: BD-Remux)Формат: AVI; XviD, MPEG-4 codecВидео: 720 x 304; 23.976 fps; 1887 kbps; 0.36 bit/pixelЗвук #1: Russian AC3 Dolby Digital; 384 Kbps; 5.1 ch; 48 KHzЗвук #2: English AC3 Dolby Digital; 384 Kbps; 5.1 ch; 48 KHz 3,13 Gb 5 2 13 сентября 2016 08:49 На грани / The Edge (1997) BDRip от HQCLUB .torrent   [Информация о файле (нажмите для просмотра)] Перевод: Профессиональный (многоголосый, закадровый) Лицензия 20th Century Fox + Оригинальная звуковая дорожка + Профессиональный (многоголосый, закадровый) FDV / Супербит / Престиж / Позитив-Мультимедиа(отдельно) + Авторский одноголосый А.Гаврилова (отдельно)Субтитры: Русские, украинские, английские (внешние srt*)Формат: AVIКачество: BDRip (источник: -DaRkY- /Blu-ray Remux / 1080p)Видео: 720x304 (2.37:1), 23.976 fps, XviD build 50 ~1817 kbps avg, 0.35 bit/pixelАудио #1: 48 kHz, AC3 Dolby Digital, 3/2 (L,C,R,l,r) + LFE ch, ~384.00 kbps avgАудио #2: 48 kHz, AC3 Dolby Digital, 3/2 (L,C,R,l,r) + LFE ch, ~448.00 kbps avgАудио #3: 48 kHz, AC3 Dolby Digital, 3/2 (L,C,R,l,r) + LFE ch, ~384.00 kbps avg(отдельно)Аудио #4: 48 kHz, AC3 Dolby Digital, 3/2 (L,C,R,l,r) + LFE ch, ~448.00 kbps avg(отдельно) 2,86 Gb 4 3

gig-torrent.net

Скачать фильм На грани через торрент в хорошем качестве бесплатно 720p)

ОбщееУникальный идентификатор : 226229565731614874413440289084521225121 (0xAA323AC02C3AA15AA455DFE1E9F29BA1)Формат : MatroskaВерсия формата : Version 2Размер файла : 6,22 ГбайтПродолжительность : 1 ч. 42 м.Общий поток : 8699 Кбит/секНазвание фильма : Na.grani.2012.D.BDRip.720p.[uniongang.tv] by sstonecoldДата кодирования : UTC 2012-05-11 14:07:05Программа кодирования : mkvmerge v5.2.0 ('I can't explain') built on Dec 18 2011 18:12:03Библиотека кодирования : libebml v1.2.3 + libmatroska v1.3.0

ВидеоИдентификатор : 1Формат : AVCФормат/Информация : Advanced Video CodecПрофиль формата : [email protected]Параметр CABAC формата : ДаПараметр ReFrames формата : 12 кадровИдентификатор кодека : V_MPEG4/ISO/AVCПродолжительность : 1 ч. 42 м.Битрейт : 6800 Кбит/секШирина : 1280 пикс.Высота : 534 пикс.Соотношение сторон : 2,40:1Частота кадров : 23,976 кадр/секЦветовое пространство : YUVПодвыборка цветности : 4:2:0Битовая глубина : 8 битТип развёртки : ПрогрессивнаяБит/(Пиксели*Кадры) : 0.415Размер потока : 4,74 Гбайт (76%)Заголовок : Na.grani.2012.D.BDRip.720p.[uniongang.tv] by sstonecoldБиблиотека кодирования : x264 core 124 r2197 69a0443Настройки программы : cabac=1 / ref=12 / deblock=1:-3:-3 / analyse=0x3:0x113 / me=umh / subme=10 / psy=1 / psy_rd=1.10:0.00 / mixed_ref=1 / me_range=32 / chroma_me=1 / trellis=2 / 8x8dct=1 / cqm=0 / deadzone=21,11 / fast_pskip=0 / chroma_qp_offset=-2 / threads=18 / sliced_threads=0 / nr=0 / decimate=0 / interlaced=0 / bluray_compat=0 / constrained_intra=0 / bframes=8 / b_pyramid=2 / b_adapt=2 / b_bias=0 / direct=3 / weightb=1 / open_gop=0 / weightp=2 / keyint=240 / keyint_min=24 / scenecut=40 / intra_refresh=0 / rc_lookahead=240 / rc=2pass / mbtree=1 / bitrate=6800 / ratetol=1.0 / qcomp=0.70 / qpmin=0 / qpmax=69 / qpstep=4 / cplxblur=20.0 / qblur=0.5 / ip_ratio=1.40 / aq=1:1.00Язык : English

Аудио #1Идентификатор : 2Формат : AC-3Формат/Информация : Audio Coding 3Расширение режима : CM (complete main)Идентификатор кодека : A_AC3Продолжительность : 1 ч. 42 м.Вид битрейта : ПостоянныйБитрейт : 384 Кбит/секКаналы : 6 каналовРасположение каналов : Front: L C R, Side: L R, LFEЧастота : 48,0 КГцБитовая глубина : 16 битМетод сжатия : С потерямиЗадержка видео : 4 мс.Размер потока : 281 Мбайт (4%)Язык : Russian

Аудио #2Идентификатор : 3Формат : DTSФормат/Информация : Digital Theater SystemsИдентификатор кодека : A_DTSПродолжительность : 1 ч. 42 м.Вид битрейта : ПостоянныйБитрейт : 1510 Кбит/секКаналы : 6 каналовРасположение каналов : Front: L C R, Side: L R, LFEЧастота : 48,0 КГцБитовая глубина : 24 битМетод сжатия : С потерямиРазмер потока : 1,08 Гбайт (17%)Язык : English

ТекстИдентификатор : 4Формат : PGSРежим смешивания : zlibИдентификатор кодека : S_HDMV/PGSИдентификатор кодека/Информация : The same subtitle format used on BDs/HD-DVDsЯзык : English

Меню00:00:00.000 : en:00:00:00.00000:04:04.744 : en:00:04:04.74400:08:02.315 : en:00:08:02.31500:13:43.364 : en:00:13:43.36400:17:10.029 : en:00:17:10.02900:25:02.876 : en:00:25:02.87600:30:20.902 : en:00:30:20.90200:37:03.430 : en:00:37:03.43000:44:58.529 : en:00:44:58.52900:50:51.674 : en:00:50:51.67400:55:50.013 : en:00:55:50.01301:00:18.740 : en:01:00:18.74001:06:13.511 : en:01:06:13.51101:11:18.816 : en:01:11:18.81601:15:50.963 : en:01:15:50.96301:20:46.884 : en:01:20:46.88401:25:06.977 : en:01:25:06.97701:32:40.305 : en:01:32:40.305

piratbit.ru


Смотрите также