Скачать фильм не дыши скачать торрент в хорошем качестве


Скачать фильм Не дыши через торрент в хорошем качестве бесплатно HDRip

Раздают: 1 [ 0 KB/s ]
Размер: 1.46 GB | Добавлен: 11 мес. назад | Торрент скачан:356 раз
Реклама Дарим 3000 рублей за регистрацию, не упусти свой шанс получить шикарный бонус!!!

17-11-2016 18:15 Не дыши Скачать торрент  

Не дыши / Don't Breathe

Год выпуска: 2016Страна: США / Screen Gems, Stage 6 Films, Ghost House PicturesЖанр: ужасы, триллер, криминалПродолжительность: 01:28:32Перевод: Дубляж (iTunes)

Режиссер: Федерико Альварес

В ролях: Стивен Лэнг, Джейн Леви, Дилан Миннетт, Дэниэл Дзоватто, Эмма Берковичи, Франциска Тёрёчик, Кристиан Сахиа, Катя Бокор, Сергей Онопко, Оливия Гиллис

Описание: Грабители забираются в дом одинокого слепого старика с целью украсть огромную сумму, которая, по слухам, спрятана где-то внутри. Казалось бы – что может быть проще, чем вынести деньги из дома практически беспомощного человека. Но они жестоко ошибаются: преследуемый становится преследователем. И тайна, которую он хранит, гораздо страшнее, чем обычные пенсионные накопления.

Качество: HDRipФормат: AVIВидео кодек: XviDАудио кодек: AC3Видео: 720x304 (2.37:1), 23.976 fps, XviD build 50 ~1964 kbps avg, 0.37 bit/pixelАудио: 48 kHz, AC3 Dolby Digital, 3/2 (L,C,R,l,r) + LFE ch, ~384 kbps

ОбщееПолное имя : F:\ФИЛЬМЫ\Не дыши.2016.D.HDRip.aviФормат : AVIФормат/Информация : Audio Video InterleaveРазмер файла : 1,46 ГбайтПродолжительность : 1 ч. 28 м.Общий поток : 2358 Кбит/секПрограмма кодирования : VirtualDubMod 1.5.10.3 | www.virtualdub-fr.org || (build 2550/release)Библиотека кодирования : VirtualDubMod build 2550/release

ВидеоИдентификатор : 0Формат : MPEG-4 VisualПрофиль формата : Advanced [email protected]Параметр BVOP формата : 1Параметр QPel формата : НетПараметр GMC формата : Без точки переходаПараметр матрицы формата : Default (MPEG)Идентификатор кодека : XVIDИдентификатор кодека/Подсказка : XviDПродолжительность : 1 ч. 28 м.Битрейт : 1965 Кбит/секШирина : 720 пикселейВысота : 304 пикселяСоотношение сторон : 2,35:1Частота кадров : 23,976 (24000/1001) кадра/секЧастота кадров в оригинале : 23,976 (23976/1000) кадра/секЦветовое пространство : YUVСубдискретизация насыщенности : 4:2:0Битовая глубина : 8 битТип развёртки : ПрогрессивнаяМетод сжатия : С потерямиБит/(Пиксели*Кадры) : 0.374Размер потока : 1,21 Гбайт (83%)Библиотека кодирования : XviD 1.2.1 (UTC 2008-12-04)

АудиоИдентификатор : 1Формат : AC-3Формат/Информация : Audio Coding 3Расширение режима : CM (complete main)Параметр Endianness формата : BigИдентификатор кодека : 2000Продолжительность : 1 ч. 28 м.Вид битрейта : ПостоянныйБитрейт : 384 Кбит/секКаналы : 6 каналовРасположение каналов : Front: L C R, Side: L R, LFEЧастота : 48,0 КГцЧастота кадров : 31,250 кадров/сек (1536 spf)Битовая глубина : 16 битМетод сжатия : С потерямиРазмер потока : 243 Мбайт (16%)Выравнивание : Разделение по промежуткамПродолжительность промежутка : 42 мс. (1,00 видеокадр)Время предзагрузки промежутка : 500 мс.

Скачать Не дыши через торрент http://pic.pb.wtf/images/11/fna3f.jpg Скачать фильм Не дыши через торрент бесплантно в хорошем качестве Описание: Грабители забираются в дом одинокого слепого старика с целью украсть огромную сумму, которая, по слухам, спрятана где-то внутри. ... 2016-11-17 18:15 9.5 10 10

Loading...

Loading...

Рекламный пират

Дорогой пользователь! Огромная просьба, поблагодарите релизера, оцените раздачу и оставьте свои комментарий, если Вы скачали Не дыши через торрент бесплатно! Внесите свою лепту в развитие PiratBit!

Комментировать посты могут только пользователи прошедшие не сложную регистрацию

Не дыши через торрент Скачать бесплатно Не дыши Не дыши скачать торрент Не дыши смотреть онлайн Cкачать фильм Не дыши бесплатно Не дыши скачать торрент в хорошем качестве Не дыши смотреть онлайн бесплатно в хорошем качестве

Вы не можете начинать темыВы не можете отвечать на сообщенияВы не можете редактировать свои сообщенияВы не можете удалять свои сообщенияВы не можете голосовать в опросахВы не можете прикреплять файлы к сообщениямВы можете скачивать файлы

piratbit.ru

Скачать фильм Не дыши через торрент в хорошем качестве бесплатно 1080p

General Unique ID : 229048779716241462996157090815374214110 (0xAC5130BB4EBC1D20A7F87060DEAB43DE) Complete name : G:VideoDont.Breathe.2016.BDRip.1080p.ExKinoRay.mkv Format : Matroska Format version : Version 4 / Version 2 File size : 9.57 GiB Duration : 1 h 28 min Overall bit rate : 15.5 Mb/s Movie name : Don't.Breathe.2016.***селезень*** Encoded date : UTC 2016-11-16 09:07:18 Writing application : mkvmerge v8.3.0 ('Over the Horizon') 64bit Writing library : libebml v1.3.1 + libmatroska v1.4.2

Video ID : 1 Format : AVC Format/Info : Advanced Video Codec Format profile : [email protected] Format settings, CABAC : Yes Format settings, ReFrames : 5 frames Codec ID : V_MPEG4/ISO/AVC Duration : 1 h 28 min Bit rate : 13.6 Mb/s Width : 1 920 pixels Height : 800 pixels Display aspect ratio : 2.40:1 Frame rate mode : Constant Frame rate : 23.976 (24000/1001) FPS Color space : YUV Chroma subsampling : 4:2:0 Bit depth : 8 bits Scan type : Progressive Bits/(Pixel*Frame) : 0.369 Stream size : 8.40 GiB (88%) Title : Don't.Breathe.2016.***селезень*** Writing library : x264 core 146 r2538 121396c Encoding settings : cabac=1 / ref=5 / deblock=1:-3:-3 / analyse=0x3:0x133 / me=tesa / subme=11 / psy=1 / psy_rd=1.04:0.00 / mixed_ref=1 / me_range=32 / chroma_me=1 / trellis=2 / 8x8dct=1 / cqm=0 / deadzone=21,11 / fast_pskip=0 / chroma_qp_offset=-2 / threads=60 / lookahead_threads=6 / sliced_threads=0 / nr=0 / decimate=0 / interlaced=0 / bluray_compat=0 / constrained_intra=0 / bframes=9 / b_pyramid=2 / b_adapt=2 / b_bias=0 / direct=3 / weightb=1 / open_gop=0 / weightp=2 / keyint=240 / keyint_min=23 / scenecut=40 / intra_refresh=0 / rc_lookahead=150 / rc=crf / mbtree=0 / crf=16.3 / qcomp=0.60 / qpmin=0 / qpmax=69 / qpstep=4 / vbv_maxrate=62500 / vbv_bufsize=78125 / crf_max=0.0 / nal_hrd=none / filler=0 / ip_ratio=1.40 / pb_ratio=1.30 / aq=1:0.80 / zones=120965,127367,b=0.2 Language : English Default : Yes Forced : No Color range : Limited Matrix coefficients : BT.709

Audio #1 ID : 2 Format : AC-3 Format/Info : Audio Coding 3 Mode extension : CM (complete main) Format settings, Endianness : Big Codec ID : A_AC3 Duration : 1 h 28 min Bit rate mode : Constant Bit rate : 384 kb/s Channel(s) : 6 channels Channel positions : Front: L C R, Side: L R, LFE Sampling rate : 48.0 kHz Frame rate : 31.250 FPS (1536 spf) Bit depth : 16 bits Compression mode : Lossy Stream size : 243 MiB (2%) Title : iTunes Language : Russian Default : Yes Forced : No

Audio #2 ID : 3 Format : DTS Format/Info : Digital Theater Systems Mode : 16 Format settings, Endianness : Big Codec ID : A_DTS Duration : 1 h 28 min Bit rate mode : Constant Bit rate : 1 509 kb/s Channel(s) : 6 channels Channel positions : Front: L C R, Side: L R, LFE Sampling rate : 48.0 kHz Frame rate : 93.750 FPS (512 spf) Bit depth : 24 bits Compression mode : Lossy Stream size : 956 MiB (10%) Title : Original Language : English Default : No Forced : No

Text #1 ID : 4 Format : UTF-8 Codec ID : S_TEXT/UTF8 Codec ID/Info : UTF-8 Plain Text Duration : 31 min 25 s Bit rate : 1 b/s Count of elements : 8 Stream size : 283 Bytes (0%) Title : Forced [iTunes] Language : Russian Default : Yes Forced : No

Text #2 ID : 5 Format : UTF-8 Codec ID : S_TEXT/UTF8 Codec ID/Info : UTF-8 Plain Text Duration : 1 h 22 min Bit rate : 36 b/s Count of elements : 519 Stream size : 22.1 KiB (0%) Title : Full [iTunes] Language : Russian Default : No Forced : No

Text #3 ID : 6 Format : UTF-8 Codec ID : S_TEXT/UTF8 Codec ID/Info : UTF-8 Plain Text Duration : 1 h 20 min Bit rate : 24 b/s Count of elements : 601 Stream size : 14.6 KiB (0%) Title : Full Language : English Default : No Forced : No

Text #4 ID : 7 Format : UTF-8 Codec ID : S_TEXT/UTF8 Codec ID/Info : UTF-8 Plain Text Duration : 1 h 25 min Bit rate : 34 b/s Count of elements : 1076 Stream size : 21.9 KiB (0%) Title : SDH Language : English Default : No Forced : No

Menu 00:00:00.000 : en:00:00:00.000 00:07:50.917 : en:00:07:50.917 00:15:23.208 : en:00:15:23.208 00:24:40.625 : en:00:24:40.625 00:38:49.833 : en:00:38:49.833 00:43:41.792 : en:00:43:41.792 00:58:08.958 : en:00:58:08.958 01:07:19.333 : en:01:07:19.333 01:13:50.417 : en:01:13:50.417 01:17:30.167 : en:01:17:30.167 01:35:39.292 : en:01:35:39.292 01:41:33.542 : en:01:41:33.542

piratbit.ru

Скачать фильм Не дыши через торрент в хорошем качестве бесплатно WEBRip] / Любительский (многоголосый

Раздают: 1 [ 0 KB/s ]
Размер: 695 MB | Добавлен: 11 мес. назад | Торрент скачан:326 раз
Реклама Дарим 3000 рублей за регистрацию, не упусти свой шанс получить шикарный бонус!!!

01-11-2016 05:03 Не дыши Скачать торрент  

Не дыши / Don't Breathe

Год выхода: 2016Страна: США / Ghost House PicturestЖанр: ужасы, триллер, криминал Длительность: 01:29:08 час.Перевод: Любительский (многоголосый, закадровый) [Paradox & Omskbird records] Cубтитры: Отсутствуют

Режиссер: Федерико Альварес

В ролях: Стивен Лэнг, Джейн Леви, Дилан Миннетт, Дэниэл Дзоватто, Эмма Берковичи, Франциска Тёрёчик, Кристиан Сахиа, Катя Бокор, Сергей Онопко, Оливия Гиллис

Описание: -...Грабители забираются в дом одинокого слепого старика с целью украсть огромную сумму, которая, по слухам, спрятана где-то внутри. Казалось бы — что может быть проще, чем вынести деньги из дома практически беспомощного человека. Но они жестоко ошибаются: преследуемый становится преследователем. И тайна, которую он хранит, гораздо страшнее, чем обычные пенсионные накопления...-

Присутствует маленькая рекламма в начале и конце фильма.

Тех.данные

Качество: WEBRip Формат: AVIВидеокодек: XviDАудиокодек: AC3Видео: 720x400 (1.80:1), 23.976 fps, XviD build 64 ~894 kbps avg, 0.13 bit/pixelАудио: 48 kHz, AC3 Dolby Digital, 2/0 (L,R) ch, ~192 kbps

Скачать Не дыши через торрент http://pic1.pb.wtf/images/11/w2rba.jpg Скачать фильм Не дыши через торрент бесплантно в хорошем качестве Описание: -...Грабители забираются в дом одинокого слепого старика с целью украсть огромную сумму, которая, по слухам, спрятана где-то ... 2016-11-01 05:03 10 10 11

Loading...

Loading...

Рекламный пират

01-11-2016 06:12 Не дыши Скачать торрент  

01-11-2016 07:11 Не дыши Скачать торрент  

piston08 писал(а):

как кино?

Смотрел в кинотеатре, мне как обычному зрителю понравился, норм сюжет

01-11-2016 08:56 Не дыши Скачать торрент  

Отличный атмосферный триллер. Советую посмотреть.

01-11-2016 09:20 Не дыши Скачать торрент  

piston08 писал(а):

как кино?

отличный фильм

01-11-2016 09:50 Не дыши Скачать торрент  

только к ужасам никакого отношения,скорее триллер

01-11-2016 22:06 Не дыши Скачать торрент  

согласен наверное уровень напряженности который фильм поддерживает решили назвать ужасом, мне понравился

01-11-2016 22:20 Не дыши Скачать торрент  

так то норм,нодед ходит по улице и по дому без палки и всего.он что летучая мышь?бред

02-11-2016 08:49 Не дыши Скачать торрент  

Фильм огонь!

Pекламный агент PB

Дорогой пользователь! Огромная просьба, поблагодарите релизера, оцените раздачу и оставьте свои комментарий, если Вы скачали Не дыши через торрент бесплатно! Внесите свою лепту в развитие PiratBit!

Комментировать посты могут только пользователи прошедшие не сложную регистрацию

Не дыши через торрент Скачать бесплатно Не дыши Не дыши скачать торрент Не дыши смотреть онлайн Cкачать фильм Не дыши бесплатно Не дыши скачать торрент в хорошем качестве Не дыши смотреть онлайн бесплатно в хорошем качестве

Вы можете начинать темыВы можете отвечать на сообщенияВы не можете редактировать свои сообщенияВы не можете удалять свои сообщенияВы не можете голосовать в опросахВы не можете прикреплять файлы к сообщениямВы можете скачивать файлы

piratbit.ru

Скачать фильм Не дыши через торрент в хорошем качестве бесплатно TS

Раздают: 1 [ 0 KB/s ]
Размер: 1.37 GB | Добавлен: 1 год 1 мес. назад | Торрент скачан:773 раза
Реклама Дарим 3000 рублей за регистрацию, не упусти свой шанс получить шикарный бонус!!!

05-09-2016 12:03 Не дыши Скачать торрент  

Не дыши / Don't Breathe Год выпуска: 2016Страна: СШАЖанр: ужасы, триллер

Продолжительность: 01:22:50Перевод: Дубляж - [Звук с TS]

Режиссер: Федерико АльваресВ ролях: Стивен Лэнг (The Blind Man), Джейн Леви (Rocky), Дилан Миннетт (Alex), Дэниэл Дзоватто (Money), Эмма Берковичи (Diddy), Франциска Тёрёчик (Cindy), Кристиан Сахиа (Raul), Катя Бокор (Ginger), Сергей Онопко (Trevor), Оливия Гиллис (Blind Man's Daughter (Young Emma)), Дэйна Кларк (TV Anchor), Атос (Dog)Описание: Грабители забираются в дом одинокого слепого старика с целью украсть огромную сумму, которая, по слухам, спрятана где-то внутри. Казалось бы - что может быть проще, чем вынести деньги из дома практически беспомощного человека. Но они жестоко ошибаются: преследуемый становится преследователем. И тайна, которую он хранит, гораздо страшнее, чем обычные пенсионные накопления.Рейтинг: MPAA: R - Лицам до 17 лет обязательно присутствие взрослогоКачество: TSФормат: AVIВидео: XviD, 720x304 (2.35:1), 1966 kbps, 30 fps, 0,300 bppАудио: AC3 / 2.0 / 48 kHz / 384 kbps / Приссутствует Реклама!!! GeneralComplete name : C:\Users\ghdf\Desktop\Ne.DiShi.2016.D.TS.14OOMB.aviFormat : AVIFormat/Info : Audio Video InterleaveFile size : 1.37 GiBDuration : 1 h 22 minOverall bit rate : 2 362 kb/sWriting application : VirtualDubMod 1.5.10.2 (build 2540/release)Writing library : VirtualDubMod build 2540/release

VideoID : 0Format : MPEG-4 VisualFormat profile : Advanced [email protected] settings, BVOP : 2Format settings, QPel : NoFormat settings, GMC : No warppointsFormat settings, Matrix : CustomCodec ID : XVIDCodec ID/Hint : XviDDuration : 1 h 22 minBit rate : 1 967 kb/sWidth : 720 pixelsHeight : 304 pixelsDisplay aspect ratio : 2.35:1Frame rate : 30.000 FPSColor space : YUVChroma subsampling : 4:2:0Bit depth : 8 bitsScan type : ProgressiveCompression mode : LossyBits/(Pixel*Frame) : 0.300Stream size : 1.14 GiB (83%)Writing library : XviD 1.2.1 (UTC 2008-12-04)

AudioID : 1Format : AC-3Format/Info : Audio Coding 3Mode extension : CM (complete main)Format settings, Endianness : BigCodec ID : 2000Duration : 1 h 22 minBit rate mode : ConstantBit rate : 384 kb/sChannel(s) : 2 channelsChannel positions : Front: L RSampling rate : 48.0 kHzFrame rate : 31.250 FPS (1536 spf)Compression mode : LossyStream size : 228 MiB (16%)Alignment : Split accross interleavesInterleave, duration : 33 ms (1.00 video frame)Interleave, preload duration : 500 ms

Скачать Не дыши через торрент http://i83.fastpic.ru/big/2016/0905/53/843d64cf619ec9de1fa3ab5c018b4f53.jpg Скачать фильм Не дыши через торрент бесплантно в хорошем качестве Описание: Грабители забираются в дом одинокого слепого старика с целью украсть огромную сумму, которая, по слухам, спрятана где-то внутри. ... 2016-09-05 12:03 8.9 10 10

Loading...

Loading...

Рекламный пират

05-09-2016 14:08 Не дыши Скачать торрент  

оценки рейтинга высокие-забираем-спасибо

05-09-2016 15:34 Не дыши Скачать торрент  

SASHA66 писал(а):

оценки рейтинга высокие-забираем-спасибо

Не,я подожду

05-09-2016 15:51 Не дыши Скачать торрент  

смотрел в кинотеатре,фильм обалденый,смотрится от начала до конца в напряжении,очень мало болтовни,в основном действие!

05-09-2016 17:08 Не дыши Скачать торрент  

Посмотрел пол фильма с данной раздачей для меня слишком темно.Жду 720.Ну я хоть узнал что они увидели в подвале :)

06-09-2016 14:00 Не дыши Скачать торрент  

Откровенная фигня. Мне с самого трейлера было ясно, что там прячут в подвале. О хоть каком-нибудь реализме и логике можно и не говорить.

06-09-2016 14:58 Не дыши Скачать торрент  

чет не зацепило

08-09-2016 07:25 Не дыши Скачать торрент  

kazin666 писал(а):

Посмотрел пол фильма с данной раздачей для меня слишком темно.Жду 720.Ну я хоть узнал что они увидели в подвале :)

А я знаю,чем там занимались

17-09-2016 21:52 Не дыши Скачать торрент  

подожду лиц а так спасибо)

Pекламный агент PB

14-10-2016 11:23 Не дыши Скачать торрент  

Когда уже в качестве будет?

14-10-2016 12:59 Не дыши Скачать торрент  

Фильм не плохой, но не шедевр. Разок посмотреть и хватит!

Дорогой пользователь! Огромная просьба, поблагодарите релизера, оцените раздачу и оставьте свои комментарий, если Вы скачали Не дыши через торрент бесплатно! Внесите свою лепту в развитие PiratBit!

Комментировать посты могут только пользователи прошедшие не сложную регистрацию

Не дыши через торрент Скачать бесплатно Не дыши Не дыши скачать торрент Не дыши смотреть онлайн Cкачать фильм Не дыши бесплатно Не дыши скачать торрент в хорошем качестве Не дыши смотреть онлайн бесплатно в хорошем качестве

Вы можете начинать темыВы можете отвечать на сообщенияВы не можете редактировать свои сообщенияВы не можете удалять свои сообщенияВы не можете голосовать в опросахВы не можете прикреплять файлы к сообщениямВы можете скачивать файлы

piratbit.ru


Смотрите также