Скачать фильм ночной сторож через торрент в хорошем качестве


Скачать фильм Ночной сторож (1994) через торрент

28 сентября 2016 11:27 Ночной сторож / Nattevagten (1994) BDRemux 1080p | P .torrent   [Информация о файле (нажмите для просмотра)] Перевод: ПереводПеревод: Профессиональный (двухголосый закадровый)Субтитры: АнглийскиеКодек: MPEG-4Качество: BDRemux 1080pВидео: 1920x1080 / 28000 kbps / 1080p / 23.976 fps / 16:9 / High Profile 4.1Аудио 1: Русский, AC3 2.0 192 Kbps 48,0 КГц(DVO)Аудио 3: Dansk / DTS-HD Master Audio / 5.1 / 48 kHz / 3690 kbps / 24-bit (DTS Core: 5.1 / 48 kHz / 1509 kbps / 24-bit)(Original)Аудио 4: Dansk / FLAC / 2.0 / 48 kHz / ~1361 kbps (Original)Аудио 5: English / DTS / 2.0 / 48 kHz / ~320 kbps (Commеntary)Видео: Идентификатор : 1 Формат : AVC Формат/Информация : Advanced Video Codec Профиль формата : [email protected] Параметр CABAC формата : Да Параметр ReFrames формата : 4 кадра Идентификатор кодека : V_MPEG4/ISO/AVC Продолжительность : 1 ч. 47 м. Вид битрейта : Постоянный Номинальный битрейт : 28,0 Мбит/сек Ширина : 1920 пикселей Высота : 1080 пикселей Соотношение сторон : 16:9 Режим частоты кадров : Постоянный Частота кадров : 23,976 кадра/сек Цветовое пространство : YUV Субдискретизация насыщенности : 4:2:0 Битовая глубина : 8 бит Тип развёртки : Прогрессивная Бит/(Пиксели*Кадры) : 0.563 Заголовок : Nattevagten 1994 1080p GER Blu-ray AVC DTS-HD MA 5.1 Default : Нет Forced : НетАудио #1: Идентификатор : 2 Формат : AC-3 Формат/Информация : Audio Coding 3 Расширение режима : CM (complete main) Параметр Endianness формата : Big Идентификатор кодека : A_AC3 Продолжительность : 1 ч. 47 м. Вид битрейта : Постоянный Битрейт : 192 Кбит/сек Каналы : 2 канала Расположение каналов : Front: L R Частота : 48,0 КГц Метод сжатия : С потерями Размер потока : 147 Мбайт (1%) Заголовок : DVO AC3 2.0 192 kbps Язык : Russian Default : Нет Forced : НетАудио #2: Идентификатор : 3 Формат : DTS Формат/Информация : Digital Theater Systems Профиль формата : MA / Core Режим : 16 Параметр Endianness формата : Big Идентификатор кодека : A_DTS Продолжительность : 1 ч. 47 м. Вид битрейта : Переменный Битрейт : Неизвестно / 1509 Кбит/сек Каналы : 6 каналов Расположение каналов : Front: L C R, Side: L R, LFE Частота : 48,0 КГц Битовая глубина : 24 бит Метод сжатия : Без потерь / Lossy Заголовок : Original DTS-HD MA 5.1 3690 kbps Язык : Danish Default : Нет Forced : НетАудио #3: Идентификатор : 4 Формат : FLAC Формат/Информация : Free Lossless Audio Codec Идентификатор кодека : A_FLAC Продолжительность : 1 ч. 47 м. Вид битрейта : Переменный Каналы : 2 канала Частота : 48,0 КГц Битовая глубина : 24 бит Заголовок : Original FLAC 2.0 ~1361 kbps Библиотека кодирования : libFLAC 1.2.1 (UTC 2007-09-17) Язык : Danish Default : Нет Forced : НетАудио #4: Идентификатор : 5 Формат : DTS Формат/Информация : Digital Theater Systems Режим : 16 Параметр Endianness формата : Big Идентификатор кодека : A_DTS Продолжительность : 1 ч. 47 м. Вид битрейта : Постоянный Битрейт : 318 Кбит/сек Каналы : 2 канала Расположение каналов : Front: L R Частота : 48,0 КГц Битовая глубина : 24 бит Метод сжатия : С потерями Размер потока : 244 Мбайт (1%) Заголовок : Commentary DTS 2.0 320 kbps 24,52 Gb 6 1 28 сентября 2016 11:27 Ночной сторож / Nattevagten (1994) HDRip от Scarabey | Р2 .torrent   [Информация о файле (нажмите для просмотра)] Перевод: Профессиональный (двухголосый, закадровый)Видео: 624x336 (1.86:1), 23.976 fps, XviD build 73 ~832 kbps avg, 0.17 bit/pixelАудио: 48 kHz, MPEG Layer 3, 2 ch, ~128.00 kbps avg 744,68 Mb 4 2 28 сентября 2016 11:27 Ночной сторож / Nattevagten (1994) HDRip от Scarabey | Р2 .torrent   [Информация о файле (нажмите для просмотра)] Перевод: Профессиональный (двухголосый, закадровый)Видео: 720x384 (1.88:1), 23.976 fps, XviD build 73 ~1727 kbps avg, 0.26 bit/pixelАудио: 48 kHz, AC3 Dolby Digital, 2/0 (L,R) ch, ~192.00 kbps avg 1,45 Gb 11 2 28 сентября 2016 11:27 Ночной сторож / Nattevagten (1994) BDRip 720p от MediaClub | P2 .torrent   [Информация о файле (нажмите для просмотра)] Перевод: Профессиональный двухголосыйКачество: BDRip 720pВидео: MPEG-4 AVC, 10000 Кбит/с, 1280x690, 23.976 кадр/сАудио #1: Русский (AC3, 2 ch, 192 Кбит/с) / Профессиональный двухголосыйАудио #2: Датский (DTS, 6 ch, 1510 Кбит/с) 8,77 Gb 6 3 28 сентября 2016 11:27 Ночной сторож / Nattevagten (1994) BDRip от MediaClub | P2 .torrent   [Информация о файле (нажмите для просмотра)] Перевод: Профессиональный двухголосыйКачество: BDRipВидео: XviD, 1537 Кбит/с, 720x384Аудио #1: Русский (AC3, 2 ch, 192 Кбит/с) / Профессиональный двухголосыйАудио #2: Датский (AC3, 2 ch, 192 Кбит/с) 1,45 Gb 4 1 28 сентября 2016 11:27 Ночной сторож / Nattevagten (1994) DVDRip .torrent   [Информация о файле (нажмите для просмотра)] Перевод: Профессиональный (двухголосый) + Оригинал (датский)Субтитры: Английские (внешние, *.srt) на Multi-Up.ComКачество: DVDRipФормат: AVIВидео: 720x416 (1.73:1), 25 fps, XviD build 50 ~1628 kbps avg, 0.22 bit/pixel 1,46 Gb 3 1

gig-torrent.net

Скачать фильм Ночной сторож через торрент в хорошем качестве бесплатно BDRip AVC by msltel

ОбщееУникальный идентификатор : 187985270160374492167332201539356426370 (0x8D6CA56630DCF7AA9BC44F77FEE98082)Полное имя : D:\Video\Ночной сторож.1994.BDRip.AVC.mkvФормат : MatroskaВерсия формата : Version 4 / Version 2Размер файла : 2,23 ГбайтПродолжительность : 1 ч. 47 м.Общий поток : 2979 Кбит/секДата кодирования : UTC 2016-01-30 07:53:11Программа кодирования : mkvmerge v8.2.0 ('World of Adventure') 64bitБиблиотека кодирования : libebml v1.3.1 + libmatroska v1.4.2

ВидеоИдентификатор : 1Формат : AVCФормат/Информация : Advanced Video CodecПрофиль формата : [email protected]Параметр CABAC формата : ДаПараметр ReFrames формата : 9 кадровИдентификатор кодека : V_MPEG4/ISO/AVCПродолжительность : 1 ч. 47 м.Битрейт : 2593 Кбит/секШирина : 1024 пикселяВысота : 552 пикселяСоотношение сторон : 1,85:1Режим частоты кадров : ПостоянныйЧастота кадров : 23,976 (24000/1001) кадра/секЦветовое пространство : YUVСубдискретизация насыщенности : 4:2:0Битовая глубина : 8 битТип развёртки : ПрогрессивнаяБит/(Пиксели*Кадры) : 0.191Размер потока : 1,94 Гбайт (87%)Библиотека кодирования : x264 core 146 r2538 121396cНастройки программы : cabac=1 / ref=9 / deblock=1:-3:-3 / analyse=0x3:0x113 / me=umh / subme=10 / psy=1 / psy_rd=1.00:0.15 / mixed_ref=1 / me_range=32 / chroma_me=1 / trellis=2 / 8x8dct=1 / cqm=0 / deadzone=21,11 / fast_pskip=1 / chroma_qp_offset=-3 / threads=6 / lookahead_threads=1 / sliced_threads=0 / nr=0 / decimate=1 / interlaced=0 / bluray_compat=0 / constrained_intra=0 / bframes=9 / b_pyramid=2 / b_adapt=2 / b_bias=0 / direct=1 / weightb=1 / open_gop=0 / weightp=2 / keyint=230 / keyint_min=23 / scenecut=40 / intra_refresh=0 / rc_lookahead=40 / rc=crf / mbtree=0 / crf=20.6 / qcomp=0.60 / qpmin=0 / qpmax=69 / qpstep=4 / vbv_maxrate=40000 / vbv_bufsize=50000 / crf_max=0.0 / nal_hrd=none / filler=0 / ip_ratio=1.40 / pb_ratio=1.30 / aq=1:1.00Язык : DanishDefault : ДаForced : Нет

Аудио #1Идентификатор : 2Формат : AC-3Формат/Информация : Audio Coding 3Расширение режима : CM (complete main)Параметр Endianness формата : BigИдентификатор кодека : A_AC3Продолжительность : 1 ч. 47 м.Вид битрейта : ПостоянныйБитрейт : 192 Кбит/секКаналы : 2 каналаРасположение каналов : Front: L RЧастота : 48,0 КГцЧастота кадров : 31,250 кадров/сек (1536 spf)Метод сжатия : С потерямиРазмер потока : 147 Мбайт (6%)Заголовок : DVOЯзык : RussianDefault : ДаForced : Нет

Аудио #2Идентификатор : 3Формат : AC-3Формат/Информация : Audio Coding 3Расширение режима : CM (complete main)Параметр Endianness формата : BigИдентификатор кодека : A_AC3Продолжительность : 1 ч. 47 м.Вид битрейта : ПостоянныйБитрейт : 192 Кбит/секКаналы : 2 каналаРасположение каналов : Front: L RЧастота : 48,0 КГцЧастота кадров : 31,250 кадров/сек (1536 spf)Метод сжатия : С потерямиРазмер потока : 147 Мбайт (6%)Заголовок : OriginalЯзык : DanishDefault : НетForced : Нет

ТекстИдентификатор : 4Формат : UTF-8Идентификатор кодека : S_TEXT/UTF8Идентификатор кодека/Информация : UTF-8 Plain TextПродолжительность : 1 ч. 44 м.Битрейт : 31 бит/секCount of elements : 712Размер потока : 24,1 Кбайт (0%)Заголовок : английскийЯзык : EnglishDefault : НетForced : Нет

piratbit.ru

Скачать фильм Ночной сторож через торрент в хорошем качестве бесплатно 720p by msltel

ОбщееУникальный идентификатор : 203217200281533546152610177007932343376 (0x98E23589210E3A0DA3AD7D38918B0450)Полное имя : D:\Video\Ночной сторож.1994.BDRip.720p.mkvФормат : MatroskaВерсия формата : Version 4 / Version 2Размер файла : 4,64 ГбайтПродолжительность : 1 ч. 47 м.Общий поток : 6193 Кбит/секДата кодирования : UTC 2016-01-31 03:25:28Программа кодирования : mkvmerge v8.2.0 ('World of Adventure') 64bitБиблиотека кодирования : libebml v1.3.1 + libmatroska v1.4.2

ВидеоИдентификатор : 1Формат : AVCФормат/Информация : Advanced Video CodecПрофиль формата : [email protected]Параметр CABAC формата : ДаПараметр ReFrames формата : 9 кадровИдентификатор кодека : V_MPEG4/ISO/AVCПродолжительность : 1 ч. 47 м.Битрейт : 5807 Кбит/секШирина : 1280 пикселейВысота : 690 пикселейСоотношение сторон : 1,85:1Режим частоты кадров : ПостоянныйЧастота кадров : 23,976 (24000/1001) кадра/секЦветовое пространство : YUVСубдискретизация насыщенности : 4:2:0Битовая глубина : 8 битТип развёртки : ПрогрессивнаяБит/(Пиксели*Кадры) : 0.274Размер потока : 4,35 Гбайт (94%)Библиотека кодирования : x264 core 146 r2538 121396cНастройки программы : cabac=1 / ref=9 / deblock=1:-3:-3 / analyse=0x3:0x113 / me=umh / subme=10 / psy=1 / psy_rd=1.00:0.15 / mixed_ref=1 / me_range=32 / chroma_me=1 / trellis=2 / 8x8dct=1 / cqm=0 / deadzone=21,11 / fast_pskip=1 / chroma_qp_offset=-3 / threads=6 / lookahead_threads=1 / sliced_threads=0 / nr=0 / decimate=1 / interlaced=0 / bluray_compat=0 / constrained_intra=0 / bframes=9 / b_pyramid=2 / b_adapt=2 / b_bias=0 / direct=1 / weightb=1 / open_gop=0 / weightp=2 / keyint=230 / keyint_min=23 / scenecut=40 / intra_refresh=0 / rc_lookahead=40 / rc=crf / mbtree=0 / crf=20.2 / qcomp=0.60 / qpmin=0 / qpmax=69 / qpstep=4 / vbv_maxrate=40000 / vbv_bufsize=50000 / crf_max=0.0 / nal_hrd=none / filler=0 / ip_ratio=1.40 / pb_ratio=1.30 / aq=1:1.00Язык : EnglishDefault : ДаForced : Нет

Аудио #1Идентификатор : 2Формат : AC-3Формат/Информация : Audio Coding 3Расширение режима : CM (complete main)Параметр Endianness формата : BigИдентификатор кодека : A_AC3Продолжительность : 1 ч. 47 м.Вид битрейта : ПостоянныйБитрейт : 192 Кбит/секКаналы : 2 каналаРасположение каналов : Front: L RЧастота : 48,0 КГцЧастота кадров : 31,250 кадров/сек (1536 spf)Метод сжатия : С потерямиРазмер потока : 147 Мбайт (3%)Заголовок : DVOЯзык : RussianDefault : ДаForced : Нет

Аудио #2Идентификатор : 3Формат : AC-3Формат/Информация : Audio Coding 3Расширение режима : CM (complete main)Параметр Endianness формата : BigИдентификатор кодека : A_AC3Продолжительность : 1 ч. 47 м.Вид битрейта : ПостоянныйБитрейт : 192 Кбит/секКаналы : 2 каналаРасположение каналов : Front: L RЧастота : 48,0 КГцЧастота кадров : 31,250 кадров/сек (1536 spf)Метод сжатия : С потерямиРазмер потока : 147 Мбайт (3%)Заголовок : OriginalЯзык : DanishDefault : НетForced : Нет

ТекстИдентификатор : 4Формат : UTF-8Идентификатор кодека : S_TEXT/UTF8Идентификатор кодека/Информация : UTF-8 Plain TextПродолжительность : 1 ч. 44 м.Битрейт : 31 бит/секCount of elements : 712Размер потока : 24,1 Кбайт (0%)Заголовок : английскийЯзык : EnglishDefault : НетForced : Нет

piratbit.ru

Скачать фильм Ночной сторож через торрент в хорошем качестве бесплатно 1080p by msltel

ОбщееУникальный идентификатор : 171763654085858092502347002258694826572 (0x813879FA56FE73A5BDCC4FB19F5B6A4C)Полное имя : D:\Video\Ночной сторож.1994.BDRip.1080p.mkvФормат : MatroskaВерсия формата : Version 4 / Version 2Размер файла : 12,7 ГбайтПродолжительность : 1 ч. 47 м.Общий поток : 16,9 Мбит/секДата кодирования : UTC 2016-02-01 13:53:48Программа кодирования : mkvmerge v8.2.0 ('World of Adventure') 64bitБиблиотека кодирования : libebml v1.3.1 + libmatroska v1.4.2

ВидеоИдентификатор : 1Формат : AVCФормат/Информация : Advanced Video CodecПрофиль формата : [email protected]Параметр CABAC формата : ДаПараметр ReFrames формата : 4 кадраИдентификатор кодека : V_MPEG4/ISO/AVCПродолжительность : 1 ч. 47 м.Битрейт : 16,5 Мбит/секШирина : 1920 пикселейВысота : 1036 пикселейСоотношение сторон : 1,85:1Режим частоты кадров : ПостоянныйЧастота кадров : 23,976 (24000/1001) кадра/секЦветовое пространство : YUVСубдискретизация насыщенности : 4:2:0Битовая глубина : 8 битТип развёртки : ПрогрессивнаяБит/(Пиксели*Кадры) : 0.346Размер потока : 12,4 Гбайт (98%)Библиотека кодирования : x264 core 146 r2538 121396cНастройки программы : cabac=1 / ref=4 / deblock=1:-3:-3 / analyse=0x3:0x113 / me=umh / subme=10 / psy=1 / psy_rd=1.00:0.15 / mixed_ref=1 / me_range=32 / chroma_me=1 / trellis=2 / 8x8dct=1 / cqm=0 / deadzone=21,11 / fast_pskip=1 / chroma_qp_offset=-3 / threads=6 / lookahead_threads=1 / sliced_threads=0 / nr=0 / decimate=1 / interlaced=0 / bluray_compat=0 / constrained_intra=0 / bframes=9 / b_pyramid=2 / b_adapt=2 / b_bias=0 / direct=1 / weightb=1 / open_gop=0 / weightp=2 / keyint=230 / keyint_min=23 / scenecut=40 / intra_refresh=0 / rc_lookahead=40 / rc=crf / mbtree=0 / crf=20.0 / qcomp=0.60 / qpmin=0 / qpmax=69 / qpstep=4 / vbv_maxrate=40000 / vbv_bufsize=50000 / crf_max=0.0 / nal_hrd=none / filler=0 / ip_ratio=1.40 / pb_ratio=1.30 / aq=1:1.00Язык : EnglishDefault : ДаForced : Нет

Аудио #1Идентификатор : 2Формат : AC-3Формат/Информация : Audio Coding 3Расширение режима : CM (complete main)Параметр Endianness формата : BigИдентификатор кодека : A_AC3Продолжительность : 1 ч. 47 м.Вид битрейта : ПостоянныйБитрейт : 192 Кбит/секКаналы : 2 каналаРасположение каналов : Front: L RЧастота : 48,0 КГцЧастота кадров : 31,250 кадров/сек (1536 spf)Метод сжатия : С потерямиРазмер потока : 147 Мбайт (1%)Заголовок : DVOЯзык : RussianDefault : ДаForced : Нет

Аудио #2Идентификатор : 3Формат : AC-3Формат/Информация : Audio Coding 3Расширение режима : CM (complete main)Параметр Endianness формата : BigИдентификатор кодека : A_AC3Продолжительность : 1 ч. 47 м.Вид битрейта : ПостоянныйБитрейт : 192 Кбит/секКаналы : 2 каналаРасположение каналов : Front: L RЧастота : 48,0 КГцЧастота кадров : 31,250 кадров/сек (1536 spf)Метод сжатия : С потерямиРазмер потока : 147 Мбайт (1%)Заголовок : OriginalЯзык : DanishDefault : НетForced : Нет

ТекстИдентификатор : 4Формат : UTF-8Идентификатор кодека : S_TEXT/UTF8Идентификатор кодека/Информация : UTF-8 Plain TextПродолжительность : 1 ч. 44 м.Битрейт : 31 бит/секCount of elements : 712Размер потока : 24,1 Кбайт (0%)Заголовок : английскийЯзык : EnglishDefault : НетForced : Нет

piratbit.ru

Ночной сторож (2016) скачать фильм через торрент бесплатно в хорошем HD качестве

27 355

Физрук 4 сезон (2017)

390

Мой сын (2017)

29

Три сестры (2017)

295

Единственный живой парень в Нью-Йорке (2017)

9 732

Иностранец (2017)

355

Будь мужиком (2017)

1 590

Коматозники (2017)

1 380

Реальный Рокки (2017)

3 306

Геошторм (2017)

1 206

Двуличный любовник (2017)

887

Как Витька Чеснок вез Леху Штыря в дом инвалидов (2017)

13 863

Сделано в Америке (2017)

6 671

Напарник (2017)

1 229

Борг / Макинрой (2017)

1 118

Яма. Наши дни (2017)

3 799

Бегущий по лезвию 2049 (2017)

14 913

Сериал Беглец (2017)

6 292

Безбашенные (2017)

3 478

Послание от Кинга (2017)

2 349

Между нами горы (2017)

13 008

Жизнь впереди (2017)

119 791

Сериал Ольга 2 сезон 18 19 20 серия (2017)

784

Хорошее время (2017)

3 092

Любовь в городе ангелов (2017)

1 839

Уотергейт. Крушение Белого дома (2017)

7 270

Наемник (2017)

14 696

Сериал Отличница (2017)

2 745

Техасская резня бензопилой: Кожаное лицо (2017)

2 703

Убить Гюнтера (2017)

1 560

Заложники (2017)

24 697

Сериал Отчий берег (2017)

866

ЛЕГО Ниндзяго Фильм (2017)

3 438

Kingsman: Золотое кольцо (2017)

1 598

Мадам (2017)

kinonax.com

Скачать фильм Ночное дежурство (1997) через торрент

28 сентября 2016 09:10 Ночное дежурство / Nightwatch (1997) BDRip-AVC от 0ptimus | P2, A .torrent   [Информация о файле (нажмите для просмотра)] Перевод: Профессиональный двухголосый), авторскийКодек: h.264Качество: BDRip-AVCВидео: 3028 Мбит/с, 1024x442, 24.000 кадр/сЗвук: • №1: Русский (AC3, 2 ch, 192 Кбит/с) / Профессиональный двухголосый (НТВ+) • №2: Русский (AC3, 6 ch, 384 Кбит/с) / Авторский одноголосый (Юрий Живов) • №3: Английский (AC3, 6 ch, 384 Кбит/с) Отдельно: • №4: Русский (AC3, 2 ch, 192 Кбит/с) / Профессиональный двухголосый (Премьер Видео Фильм) • №5: Русский (AC3, 2 ch, 192 Кбит/с) / Авторский одноголосый (Сергей Визгунов)Субтитры: АнглийскиеВидео: Идентификатор : 1 Формат : AVC Формат/Информация : Advanced Video Codec Профиль формата : [email protected] Параметр CABAC формата : Да Параметр ReFrames формата : 10 кадров Идентификатор кодека : V_MPEG4/ISO/AVC Продолжительность : 1 ч. 41 м. Битрейт : 3028 Кбит/сек Ширина : 1024 пикселя Высота : 442 пикселя Соотношение сторон : 2,35:1 Частота кадров : 24,000 кадра/сек Цветовое пространство : YUV Субдискретизация насыщенности : 4:2:0 Битовая глубина : 8 бит Тип развёртки : Прогрессивная Бит/(Пиксели*Кадры) : 0.279 Размер потока : 2,08 Гбайт (67%) Заголовок : Rip by 0ptimus Библиотека кодирования : x264 core 133 r2334 a3ac64b Настройки программы : cabac=1 / ref=10 / deblock=1:-3:-3 / analyse=0x3:0x113 / me=umh / subme=10 / psy=1 / psy_rd=1.00:0.20 / mixed_ref=1 / me_range=32 / chroma_me=1 / trellis=2 / 8x8dct=1 / cqm=0 / deadzone=21,11 / fast_pskip=0 / chroma_qp_offset=-3 / threads=3 / lookahead_threads=1 / sliced_threads=0 / nr=0 / decimate=0 / interlaced=0 / bluray_compat=0 / constrained_intra=0 / bframes=8 / b_pyramid=2 / b_adapt=2 / b_bias=0 / direct=3 / weightb=1 / open_gop=0 / weightp=2 / keyint=240 / keyint_min=24 / scenecut=40 / intra_refresh=0 / rc_lookahead=40 / rc=2pass / mbtree=0 / bitrate=3028 / ratetol=1.0 / qcomp=0.60 / qpmin=0 / qpmax=69 / qpstep=4 / cplxblur=20.0 / qblur=0.5 / vbv_maxrate=50000 / vbv_bufsize=50000 / nal_hrd=none / ip_ratio=1.40 / pb_ratio=1.30 / aq=1:1.00 Язык : EnglishАудио #1: Идентификатор : 2 Формат : AC-3 Формат/Информация : Audio Coding 3 Расширение режима : CM (complete main) Идентификатор кодека : A_AC3 Продолжительность : 1 ч. 41 м. Вид битрейта : Постоянный Битрейт : 192 Кбит/сек Каналы : 2 канала Расположение каналов : Front: L R Частота : 48,0 КГц Битовая глубина : 16 бит Метод сжатия : С потерями Размер потока : 139 Мбайт (4%) Заголовок : Двухголосый закадровый [НТВ+] AC3 2.0 192 kbps Язык : RussianАудио #2: Идентификатор : 3 Формат : AC-3 Формат/Информация : Audio Coding 3 Расширение режима : CM (complete main) Идентификатор кодека : A_AC3 Продолжительность : 1 ч. 41 м. Вид битрейта : Постоянный Битрейт : 192 Кбит/сек Каналы : 2 канала Расположение каналов : Front: L R Частота : 48,0 КГц Битовая глубина : 16 бит Метод сжатия : С потерями Размер потока : 139 Мбайт (4%) Заголовок : Двухголосый закадровый [Премьер Видео Фильм] AC3 2.0 192 kbps Язык : RussianАудио #3: Идентификатор : 4 Формат : AC-3 Формат/Информация : Audio Coding 3 Расширение режима : CM (complete main) Идентификатор кодека : A_AC3 Продолжительность : 1 ч. 41 м. Вид битрейта : Постоянный Битрейт : 192 Кбит/сек Каналы : 2 канала Расположение каналов : Front: L R Частота : 48,0 КГц Битовая глубина : 16 бит Метод сжатия : С потерями Размер потока : 139 Мбайт (4%) Заголовок : Авторский [Сергей Визгунов] AC3 2.0 192 kbps Язык : RussianАудио #4: Идентификатор : 5 Формат : AC-3 Формат/Информация : Audio Coding 3 Расширение режима : CM (complete main) Идентификатор кодека : A_AC3 Продолжительность : 1 ч. 41 м. Вид битрейта : Постоянный Битрейт : 384 Кбит/сек Каналы : 6 каналов Расположение каналов : Front: L C R, Side: L R, LFE Частота : 48,0 КГц Битовая глубина : 16 бит Метод сжатия : С потерями Размер потока : 278 Мбайт (9%) Заголовок : Авторский [Юрий Живов] AC3 5.1 384 kbps Язык : RussianАудио #5: Идентификатор : 6 Формат : AC-3 Формат/Информация : Audio Coding 3 Расширение режима : CM (complete main) Идентификатор кодека : A_AC3 Продолжительность : 1 ч. 41 м. Вид битрейта : Постоянный Битрейт : 384 Кбит/сек Каналы : 6 каналов Расположение каналов : Front: L C R, Side: L R, LFE Частота : 48,0 КГц Битовая глубина : 16 бит Метод сжатия : С потерями Размер потока : 278 Мбайт (9%) Заголовок : AC3 5.1 384 kbps Язык : English 3,09 Gb 8 3 28 сентября 2016 09:10 Ночное дежурство / Nightwatch (1997) HDRip от Scarabey | Р .torrent   [Информация о файле (нажмите для просмотра)] Перевод: Профессиональный (многоголосый, закадровый)Субтитры: нетКачество: HDRipКонтейнер: AVIВидео: 704x304 (2.32:1), 24 fps, XviD build 73 ~1581 kbps avg, 0.31 bit/pixelАудио: 48 kHz, AC3 Dolby Digital, 3/2 (L,C,R,l,r) + LFE ch, ~448.00 kbps avg 1,45 Gb 10 4 28 сентября 2016 09:10 Ночное дежурство / Nightwatch (1997) HDRip от Scarabey | Р .torrent   [Информация о файле (нажмите для просмотра)] Перевод: Профессиональный (многоголосый, закадровый)Субтитры: нетКачество: HDRipКонтейнер: AVIВидео: 672x288 (2.33:1), 24 fps, XviD build 73 ~887 kbps avg, 0.19 bit/pixelАудио: 48 kHz, MPEG Layer 3, 2 ch, ~128.00 kbps avg 744,88 Mb 9 3 28 сентября 2016 09:10 Ночное дежурство / Nightwatch (1997) BDRip 1080p | P2, А .torrent   [Информация о файле (нажмите для просмотра)] Перевод: Профессиональный двухголосый, авторскийКодек: MPEG-4 AVCКачество: BDRip 1080pВидео: 1920x832 24,00 fps, 9762 kbpsЗвук: Russian: AC3, 192 Kbps (2 ch) Профессиональный двухголосый (НТВ+) Russian: AC3, 192 Kbps (2 ch) Профессиональный двухголосый (Премьер) Russian: AC3, 192 Kbps (2 ch) Авторский (Визгунов) Russian: AC3, 448 Kbps (6 ch) Авторский (Живов) English: AC3, 448 Kbps (6 ch) Original Субтитры: EnglishВидео: Идентификатор : 1 Формат : AVC Формат/Информация : Advanced Video Codec Профиль формата : [email protected] Параметр CABAC формата : Да Параметр ReFrames формата : 5 кадров Идентификатор кодека : V_MPEG4/ISO/AVC Продолжительность : 1 ч. 41 м. Битрейт : 9762 Кбит/сек Ширина : 1920 пикселей Высота : 832 пикселя Соотношение сторон : 2,35:1 Режим частоты кадров : Постоянный Частота кадров : 24,000 кадра/сек Цветовое пространство : YUV Субдискретизация насыщенности : 4:2:0 Битовая глубина : 8 бит Тип развёртки : Прогрессивная Бит/(Пиксели*Кадры) : 0.255 Размер потока : 6,74 Гбайт (85%) Заголовок : Ночное дежурство / Nightwatch (1997) Библиотека кодирования : x264 core 135 r2345 f0c1c53 Настройки программы : cabac=1 / ref=5 / deblock=1:-3:-3 / analyse=0x3:0x133 / me=umh / subme=11 / psy=1 / psy_rd=1.00:0.00 / mixed_ref=1 / me_range=48 / chroma_me=1 / trellis=2 / 8x8dct=1 / cqm=0 / deadzone=21,11 / fast_pskip=0 / chroma_qp_offset=-2 / threads=12 / lookahead_threads=1 / sliced_threads=0 / nr=0 / decimate=1 / interlaced=0 / bluray_compat=0 / constrained_intra=0 / bframes=6 / b_pyramid=2 / b_adapt=2 / b_bias=0 / direct=3 / weightb=1 / open_gop=0 / weightp=2 / keyint=240 / keyint_min=24 / scenecut=40 / intra_refresh=0 / rc_lookahead=60 / rc=2pass / mbtree=0 / bitrate=9762 / ratetol=1.0 / qcomp=0.60 / qpmin=0 / qpmax=69 / qpstep=4 / cplxblur=20.0 / qblur=0.5 / vbv_maxrate=62500 / vbv_bufsize=50000 / nal_hrd=none / ip_ratio=1.40 / pb_ratio=1.30 / aq=1:0.80 Язык : English Default : Да Forced : НетАудио #1: Идентификатор : 2 Формат : AC-3 Формат/Информация : Audio Coding 3 Расширение режима : CM (complete main) Параметр Endianness формата : Big Идентификатор кодека : A_AC3 Продолжительность : 1 ч. 41 м. Вид битрейта : Постоянный Битрейт : 192 Кбит/сек Каналы : 2 канала Расположение каналов : Front: L R Частота : 48,0 КГц Битовая глубина : 16 бит Метод сжатия : С потерями Размер потока : 139 Мбайт (2%) Заголовок : AC3, 192 Kbps (2 ch) Профессиональный двухголосый (НТВ+) Язык : Russian Default : Да Forced : НетАудио #2: Идентификатор : 3 Формат : AC-3 Формат/Информация : Audio Coding 3 Расширение режима : CM (complete main) Параметр Endianness формата : Big Идентификатор кодека : A_AC3 Продолжительность : 1 ч. 41 м. Вид битрейта : Постоянный Битрейт : 192 Кбит/сек Каналы : 2 канала Расположение каналов : Front: L R Частота : 48,0 КГц Битовая глубина : 16 бит Метод сжатия : С потерями Размер потока : 139 Мбайт (2%) Заголовок : AC3, 192 Kbps (2 ch) Профессиональный двухголосый (Премьер) Язык : Russian Default : Нет Forced : НетАудио #3: Идентификатор : 4 Формат : AC-3 Формат/Информация : Audio Coding 3 Расширение режима : CM (complete main) Параметр Endianness формата : Big Идентификатор кодека : A_AC3 Продолжительность : 1 ч. 41 м. Вид битрейта : Постоянный Битрейт : 192 Кбит/сек Каналы : 2 канала Расположение каналов : Front: L R Частота : 48,0 КГц Битовая глубина : 16 бит Метод сжатия : С потерями Размер потока : 139 Мбайт (2%) Заголовок : AC3, 192 Kbps (2 ch) Авторский (Визгунов) Язык : Russian Default : Нет Forced : НетАудио #4: Идентификатор : 5 Формат : AC-3 Формат/Информация : Audio Coding 3 Расширение режима : CM (complete main) Параметр Endianness формата : Big Идентификатор кодека : A_AC3 Продолжительность : 1 ч. 41 м. Вид битрейта : Постоянный Битрейт : 448 Кбит/сек Каналы : 6 каналов Расположение каналов : Front: L C R, Side: L R, LFE Частота : 48,0 КГц Битовая глубина : 16 бит Метод сжатия : С потерями Размер потока : 325 Мбайт (4%) Заголовок : AC3, 448 Kbps (6 ch) Авторский (Живов) Язык : Russian Default : Нет Forced : НетАудио #5: Идентификатор : 6 Формат : AC-3 Формат/Информация : Audio Coding 3 Расширение режима : CM (complete main) Параметр Endianness формата : Big Идентификатор кодека : A_AC3 Продолжительность : 1 ч. 41 м. Вид битрейта : Постоянный Битрейт : 448 Кбит/сек Каналы : 6 каналов Расположение каналов : Front: L C R, Side: L R, LFE Частота : 48,0 КГц Битовая глубина : 16 бит Метод сжатия : С потерями Размер потока : 325 Мбайт (4%) Заголовок : AC3, 448 Kbps (6 ch) Original Язык : English Default : Нет Forced : Нет 7,94 Gb 3 4 28 сентября 2016 09:10 Ночное дежурство / Nightwatch (1997) BDRip от HQCLUB .torrent   [Информация о файле (нажмите для просмотра)] Перевод: профессиональный (двухголосый, закадровый)НТВ+ + авторский (одноголосый, закадровый) Ю.Живов + оригинал (английский)Субтитры: английскиеФормат: AVIКачество: BDRip (источник:Видео: 704x304 (2.32:1), 24.000 fps, XviD build 64 ~1990 kbps avg, 0.39 bit/pixelАудио #1: 48 kHz, AC3, 2/0 (L,R) ch, ~192 kbps avg (DVO.NTV+)Аудио #2: 48 kHz, AC3, 3/2 (L,C,R,l,r) + LFE ch, ~448 kbps avg (AVO.JIVOV)Аудио #3: 48 kHz, AC3, 3/2 (L,C,R,l,r) + LFE ch, ~448 kbps avg (ENG)Аудио #4: 48 kHz, AC3, 2/0 (L,R) ch, ~192 kbps avg (DVO.PREMIER)(отдельно)Аудио #5: 48 kHz, AC3, 2/0 (L,R) ch, ~192 kbps avg (AVO.VIZGUNOV)(отдельно) 2,18 Gb 3 1 28 сентября 2016 09:10 Ночное дежурство / Nightwatch (1997) HDRip-AVC .torrent   [Информация о файле (нажмите для просмотра)] Перевод: Проф. двухголосый (Ольга Кузнецова, Даниил Эльдаров (НТВ+, HDTV)), Проф. двухголосый (Премьер фильм , VHS), Авторский (Сергей Визгунов) + Оригинал (Английский)Субтитры: АнглийскиеФормат: MKVКачество: HDRip-AVC (BDRip 720p)Видео: H.264/AVC, 800x344, 24,000 fps, 1704 kbps, 0.258 bit/pixelАудио #1: Русский, AAC-HE, 2 chnls, 72 kbps |DVO | О. Кузнецова, Д. Эльдаров | НТВ+ | HDTVАудио #2: Русский, AAC-HE, 2 chnls, 72 kbps |DVO | Премьер фильм | VHSАудио #3: Русский, AAC-HE, 2 chnls, 72 kbps |AVO | С. ВизгуновАудио #4: Английский, AAC-HE, 2 chnls, 72 kbps |Original | 1,36 Gb 3 1

gig-torrent.net


Смотрите также