Скачать фильм охотники на ведьм 2 через торрент в хорошем качестве


(2012)

http://torrentfilmi.org/460-ohotniki-na-vedm-2012.html (2012) .

: : Hansel & Gretel: Witch Hunters : , : 2013 : : , , , , , , , : , , : 19 2013 (): 17 2013, « »3D : 87 . / 01:27 : « »   IMDb: 6.10/10

, . , , , . , . ( ) , .

, , , . , – . , . , , , , .

:

1

: /
1 / Hansel & Gretel: Witch Hunters (2013) DRip Scarabey | D | | Theatrical Cut

: AVI: HDRip: ()- : 720x304 (2.37:1), 23.976 fps, XviD build 73 ~1897 kbps avg, 0.36 bit/pixel: 48 kHz, AC3 Dolby Digital, 3/2 (L,C,R,l,r) + LFE ch, ~448.00 kbps avg: 01:27:56

1.45 GB 275 / 8
2 / Hansel & Gretel: Witch Hunters (2013) BDRip HQ-ViDEO | Theatrical Cut |

: AVI: BDRip /: HANSEL_AND_GRETEL_HDCLUB/2D-transfer/: / Blu-Ray CEE/: XviD, 720x304 (2.37:1), ~1911 kbps avg, 23,976 fps: AC3 Dolby Digital, 48 KHz, ~448 kbps, 3/2 (L,C,R,l,r) + LFE ch /RUS/AC3 Dolby Digital, 48 KHz, ~448 kbps, 3/2 (L,C,R,l,r) + LFE ch /ENG, disk.yandex.ru/: 01:27:56

1.46 GB 86 / 1
3 / Hansel & Gretel: Witch Hunters (2013) BDRip-AVC HELLYWOOD | UNRATED |

: MKV: : ( ) + AVO [. ]: H.264, 1080x450 (2,40:1), 23,976 fps, 2291 bps, 0.197 bit/pixel: 48 kHz, AC3 Dolby Digital, 3/2 (L,C,R,l,r) + LFE ch, 448.00 kbps | RUS48 kHz, AC3 Dolby Digital, 3/2 (L,C,R,l,r) + LFE ch, 448.00 kbps | ENG: 01:37:56

2.18 GB 38 / 1
4 / Hansel and Gretel: Witch Hunters (2013) BDRip 720p Leonardo and Scarabey | |

: MKV : MPEG-4 AVC : AC3: BDRip 720p : Blu-ray: () CEE ( . ): AVC, 1280x536 (2.40:1) at 23.976 fps, AVC at 3164 kbps avg, 0.192 bit/pixel: 48 kHz, AC3 Dolby Digital, 3/2 (L,C,R,l,r) + LFE ch, 640.00 kbps - Russian: 01:37:57

2.66 GB 84 / 3
5 / Hansel & Gretel: Witch Hunters (2013) BDRip 1080p | Theatrical Cut | 3D-Video |

: : BDRip (by Ash61): () (""): AVC / 23,976 fps / 19201080p / 11.5 Mbps: #1 - / AC3 / 48 KHz / 5.1 ch / 640 Kbps ( - BD 2D): 01:27:56

8.03 GB 30 / 5
6 / Hansel & Gretel: Witch Hunters (2013) BDRip 1080p | | Theatrical Cut

: : : [, BD CEE]: AVC / High-L4.1 / 2 pass / 23,976 fps / 1920x800p (2,40:1) / 12,0 Mbps / 0.326: AC3AC3 / 5.1 ch / 640 kbps / , BD CEEAC3 / 5.1 ch / 640 kbps / original, BD CEE: 01:27:56

8.16 GB 1 / 1
, . , torrent - , .

torrentfilmi.org

Охотники на ведьм (2013) (Hansel and Gretel: Witch Hunters)

"Стуки-бряки под окном - кто ко мне стучится в дом?"

Внимание! Текст носит юмористический характер, не имеет цели кого–либо обидеть! Что получится, если главный персонаж "Ван Хельсинга" проведёт ночь содомских утех с героями "Братьев Гримм"? Безуловно, "Охотники на ведьм" на котором отразилась вся богомерзкая неестественность этого соития: ребёнок явно страдает слабоумием, гиперактивностью и синдромом дефицита внимания. К диску должны прилагаться набор для лоботомии и пузырёк валиума.

Сказка "Гензель и Гретель" была опубликована братьями Гримм в 1812 году, а основой для неё служили совсем не сказочные события: годами ранее, во время беспощадного голода, случаи, когда родители бросали детей в лесу, а то и съедали их, были не такой уж редкостью. Возможно, для здравых рассуждений, стоит вести отсчёт от 1800 года. Да–да–да, я понимаю, что это сказка и т.д., однако, действие происходит не в параллельной вселенной, а в нашем бренном мире. Я могу представить, что в дремучих лесах есть ведьмы, тролли и пряничные домики. Но существование в те времена инсулина, шприцов, пулемётов и противотанковых снарядов мой разум отвергает немедля, несмотря на сказочность. И это самый скромный набор, если не придираться.

Впрочем, понятное дело, логику надо отключать во время заставки. Так что, на хрен её. Пусть сучка сдохнет в муках. Думаю, стоит, всё же, сравнивать детище с родителями. Не безупречными, но родителями. Даже брутальный Ван Хельсинг, хозяин румынских лесов, гроза нежити, сражавшийся с самим Дракуловичем, не может похвастаться таким фантастическим арсеналом, а ведь его снабжали оружием в мрачных Катакомбах Ватикана! Не удивлюсь, если они там уже эликсир бессмертия изобрели. Откуда у двух бомжей с инициалами ГГ все эти гаджеты, с которыми можно захватить соседнее государство – нам не объясняют. Ватикан тоже слабенькое оправдание, но оно хотя бы было) Здесь же – у ребят просто есть шестиствольный пулемёт, гранаты и трёхствольные пистолеты – смиритесь. Сцены с танками и ракетными комплексами вырезали на монтаже. Зато Йоганн и Маргарита унаследовали от папаши неуязвимость Росомахи и возвели её в абсолют: падают с шестиметровой высоты, ломают головами булыжники и брёвна, таранят телом крыши домов, при этом даже не хромают. Зато вырубаются от удара кулаком по физиономии. Неуязвимость mode off.

По материнской линии фильм унаследовал ведьм и похищение детей (довольно кривое, если вспомнить "Братьев Гримм", поскольку нам этот процесс вовсе не показывают). Всё время просмотра меня терзали 2 вопроса. Первый: если у ведьм инструктором по боевой подготовке выступал явно сам Бадюк – на кой леший им вообще магия? Эти бабы машут ногами круче Джины Карано. Они бы и так все деревни нагнули ударами в хлебало, палочки можно выкинуть! Настоящие лесные гопники: "Слышь, апрельский ребёнок есть? А если найду?". И второй: кто такие белые ведьмы и зачем они нужны? Ответ: для создания слабенькой драмы и глупой смерти. Серьёзно, они такие великие, что абсолютно жалкие, максимум их способностей – лечить травками и перепихом в озере.Крайне полезные существа. Защитить семью не могут, друзей тоже... продолжайте собирать полынь и трахаться, мой вам совет.

Что ж, становится ли фильм после всего этого бреда плохим?.. Определённо, да, но он крайне доставляет при просмотре. Леса, горы и всякая фауна смотрятся просто изумительно, радуя глаз разнообразием и красками: так и хочется там построить хижину и прожить остаток дней. Герои достаточно приятные при всём их пафосе, резкие, как понос, порой, произносят эпичные фразы. Не на уровне "Люблю запах напалма по утрам", но всё же Ведьмы полностью соответствуют образу "Ух, ты ж, какая страшная!", полно кровищи, взрывов несчастных селян с фонтаном кишок, и тому подобных радостей. В экшен вложили душу, хотя он местами лихорадочен и бьётся в конвульсиях. Юмора маловато, однако хохтала весь фильм, только вот, не в тех местах, где задумывались гэги. Таким образом, вывод таков: красочно, качественно, нелепо, кроваво. Да и фильм откровенно без претензий. И вот за это от меня 4.

www.fast-torrent.ru

Скачать фильм Охотники на ведьм через торрент в хорошем качестве бесплатно BDRip

Размер: 1.45 GB | Добавлен: 4 года 1 мес. назад | Торрент скачан:1627 раз
Реклама Дарим 3000 рублей за регистрацию, не упусти свой шанс получить шикарный бонус!!!

14-09-2013 22:17 Охотники на ведьм Скачать торрент  

Охотники на ведьм / Hansel & Gretel: Witch Hunters«Новый поворот старой истории»
  • Год выпуска:2013
  • Страна:США, Германия
  • Жанр:ужасы, фэнтези, боевик
  • Продолжительность: 01:37:56
  • Перевод:Профессиональный (дублированный) R5 + вставки А.Дольского на UNRATED-участки
  • Субтитры: Русские (Blu-ray CEE + на вставки AVO; Notabenoid + на вставки AVO; Voronine; Doctor_Joker; Forced [надписи и пр.]), Английские (Full, SDH, SDH-COLORED), Украинские (R5 + на вставки AVO; 3x Forced) (внешние srt*)отдельно
    • Режиссер:Томми Виркола / Tommy Wirkola
    • Сценарий: Томми Виркола / Tommy Wirkola
    • Продюсер: Уилл Феррелл / Will Ferrell, Бо Флинн / Beau Flynn, Адам МакКей / Adam McKay, Кевин Дж. Мессик / Kevin J. Messick, Жасмин Торбати / Jasmin Torbati
  • В ролях:Джереми Реннер (Hansel), Джемма Артертон (Gretel), Фамке Янссен (Muriel), Пихла Виитала (Mina), Дерек Мирс (Edward), Робин Аткин Даунс (Edward, озвучка), Ингрид Болсай Бердал (Horned Witch), Джоэнна Кулиг (Red Haired Witch), Томас Манн (Ben), Петер Стормаре (Sheriff Berringer), Бьорн Сундквист (Jackson), Райнер Бок (Mayor Engleman)
    • Описание:Едва не погибнув в лапах ужасной ведьмы, Гензель и Гретель стали только сильнее. Одержимые местью, они ведут отчаянную борьбу со злом, даже не подозревая, что их поджидает нечто куда более опасное... собственное прошлое...
  • Рейтингkinopoisk.ru: 6.562 (34 806)imdb.com: 6.10 (81 642)MPAA: R - Лицам до 17 лет обязательно присутствие взрослого
      Автор рипа: : kingsize87
    • Качество:BDRip
    • Формат:AVI
    • Видео кодек: XviD
    • Аудио кодек:AC3
    • Видео: XviD, 720x304 (2.35:1), 1733 kbps, 23,976 fps, 0,330 bpp
    • Аудио: AC3 / 5.1 / 48 kHz / 384 kbps / 16 bit
    • Аудио #2: 48 kHz, AC3 Dolby Digital, 3/2 (L,C,R,l,r) + LFE ch, ~384.00 kbps avg Авторский одноголосый А.Гаврилов- отдельно
    • Аудио #3: 48 kHz, AC3 Dolby Digital, 3/2 (L,C,R,l,r) + LFE ch, ~384.00 kbps avg Авторский одноголосый А.Дольский- отдельно
    • Аудио #4: 48 kHz, AC3 Dolby Digital, 3/2 (L,C,R,l,r) + LFE ch, ~384.00 kbps avg Одноголосый закадровый А.Матвеев - отдельно
    • Аудио #5: 48 kHz, AC3 Dolby Digital, 3/2 (L,C,R,l,r) + LFE ch, ~384.00 kbps avg Оригинальная звуковая дорожка- отдельно
    • Аудио #6: 48 kHz, AC3 Dolby Digital, 3/2 (L,C,R,l,r) + LFE ch, ~384.00 kbps avg Украинская звуковая дорожка со вставками на UNRATED-участках А.Дольского- отдельно
    GeneralComplete name : D:ТорентыOhotniki.na.vedm.UNRATED.2013.RUS.BDRip.XviD.AC3.-HQCLUB.aviFormat : AVIFormat/Info : Audio Video InterleaveFile size : 1.45 GiBDuration : 1h 37mnOverall bit rate : 2 126 KbpsMovie name : Охотники на ведьм / Hansel & Gretel: Witch Hunters [UNRATED] (2012) BDRipDirector : kingsize87Writing application : VirtualDubMod 1.5.10.2 (build 2540/release)Copyright : HQCLUBComment : 09.09.2013

    VideoID : 0Format : MPEG-4 VisualFormat profile : Advanced [email protected] settings, BVOP : 1Format settings, QPel : NoFormat settings, GMC : No warppointsFormat settings, Matrix : CustomCodec ID : XVIDCodec ID/Hint : XviDDuration : 1h 37mnBit rate : 1 733 KbpsWidth : 720 pixelsHeight : 304 pixelsDisplay aspect ratio : 2.35:1Frame rate : 23.976 fpsColor space : YUVChroma subsampling : 4:2:0Bit depth : 8 bitsScan type : ProgressiveCompression mode : LossyBits/(Pixel*Frame) : 0.330Stream size : 1.19 GiB (82%)Writing library : XviD 65

    AudioID : 1Format : AC-3Format/Info : Audio Coding 3Mode extension : CM (complete main)Codec ID : 2000Duration : 1h 37mnBit rate mode : ConstantBit rate : 384 KbpsChannel(s) : 6 channelsChannel positions : Front: L C R, Side: L R, LFESampling rate : 48.0 KHzBit depth : 16 bitsCompression mode : LossyStream size : 269 MiB (18%)Alignment : Split accross interleavesInterleave, duration : 42 ms (1.00 video frame)Interleave, preload duration : 500 ms

    • Фильм снят по мотивам сказки братьев Гримм «Гензель и Гретель» (Hänsel und Gretel, 1812).
    • В своем интервью на фестивале в Каннах в 2011 году Фамке Янссен заявила, что она согласилась на роль предводительницы ведьм, потому что ей нужно было выплачивать долги. Янссен неоднократно упоминала, начиная с 2007 года, что готовит фильм «Плохая мамочка» (2011), где она дебютировала как режиссер/сценарист. Финансирование и распространение фильма пережили нелегкие времена, отчасти из-за экономического кризиса 2008 года. К тому же она практически нигде не снималась в тот период.
    • Первоначально на роль Гретель пробовались Дайан Крюгер, Ева Грин и Нуми Рапас.
    • В кадре с изображением лиц пропавших детей на бутылках молока, на первой из них - известная картина Пинтуриккьо «Портрет мальчика».
    • еще 1 факт
    © Оформление by Vetal
  • Скачать Охотники на ведьм через торрент http://pic.pb.wtf/images/3/pnyb1cp7ur.png Скачать фильм Охотники на ведьм через торрент бесплантно в хорошем качестве Описание:Едва не погибнув в лапах ужасной ведьмы, Гензель и Гретель стали только сильнее. Одержимые местью, они ведут отчаянную борьбу со ... 2013-09-14 22:17 9.9 10 44

    Loading...

    Loading...

    Рекламный пират

    15-09-2013 02:01 Охотники на ведьм Скачать торрент  

    Офигенный фильм,советую ;)

    09-10-2013 17:48 Охотники на ведьм Скачать торрент  

    Редкое дерьмище, за совет (-)

    11-10-2013 17:41 Охотники на ведьм Скачать торрент  

    На вкус ицвет друга нет! Мне понравилось.

    Дорогой пользователь! Огромная просьба, поблагодарите релизера, оцените раздачу и оставьте свои комментарий, если Вы скачали Охотники на ведьм через торрент бесплатно! Внесите свою лепту в развитие PiratBit!

    Комментировать посты могут только пользователи прошедшие не сложную регистрацию

    Охотники на ведьм через торрент Скачать бесплатно Охотники на ведьм Охотники на ведьм скачать торрент Охотники на ведьм смотреть онлайн Cкачать фильм Охотники на ведьм бесплатно Охотники на ведьм скачать торрент в хорошем качестве Охотники на ведьм смотреть онлайн бесплатно в хорошем качестве

    Вы не можете начинать темыВы не можете отвечать на сообщенияВы не можете редактировать свои сообщенияВы не можете удалять свои сообщенияВы не можете голосовать в опросахВы не можете прикреплять файлы к сообщениямВы можете скачивать файлы

    piratbit.ru

    Скачать фильм Охотники на ведьм (2012) через торрент

    29 января 2016 15:56 Охотники на ведьм / Hansel & Gretel: Witch Hunters (2013) BDRip 720p от HELLYWOOD | UNRATED.torrent   [Информация о файле (нажмите для просмотра)] Перевод: Профессиональный (полное дублирование) [лицензия BD CEE] + А. Дольский на расширенные сценыСубтитры: Русские (форс. + полные), украинские (форс. + полные), английские (Full + SDH + SDH-Colored)Качество: BDRip 720pФормат: MKVВидео: x.264, 1280x534 (2,40:1), 23,976 fps, 4001 Кbps, 0.244 bit/pixelАудио#1: 48 kHz, AC3 Dolby Digital, 3/2 (L,C,R,l,r) + LFE ch, 640.00 kbps |DUB + А.ДольскийАудио#2: 48 kHz, AC3 Dolby Digital, 3/2 (L,C,R,l,r) + LFE ch, 640.00 kbps |AVO - А.ГавриловАудио#3: 48 kHz, AC3 Dolby Digital, 3/2 (L,C,R,l,r) + LFE ch, 640.00 kbps |AVO - А.ДольскийАудио#4: 48 kHz, AC3 Dolby Digital, 3/2 (L,C,R,l,r) + LFE ch, 640.00 kbps |AVO - А.МатвеевАудио#5: 48 kHz, AC3 Dolby Digital, 3/2 (L,C,R,l,r) + LFE ch, 448.00 kbps |VO - Daniel JacksonАудио#6: 48 kHz, AC3 Dolby Digital, 3/2 (L,C,R,l,r) + LFE ch, 448.00 kbps |UKR - DUB [R5 + А.Дольский]Аудио#7: 48 kHz, AC3 Dolby Digital, 3/2 (L,C,R,l,r) + LFE ch, 448.00 kbps |ENG 5,54 Gb 66 6 29 января 2016 15:56 Охотники на ведьм / Hansel & Gretel: Witch Hunters (2013) BDRip 1080p от Leonardo and Scarabey | Театральная версия | Лицензия.torrent   [Информация о файле (нажмите для просмотра)] Перевод: Профессиональный (полное дублирование) ЛицензияФормат: MKVВидео кодек: MPEG-4 AVC Аудио кодек: AC3Видео: 1920x800 (2.40:1) at 23.976 fps, AVC at 6280 kbps avg, 0.171 bit/pixelАудио №1: Русский, AC3 5.1, 640 kbps, 48 kHz - Dub, BD CEEАудио №2: Английский, AC3 5.1, 640 kbps, 48 kHz - Original (Отдельно)Субтитры: Русские, украинские, английские 4,34 Gb 45 2 29 января 2016 15:56 Охотники на ведьм / Hansel & Gretel: Witch Hunters (2013) BDRip 720p от Leonardo and Scarabey | Театральная версия | Лицензия.torrent   [Информация о файле (нажмите для просмотра)] Перевод: Профессиональный (полное дублирование) ЛицензияФормат: MKVВидео кодек: MPEG-4 AVC Аудио кодек: AC3Видео: 1280x534 (2.40:1) at 23.976 fps, AVC at 4225 kbps avg, 0.258 bit/pixelАудио №1: Русский, AC3 5.1, 640 kbps, 48 kHz - Dub, BD CEEАудио №2: Английский, AC3 5.1, 640 kbps, 48 kHz - Original (Отдельно)Субтитры: Русские, украинские, английские 3,05 Gb 21 6 29 января 2016 15:56 Охотники на ведьм / Hansel & Gretel: Witch Hunters (2013) BDRip 720p от HQ-ViDEO | Theatrical Cut | Лицензия.torrent   [Информация о файле (нажмите для просмотра)] Перевод: Профессиональный дублированный /Лицензия Blu-Ray CEE/Субтитры: Русские, Украинские, Английские|отключаемые, *.srt|Видео: x.264, 1280x534 (2.40:1), ~5306 kbps avg, 23,976 fpsАудио #1: AC3 Dolby Digital, 48 KHz, ~640 kbps, 3/2 (L,C,R,l,r) + LFE ch/RUS/Аудио #2: AC3 Dolby Digital, 48 KHz, ~640 kbps, 3/2 (L,C,R,l,r) + LFE ch/ENG/ 4,05 Gb 31 2 29 января 2016 15:56 Охотники на ведьм / Hansel and Gretel: Witch Hunters (2013) BDRip | D, A, L1 | Расширенная версия .torrent   [Информация о файле (нажмите для просмотра)] Перевод: Дублированный, авторский, любительский одноголосыйКодек: XviDКачество: BDRipВидео: 720х304, 1654 Кбит/с, 23.976 кадр/сЗвук: Аудио #1: Русский (AC3, 6 ch, 448 Кбит/с) / Дублированный Аудио #2: Русский (AC3, 6 ch, 448 Кбит/с) / Авторский одноголосый (А. Гаврилов) - отдельно Аудио #3: Русский (AC3, 6 ch, 448 Кбит/с) / Авторский одноголосый (А. Дольский) - отдельно Аудио #4: Русский (AC3, 6 ch, 448 Кбит/с) / Авторский одноголосый (А. Матвеев) - отдельно Аудио #5: Русский (AC3, 6 ch, 448 Кбит/с) / Любительский одноголосый (Daniel Jackson) - отдельно Аудио #6: Украинский (AC3, 6 ch, 448 Кбит/с) / Дублированный - отдельно Аудио #7: Английский (AC3, 6 ch, 448 Кбит/с) / Оригинал - отдельноСубтитры: 1. Русские / Форсированные (надписи и пр.) 2. Русские / Полные (Blu-Ray CEE + на вставки AVO) 3. Русские / Полные (Notabenoid + на вставки AVO) 4. Русские / Полные (Voronine) 5. Русские / Полные, (А.Матвеев "Doctor_Joker") 6. Украинские / Форсированные (надписи и пр.) 7. Украинские / Форсированные (на вставки AVO) 8. Украинские / Форсированные (надписи и пр. + на вставки AVO) 9. Украинские / Полные (R5 + на вставки AVO) 10. Английские / Полные 11. Английские / Полные (SDH) 12. Английские / Полные (SDH COLORED) Формат субтитров: srt (отдельными файлами) 3,28 Gb 20 4 29 января 2016 15:56 Охотники на ведьм / Hansel & Gretel: Witch Hunters (2013) BDRip-AVC от Leo.pard and Scarabey | Unrated Cut | Лицензия.torrent   [Информация о файле (нажмите для просмотра)] Перевод: Профессиональный (дублированный) лицензия + авторский одноголосый (А. Дольский) на расширенные вставкиФормат: MKVВидео: x264, 848x352 (2.40:1), 989 Kbps, 23.976 fpsАудио: AAC, 72 Kbps, 48 KHz, 2 channelsСубтитры: Русские (форсированные, полные (4 варианта)), украинские (форсированные, полные), английские (Full, SDH, SDH-Colored) 744,99 Mb 50 6 29 января 2016 15:56 Охотники на ведьм / Hansel & Gretel: Witch Hunters (2013) BDRip-AVC от MediaClub | Расширенная версия / Extended Cut.torrent   [Информация о файле (нажмите для просмотра)] Кодек: x264Качество: BDRip-AVCВидео: MPEG-4 AVC, 1928 Кбит/с, 1024x426, 23.976 кадр/сАудио #1: Русский (AC3, 6 ch, 448 Кбит/с) / ДублированныйАудио #2: Русский (AC3, 6 ch, 448 Кбит/с) / Авторский одноголосый (А. Гаврилов)Аудио #3: Русский (AC3, 6 ch, 448 Кбит/с) / Авторский одноголосый (А.Дольский)Аудио #4: Русский (AC3, 6 ch, 448 Кбит/с) / Авторский одноголосый (А.Матвеев)Аудио #5: Русский (AC3, 6 ch, 448 Кбит/с) / Любительский одноголосый (Daniel Jackson)Аудио #6: Украинский (AC3, 6 ch, 448 Кбит/с)Аудио #7: Английский (AC3, 6 ch, 448 Кбит/с)Субтитры: Русские, английскиеВидео: Формат : AVC Формат/Информация : Advanced Video Codec Профайл формата : [email protected] Настройка CABAC формата : Да Настройка ReFrames формата : 8 кадры Режим смешивания : Container [email protected] Идентификатор кодека : V_MPEG4/ISO/AVC Продолжительность : 1ч 37мин Битрейт : 1 707 Кбит/сек Номинальный битрейт : 1 928 Кбит/сек Ширина : 1 024 пикс. Высота : 426 пикс. Соотношение кадра : 2.404 Частота кадров : 23,976 кадр/сек Разрешение : 24 бит Колориметрия : 4:2:0 Тип развёртки : Прогрессивная Бит/(Пиксели*Кадры) : 0.184 Библиотека кодирования : x264 core 125 r2208 d9d2288 Настройки программы : cabac=1 / ref=8 / deblock=1:-2:-2 / analyse=0x3:0x133 / me=umh / subme=11 / psy=1 / psy_rd=1.00:0.15 / mixed_ref=1 / me_range=48 / chroma_me=1 / trellis=2 / 8x8dct=1 / cqm=0 / deadzone=21,11 / fast_pskip=0 / chroma_qp_offset=-3 / threads=6 / lookahead_threads=1 / sliced_threads=0 / nr=0 / decimate=0 / interlaced=0 / bluray_compat=0 / constrained_intra=0 / bframes=8 / b_pyramid=2 / b_adapt=2 / b_bias=0 / direct=3 / weightb=1 / open_gop=1 / weightp=2 / keyint=240 / keyint_min=23 / scenecut=40 / intra_refresh=0 / rc=2pass / mbtree=0 / bitrate=1928 / ratetol=1.0 / qcomp=0.60 / qpmin=0 / qpmax=69 / qpstep=4 / cplxblur=20.0 / qblur=0.5 / ip_ratio=1.40 / pb_ratio=1.30 / aq=1:1.00Аудио #1: Формат : AC-3 Формат/Информация : Audio Coding 3 Идентификатор кодека : A_AC3 Продолжительность : 1ч 37мин Режим расчёта битрейта : Постоянный Битрейт : 448 Кбит/сек Канал(ы) : 6 канала(ов) Расположение каналов : Front: L C R, Rear: L R, LFE Частота : 48,0 КГц Заголовок : Дублированный Язык : RussianАудио #2: Формат : AC-3 Формат/Информация : Audio Coding 3 Идентификатор кодека : A_AC3 Продолжительность : 1ч 37мин Режим расчёта битрейта : Постоянный Битрейт : 448 Кбит/сек Канал(ы) : 6 канала(ов) Расположение каналов : Front: L C R, Rear: L R, LFE Частота : 48,0 КГц Заголовок : Авторский одноголосый (А. Гаврилов) Язык : RussianАудио #3: Формат : AC-3 Формат/Информация : Audio Coding 3 Идентификатор кодека : A_AC3 Продолжительность : 1ч 37мин Режим расчёта битрейта : Постоянный Битрейт : 448 Кбит/сек Канал(ы) : 6 канала(ов) Расположение каналов : Front: L C R, Rear: L R, LFE Частота : 48,0 КГц Заголовок : Авторский одноголосый (А.Дольский) Язык : RussianАудио #4: Формат : AC-3 Формат/Информация : Audio Coding 3 Идентификатор кодека : A_AC3 Продолжительность : 1ч 37мин Режим расчёта битрейта : Постоянный Битрейт : 448 Кбит/сек Канал(ы) : 6 канала(ов) Расположение каналов : Front: L C R, Rear: L R, LFE Частота : 48,0 КГц Заголовок : Авторский одноголосый (А.Матвеев) Язык : RussianАудио #5: Формат : AC-3 Формат/Информация : Audio Coding 3 Идентификатор кодека : A_AC3 Продолжительность : 1ч 37мин Режим расчёта битрейта : Постоянный Битрейт : 448 Кбит/сек Канал(ы) : 6 канала(ов) Расположение каналов : Front: L C R, Rear: L R, LFE Частота : 48,0 КГц Заголовок : Любительский одноголосый (Daniel Jackson) Язык : RussianАудио #6: Формат : AC-3 Формат/Информация : Audio Coding 3 Идентификатор кодека : A_AC3 Продолжительность : 1ч 37мин Режим расчёта битрейта : Постоянный Битрейт : 448 Кбит/сек Канал(ы) : 6 канала(ов) Расположение каналов : Front: L C R, Rear: L R, LFE Частота : 48,0 КГц Заголовок : Дублированный Язык : UkrainianАудио #7: Формат : AC-3 Формат/Информация : Audio Coding 3 Идентификатор кодека : A_AC3 Продолжительность : 1ч 37мин Режим расчёта битрейта : Постоянный Битрейт : 448 Кбит/сек Канал(ы) : 6 канала(ов) Расположение каналов : Front: L C R, Rear: L R, LFE Частота : 48,0 КГц Заголовок : Оригинал 3,47 Gb 11 2 29 января 2016 15:56 Охотники на ведьм / Hansel & Gretel: Witch Hunters (2013) Blu-Ray Remux 1080p | Theatrical Cut | D | Лицензия.torrent   [Информация о файле (нажмите для просмотра)] Перевод: Дублированный (BD CEE, ст. "Пифагор")Кодек: MPEG-4 AVCКачество: Blu-Ray Remux (1080p)Видео: MPEG-4 AVC, 33 Мбит/с, 1920x1080 (16:9), 23,976 кадр/сАудио #1: Русский, Dolby AC3, 48000 Гц, 640 Кбит/с, 6 каналов (5.1) - BD CEE, ст. "Пифагор"Аудио #2: Английский, Dolby True HD, 48000 Гц, 3526 Кбит/с, 6 каналов (5.1) - ОригиналСубтитры: Русские, украинские, английские (PGS)Видео: Идентификатор : 1 Формат : AVC Формат/Информация : Advanced Video Codec Профиль формата : [email protected] Параметр CABAC формата : Да Параметр ReFrames формата : 4 кадра Идентификатор кодека : V_MPEG4/ISO/AVC Продолжительность : 1 ч. 27 м. Вид битрейта : Переменный Максимальный битрейт : 34,2 Мбит/сек Ширина : 1920 пикселей Высота : 1080 пикселей Соотношение сторон : 16:9 Режим частоты кадров : Постоянный Частота кадров : 23,976 кадра/сек Цветовое пространство : YUV Субдискретизация насыщенности : 4:2:0 Битовая глубина : 8 бит Тип развёртки : Прогрессивная Язык : English Default : Да Forced : НетАудио #1: Идентификатор : 2 Формат : AC-3 Формат/Информация : Audio Coding 3 Расширение режима : CM (complete main) Параметр Endianness формата : Big Идентификатор кодека : A_AC3 Продолжительность : 1 ч. 27 м. Вид битрейта : Постоянный Битрейт : 640 Кбит/сек Каналы : 6 каналов Расположение каналов : Front: L C R, Side: L R, LFE Частота : 48,0 КГц Битовая глубина : 16 бит Метод сжатия : С потерями Размер потока : 403 Мбайт (2%) Заголовок : DUB BD CEE Язык : Russian Default : Да Forced : НетАудио #2: Идентификатор : 3 Формат : TrueHD Идентификатор кодека : A_TRUEHD Продолжительность : 1 ч. 27 м. Вид битрейта : Переменный Максимальный битрейт : 4860 Кбит/сек Каналы : 6 каналов Расположение каналов : Front: L C R, Side: L R, LFE Частота : 48,0 КГц Битовая глубина : 24 бит Метод сжатия : Без потерь Язык : English Default : Нет Forced : Нет 22,72 Gb 29 6 29 января 2016 15:56 Охотники на ведьм / Hansel & Gretel: Witch Hunters (2013) BDRip 1080p | Theatrical Cut.torrent   [Информация о файле (нажмите для просмотра)] Перевод: Дублированный + ОригиналКодек: x264Качество: BDRip (источник: Blu-ray Disc)Видео: 1920x800 (2,40:1), 23.976 fps, 11345 kbpsАудио #1: AC-3, 6 ch, 640 kbps (Rus)Аудио #2: AC-3, 6 ch, 640 kbps (Eng)Субтитры: Русские, АнглийскиеВидео: Идентификатор : 1 Формат : AVC Формат/Информация : Advanced Video Codec Профиль формата : [email protected] Параметр CABAC формата : Да Параметр ReFrames формата : 5 кадров Идентификатор кодека : V_MPEG4/ISO/AVC Продолжительность : 1 ч. 27 м. Битрейт : 11,3 Мбит/сек Ширина : 1920 пикселей Высота : 800 пикселей Соотношение сторон : 2,40:1 Режим частоты кадров : Постоянный Частота кадров : 23,976 кадра/сек Цветовое пространство : YUV Субдискретизация насыщенности : 4:2:0 Битовая глубина : 8 бит Тип развёртки : Прогрессивная Бит/(Пиксели*Кадры) : 0.308 Размер потока : 6,82 Гбайт (88%) Заголовок : Release by N1NT3NDO Библиотека кодирования : x264 core 133 r2334 a3ac64b Настройки программы : cabac=1 / ref=5 / deblock=1:-3:-3 / analyse=0x3:0x113 / me=umh / subme=10 / psy=1 / psy_rd=1.00:0.00 / mixed_ref=1 / me_range=32 / chroma_me=1 / trellis=2 / 8x8dct=1 / cqm=0 / deadzone=21,11 / fast_pskip=0 / chroma_qp_offset=-2 / threads=12 / lookahead_threads=1 / sliced_threads=0 / nr=0 / decimate=0 / interlaced=0 / bluray_compat=0 / constrained_intra=0 / bframes=6 / b_pyramid=2 / b_adapt=2 / b_bias=0 / direct=2 / weightb=1 / open_gop=0 / weightp=2 / keyint=240 / keyint_min=23 / scenecut=40 / intra_refresh=0 / rc_lookahead=80 / rc=2pass / mbtree=1 / bitrate=11345 / ratetol=1.0 / qcomp=0.60 / qpmin=0 / qpmax=69 / qpstep=4 / cplxblur=20.0 / qblur=0.5 / vbv_maxrate=62500 / vbv_bufsize=50000 / nal_hrd=none / ip_ratio=1.40 / aq=2:0.80 Язык : English Default : Да Forced : НетАудио #1: Идентификатор : 2 Формат : AC-3 Формат/Информация : Audio Coding 3 Расширение режима : CM (complete main) Параметр Endianness формата : Big Идентификатор кодека : A_AC3 Продолжительность : 1 ч. 27 м. Вид битрейта : Постоянный Битрейт : 640 Кбит/сек Каналы : 6 каналов Расположение каналов : Front: L C R, Side: L R, LFE Частота : 48,0 КГц Битовая глубина : 16 бит Метод сжатия : С потерями Размер потока : 403 Мбайт (5%) Заголовок : Rus Язык : Russian Default : Да Forced : НетАудио #2: Идентификатор : 3 Формат : AC-3 Формат/Информация : Audio Coding 3 Расширение режима : CM (complete main) Параметр Endianness формата : Big Идентификатор кодека : A_AC3 Продолжительность : 1 ч. 27 м. Вид битрейта : Постоянный Битрейт : 640 Кбит/сек Каналы : 6 каналов Расположение каналов : Front: L C R, Side: L R, LFE Частота : 48,0 КГц Битовая глубина : 16 бит Метод сжатия : С потерями Размер потока : 403 Мбайт (5%) Заголовок : Eng Язык : English Default : Нет Forced : Нет 7,76 Gb 26 7 29 января 2016 15:56 Охотники на ведьм / Hansel & Gretel: Witch Hunters (2013) BDRip 1080p от Hot-Film | UNRATED | D, A, L1.torrent   [Информация о файле (нажмите для просмотра)] Перевод: Профессиональный (полное дублирование) [Лицензия] + А. Дольский на расширенные сцены + Авторский (одноголосый) [А. Гаврилов, А. Дольский] + Любительский (одноголосый) [А. Матвеев]Качество: BDRip 1080pФормат: MKVВидео: AVC, 1920x800 (2.40:1) at 23.976 fps, AVC at 8766 kbps avg, 0.238 bit/pixelАудио 1: Русский / AC3 / 6ch / 640 kbps | DUB + А. ДольскийАудио 2: Русский / AC3 / 6ch / 640 kbps | А. ГавриловАудио 3: Русский / AC3 / 6ch / 640 kbps | А. ДольскийАудио 4: Русский / AC3 / 6ch / 640 kbps | А. МатвеевСубтитры: Русские 7,75 Gb 36 7 29 января 2016 15:56 Охотники на ведьм / Hansel and Gretel: Witch Hunters (2013) BDRip-AVC от Leonardo and Scarabey | Лицензия | Расширенная версия .torrent   [Информация о файле (нажмите для просмотра)] Перевод: Профессиональный (дублированный) лицензия CEE (со вставками одноголосого А. Дольский)Субтитры: Rus (forced+full BD+Notabenoid+Voronine+Doctor_Joker) + Eng (full+SDH+SDH-Colored)Формат: MKVВидео кодек: MPEG-4 AVC Аудио кодек: AC3Видео: AVC, 960x400 (2.40:1) at 23.976 fps, AVC at 2004 kbps avg, 0.218 bit/pixelАудио: 48 kHz, AC3 Dolby Digital, 3/2 (L,C,R,l,r) + LFE ch, 448.00 kbps - RussianСубтитры: Rus (forced+full BD+Notabenoid+Voronine+Doctor_Joker) + Eng (full+SDH+SDH-Colored) 1,71 Gb 33 3 29 января 2016 15:56 Охотники на ведьм / Hansel and Gretel: Witch Hunters (2013) BDRip 720p от Leonardo and Scarabey | Лицензия | Расширенная версия .torrent   [Информация о файле (нажмите для просмотра)] Перевод: Профессиональный (дублированный) лицензия CEE (со вставками одноголосого А. Дольский)Субтитры: Rus (forced+full BD+Notabenoid+Voronine+Doctor_Joker) + Eng (full+SDH+SDH-Colored)Формат: MKVВидео кодек: MPEG-4 AVC Аудио кодек: AC3Видео: AVC, 1280x536 (2.40:1) at 23.976 fps, AVC at 3164 kbps avg, 0.192 bit/pixelАудио: 48 kHz, AC3 Dolby Digital, 3/2 (L,C,R,l,r) + LFE ch, 640.00 kbps - RussianСубтитры: Rus (forced+full BD+Notabenoid+Voronine+Doctor_Joker) + Eng (full+SDH+SDH-Colored) 2,66 Gb 163 6 29 января 2016 15:56 Охотники на ведьм / Hansel & Gretel: Witch Hunters (2013) BDRip-AVC | Unrated | A.torrent   [Информация о файле (нажмите для просмотра)] Перевод: Авторский (одноголосый закадровый)ГавриловКодек: x.264Качество: BDRip-AVCВидео: 1152x480, 23.976 fps, 1375 kbpsЗвук: AC-3, 6 ch, 384 kbps (Rus) (А.Ю.Гаврилов) AC-3, 6 ch, 384 kbps (Eng)Субтитры: Русские, английские 1,47 Gb 8 3 29 января 2016 15:56 Охотники на ведьм / Hansel & Gretel: Witch Hunters (2012) BDRip от HQCLUB | UNRATED| Лицензия.torrent   [Информация о файле (нажмите для просмотра)] Перевод: Профессиональный (дублированный) R5 + вставки А.Дольского на UNRATED-участки +Авторский одноголосый А.ГавриловСубтитры: Русские (Blu-ray CEE + на вставки AVO; Notabenoid + на вставки AVO; Voronine; Doctor_Joker; Forced [надписи и пр.]), Английские (Full, SDH, SDH-COLORED), Украинские (R5 + на вставки AVO; 3x Forced) (внешние srt*)Формат: AVIКачество: BDRip (источник: Arifis /BD-Remux / 1080р)Видео: 720x304 (2.37:1), 23,976 fps, XviD build 65 ~1732 kbps avg, 0.33 bit/pixelАудио #1: 48 kHz, AC3 Dolby Digital, 3/2 (L,C,R,l,r) + LFE ch, ~384.00 kbps avgАудио #2: 48 kHz, AC3 Dolby Digital, 3/2 (L,C,R,l,r) + LFE ch, ~384.00 kbps avg(отдельно, http)Аудио #3: 48 kHz, AC3 Dolby Digital, 3/2 (L,C,R,l,r) + LFE ch, ~384.00 kbps avg(отдельно, http)Аудио #4: 48 kHz, AC3 Dolby Digital, 3/2 (L,C,R,l,r) + LFE ch, ~384.00 kbps avg(отдельно, http)Аудио #5: 48 kHz, AC3 Dolby Digital, 3/2 (L,C,R,l,r) + LFE ch, ~384.00 kbps avg(отдельно, http)Аудио #6: 48 kHz, AC3 Dolby Digital, 3/2 (L,C,R,l,r) + LFE ch, ~384.00 kbps avg(отдельно, http) 1,45 Gb 40 3 29 января 2016 15:56 Охотники на Ведьм / Hansel & Gretel: Witch Hunters (2013) BDRip-720p | Дополнительные материалы.torrent   [Информация о файле (нажмите для просмотра)] Качество: BDRipВидео: 1280x720 (16:9), 23,976 fps, h364, ~5000 kbps avg, ~0.230 bit/pixelАудио: 48 kHz, AC3 Dolby Digital, 2/0 (L,R), ~192.00 kbps avgПеревод: СубтитрыСубтитры: Русские субтитры : есть 1,1 Gb 6 1 29 января 2016 15:56 Охотники на ведьм / Hansel & Gretel: Witch Hunters (2013) BDRip от New-Team | Theatrical Cut | Лицензия.torrent   [Информация о файле (нажмите для просмотра)] Перевод: Профессиональный (дублированный)Видео: 720x304 (2.37:1), 23.976 fps, XviD build 65, 1908 kbps avg, 0.36 bit/pixelАудио: AC3 Dolby Digital, 48 kHz, 6 ch, 448 kbps |Dub 1,45 Gb 14 1 29 января 2016 15:56 Охотники на ведьм / Hansel & Gretel: Witch Hunters (2013) HDRip-AVC | D | Театральная версия | Лицензия.torrent   [Информация о файле (нажмите для просмотра)] Перевод: Профессиональный (дублированный)ЛицензияКодек: H.264Качество: HDRip-AVC -[BDRip 720p]Видео: 880x368 (2.40:1), 23.976 fps, x.264 ~1087 kbps avg, 0.140 bit/pixelЗвук: 48 / 24 KHz, AAC-LC, 2/0 (L,R) ch, ~96.00 kbps 745,5 Mb 5 1 29 января 2016 15:55 Охотники на ведьм / Hansel & Gretel: Witch Hunters (2013) DVD5 от New-Team | D | сжатый.torrent   [Информация о файле (нажмите для просмотра)] Перевод: Профессиональный (дублированный)Субтитры: русский, английский, украинскийФормат: DVD VideoВидео: PAL 16x9 (720х576) VBR ~ 6106 kbps, Auto LetterboxedАудио 1: 48 kHz, Dolby AC3, 6 ch, 448 kbps,русскийАудио 2: 48 kHz, Dolby AC3, 6 ch, 448 kbps, английскийАудио 3: 48 kHz, Dolby AC3, 6 ch, 448 kbps, украинский 4,36 Gb 6 5 29 января 2016 15:55 Охотники на ведьм / Hansel & Gretel: Witch Hunters (2013) DVD9 R5 от New-Team | D | лицензия.torrent   [Информация о файле (нажмите для просмотра)] Перевод: Профессиональный (дублированный)Субтитры: русский, английский, украинскийКачество: DVD9 R5Формат: DVD VideoВидео: PAL 16x9 (720х576) VBR ~ 6106 kbps, Auto LetterboxedАудио 1: 48 kHz, Dolby AC3, 6 ch, 448 kbps,русскийАудио 2: 48 kHz, Dolby AC3, 6 ch, 448 kbps, английскийАудио 3: 48 kHz, Dolby AC3, 6 ch, 448 kbps, украинский 4,84 Gb 1 3 29 января 2016 15:55 Охотники на ведьм / Hansel & Gretel: Witch Hunters (2013) BDRip 1080p | Theatrical Cut | 3D-Video | Лицензия.torrent   [Информация о файле (нажмите для просмотра)] Перевод: Профессиональный (дублированный) ("Лицензия")Качество: BDRip (byAsh61)Контейнер: MKVВидео: AVC / 23,976 fps /1920х1080p / 11.5 MbpsАудио: #1 - Русский / AC3 / 48 KHz / 5.1 ch / 640 Kbps (Дубляж - BD 2D)Субтитры: Внешние(SRT UTF-8) 8,03 Gb 112 8 29 января 2016 15:55 Охотники на ведьм / Hansel & Gretel: Witch Hunters (2013) НDRip от Scarabey | D | Лицензия | Theatrical Cut.torrent   [Информация о файле (нажмите для просмотра)] Перевод: Профессиональный (дублированный)- Лицензия Видео: 688x288 (2.39:1), 23.976 fps, XviD build 73 ~1043 kbps avg, 0.22 bit/pixelАудио: 48 kHz, MPEG Layer 3, 2 ch, ~128.00 kbps avg 742,92 Mb 25 2 29 января 2016 15:55 Охотники на ведьм / Hansel & Gretel: Witch Hunters (2013) BDRip от HQ-ViDEO | Theatrical Cut | Лицензия.torrent   [Информация о файле (нажмите для просмотра)] Перевод: Профессиональный дублированный /Лицензия Blu-Ray CEE/Субтитры: Русские, Украинские, Английские|внешние, *.srt|Видео: XviD, 720x304 (2.37:1), ~1911 kbps avg, 23,976 fpsАудио #1: AC3 Dolby Digital, 48 KHz, ~448 kbps, 3/2 (L,C,R,l,r) + LFE ch/RUS/Аудио #2: AC3 Dolby Digital, 48 KHz, ~448 kbps, 3/2 (L,C,R,l,r) + LFE ch/ENG, скачать отдельно с disk.yandex.ru/ 1,46 Gb 295 8 29 января 2016 15:55 Охотники на ведьм / Hansel & Gretel: Witch Hunters (2013) BDRip 1080p | Лицензия | Theatrical Cut.torrent   [Информация о файле (нажмите для просмотра)] Перевод: русский дубляж[Лицензия, BD CEE]Контейнер: MKVВидео: AVC / [email protected] /2 pass / 23,976 fps / 1920x800p (2,40:1) / 12,0 Mbps / 0.326Аудио 1: AC3 / 5.1 ch / 640 kbps /Русский дубляж, BD CEEАудио 2: AC3 / 5.1 ch / 640 kbps /Английский original, BD CEEСубтитры: [softsub SRT]Видео: Идентификатор : 1 Формат : AVC Формат/Информация : Advanced Video Codec Профиль формата : [email protected] Параметр CABAC формата : Да Параметр ReFrames формата : 4 кадра Идентификатор кодека : V_MPEG4/ISO/AVC Продолжительность : 1 ч. 27 м. Битрейт : 12,0 Мбит/сек Ширина : 1920 пикселей Высота : 800 пикселей Соотношение сторон : 2,40:1 Режим частоты кадров : Постоянный Частота кадров : 23,976 кадра/сек Цветовое пространство : YUV Субдискретизация насыщенности : 4:2:0 Битовая глубина : 8 бит Тип развёртки : Прогрессивная Бит/(Пиксели*Кадры) : 0.326 Размер потока : 7,21 Гбайт (88%) Заголовок : Hansel & Gretel: Witch Hunters (2013) Theatrical Cut Библиотека кодирования : x264 core 132 r2310 76a5c3a Настройки программы : cabac=1 / ref=4 / deblock=1:-2:-2 / analyse=0x3:0x113 / me=umh / subme=10 / psy=1 / psy_rd=1.00:0.15 / mixed_ref=1 / me_range=16 / chroma_me=1 / trellis=2 / 8x8dct=1 / cqm=0 / deadzone=21,11 / fast_pskip=0 / chroma_qp_offset=-3 / threads=3 / lookahead_threads=1 / sliced_threads=0 / nr=0 / decimate=0 / interlaced=0 / bluray_compat=0 / constrained_intra=0 / bframes=7 / b_pyramid=2 / b_adapt=2 / b_bias=0 / direct=3 / weightb=1 / open_gop=0 / weightp=2 / keyint=240 / keyint_min=24 / scenecut=40 / intra_refresh=0 / rc_lookahead=60 / rc=2pass / mbtree=0 / bitrate=12000 / ratetol=1.0 / qcomp=0.65 / qpmin=0 / qpmax=69 / qpstep=4 / cplxblur=20.0 / qblur=0.5 / vbv_maxrate=40000 / vbv_bufsize=30000 / nal_hrd=none / ip_ratio=1.40 / pb_ratio=1.30 / aq=1:0.80 Язык : English Default : Да Forced : НетАудио #1: Идентификатор : 2 Формат : AC-3 Формат/Информация : Audio Coding 3 Расширение режима : CM (complete main) Параметр Endianness формата : Big Идентификатор кодека : A_AC3 Продолжительность : 1 ч. 27 м. Вид битрейта : Постоянный Битрейт : 640 Кбит/сек Каналы : 6 каналов Расположение каналов : Front: L C R, Side: L R, LFE Частота : 48,0 КГц Битовая глубина : 16 бит Метод сжатия : С потерями Размер потока : 403 Мбайт (5%) Заголовок : AC3 / 5.1 ch / 640 kbps / Русский дубляж, BD CEE Язык : Russian Default : Да Forced : НетАудио #2: Идентификатор : 3 Формат : AC-3 Формат/Информация : Audio Coding 3 Расширение режима : CM (complete main) Параметр Endianness формата : Big Идентификатор кодека : A_AC3 Продолжительность : 1 ч. 27 м. Вид битрейта : Постоянный Битрейт : 640 Кбит/сек Каналы : 6 каналов Расположение каналов : Front: L C R, Side: L R, LFE Частота : 48,0 КГц Битовая глубина : 16 бит Метод сжатия : С потерями Размер потока : 403 Мбайт (5%) Заголовок : AC3 / 5.1 ch / 640 kbps / Английский original, BD CEE Язык : English Default : Нет Forced : Нет 8,16 Gb 50 7 29 января 2016 15:55 Охотники на ведьм / Hansel & Gretel: Witch Hunters (2013) BDRip 1080p | Лицензия | Theatrical Cut | 3D-Video.torrent   [Информация о файле (нажмите для просмотра)] Перевод: русский дубляж[Лицензия, BD CEE]Качество: BDRip 1080pКонтейнер: MKVВидео: AVC / [email protected] /2 pass / 23,976 fps / 1920x1080p (16:9) / 11,5 Mbps / 0.231Аудио 1: AC3 / 5.1 ch / 640 kbps /Русский дубляж, BD CEEАудио 2: AC3 / 5.1 ch / 640 kbps /Английский original, BD CEEСубтитры: [softsub SRT]Видео: Идентификатор : 1 Формат : AVC Формат/Информация : Advanced Video Codec Профиль формата : [email protected] Параметр CABAC формата : Да Параметр ReFrames формата : 4 кадра Идентификатор кодека : V_MPEG4/ISO/AVC Продолжительность : 1 ч. 27 м. Битрейт : 11,5 Мбит/сек Ширина : 1920 пикселей Высота : 1080 пикселей Соотношение сторон : 16:9 Режим частоты кадров : Постоянный Частота кадров : 23,976 кадра/сек Цветовое пространство : YUV Субдискретизация насыщенности : 4:2:0 Битовая глубина : 8 бит Тип развёртки : Прогрессивная Бит/(Пиксели*Кадры) : 0.231 Размер потока : 6,91 Гбайт (88%) Заголовок : Hansel & Gretel: Witch Hunters 3D (2013) Theatrical Cut Библиотека кодирования : x264 core 132 r2310 76a5c3a Настройки программы : cabac=1 / ref=4 / deblock=1:-2:-2 / analyse=0x3:0x113 / me=umh / subme=9 / psy=1 / psy_rd=1.00:0.15 / mixed_ref=1 / me_range=16 / chroma_me=1 / trellis=2 / 8x8dct=1 / cqm=0 / deadzone=21,11 / fast_pskip=0 / chroma_qp_offset=-3 / threads=3 / lookahead_threads=1 / sliced_threads=0 / nr=0 / decimate=0 / interlaced=0 / bluray_compat=0 / constrained_intra=0 / bframes=6 / b_pyramid=2 / b_adapt=2 / b_bias=0 / direct=3 / weightb=1 / open_gop=0 / weightp=2 / keyint=240 / keyint_min=24 / scenecut=40 / intra_refresh=0 / rc_lookahead=60 / rc=2pass / mbtree=0 / bitrate=11500 / ratetol=1.0 / qcomp=0.65 / qpmin=0 / qpmax=69 / qpstep=4 / cplxblur=20.0 / qblur=0.5 / vbv_maxrate=40000 / vbv_bufsize=30000 / nal_hrd=none / frame-packing=4 / ip_ratio=1.40 / pb_ratio=1.30 / aq=1:0.70 Язык : English Default : Да Forced : НетАудио #1: Идентификатор : 2 Формат : AC-3 Формат/Информация : Audio Coding 3 Расширение режима : CM (complete main) Параметр Endianness формата : Big Идентификатор кодека : A_AC3 Продолжительность : 1 ч. 27 м. Вид битрейта : Постоянный Битрейт : 640 Кбит/сек Каналы : 6 каналов Расположение каналов : Front: L C R, Side: L R, LFE Частота : 48,0 КГц Битовая глубина : 16 бит Метод сжатия : С потерями Размер потока : 403 Мбайт (5%) Заголовок : AC3 / 5.1 ch / 640 kbps / Русский дубляж, BD CEE Язык : Russian Default : Да Forced : НетАудио #2: Идентификатор : 3 Формат : AC-3 Формат/Информация : Audio Coding 3 Расширение режима : CM (complete main) Параметр Endianness формата : Big Идентификатор кодека : A_AC3 Продолжительность : 1 ч. 27 м. Вид битрейта : Постоянный Битрейт : 640 Кбит/сек Каналы : 6 каналов Расположение каналов : Front: L C R, Side: L R, LFE Частота : 48,0 КГц Битовая глубина : 16 бит Метод сжатия : С потерями Размер потока : 403 Мбайт (5%) Заголовок : AC3 / 5.1 ch / 640 kbps / Английский original, BD CEE Язык : English Default : Нет Forced : Нет 7,85 Gb 17 1 29 января 2016 15:55 Охотники на ведьм / Hansel & Gretel: Witch Hunters (2013) BDRip-AVC от MediaClub | Theatrical Cut.torrent   [Информация о файле (нажмите для просмотра)] Перевод: ДублированныйКачество: BDRip (AVC)Видео: MPEG-4 AVC, 2437 Кбит/c, 1024x428, 23.976 кадр/cАудио #1: Русский (АС3, 6 ch, 448 Кбит/c)СпектрАудио #2: Английский (АС3, 6 ch, 448 Кбит/c)Субтитры: РусскиеВидео: Идентификатор : 1 Формат : AVC Формат/Информация : Advanced Video Codec Профиль формата : [email protected] Параметр CABAC формата : Да Параметр ReFrames формата : 8 кадров Идентификатор кодека : V_MPEG4/ISO/AVC Продолжительность : 1 ч. 27 м. Битрейт : 2437 Кбит/сек Ширина : 1024 пикселя Высота : 428 пикселей Соотношение сторон : 2,40:1 Режим частоты кадров : Постоянный Частота кадров : 23,976 кадра/сек Цветовое пространство : YUV Субдискретизация насыщенности : 4:2:0 Битовая глубина : 8 бит Тип развёртки : Прогрессивная Бит/(Пиксели*Кадры) : 0.232 Размер потока : 1,46 Гбайт (71%) Заголовок : Охотники на ведьм (MediaClub-kaspr) Библиотека кодирования : x264 core 130 r2273 b3065e6 Настройки программы : cabac=1 / ref=8 / deblock=1:-3:-3 / analyse=0x3:0x133 / me=umh / subme=11 / psy=1 / psy_rd=1.00:0.10 / mixed_ref=1 / me_range=32 / chroma_me=1 / trellis=2 / 8x8dct=1 / cqm=0 / deadzone=21,11 / fast_pskip=0 / chroma_qp_offset=-3 / threads=12 / lookahead_threads=1 / sliced_threads=0 / nr=0 / decimate=0 / interlaced=0 / bluray_compat=0 / constrained_intra=0 / bframes=6 / b_pyramid=2 / b_adapt=2 / b_bias=0 / direct=3 / weightb=1 / open_gop=0 / weightp=2 / keyint=240 / keyint_min=22 / scenecut=40 / intra_refresh=0 / rc=2pass / mbtree=0 / bitrate=2437 / ratetol=1.0 / qcomp=0.60 / qpmin=0 / qpmax=69 / qpstep=4 / cplxblur=20.0 / qblur=0.5 / ip_ratio=1.40 / pb_ratio=1.30 / aq=1:1.00 Default : Да Forced : НетАудио #1: Идентификатор : 2 Формат : AC-3 Формат/Информация : Audio Coding 3 Расширение режима : CM (complete main) Параметр Endianness формата : Big Идентификатор кодека : A_AC3 Продолжительность : 1 ч. 27 м. Вид битрейта : Постоянный Битрейт : 448 Кбит/сек Каналы : 6 каналов Расположение каналов : Front: L C R, Side: L R, LFE Частота : 48,0 КГц Битовая глубина : 16 бит Метод сжатия : С потерями Размер потока : 282 Мбайт (13%) Заголовок : Дубляж Язык : Russian Default : Да Forced : ДаАудио #2: Идентификатор : 3 Формат : AC-3 Формат/Информация : Audio Coding 3 Расширение режима : CM (complete main) Параметр Endianness формата : Big Идентификатор кодека : A_AC3 Продолжительность : 1 ч. 27 м. Вид битрейта : Постоянный Битрейт : 448 Кбит/сек Каналы : 6 каналов Расположение каналов : Front: L C R, Side: L R, LFE Частота : 48,0 КГц Битовая глубина : 16 бит Метод сжатия : С потерями Размер потока : 282 Мбайт (13%) Заголовок : Оригинал Язык : English Default : Нет Forced : Нет 2,05 Gb 14 2 29 января 2016 15:55 Охотники на ведьм / Hansel & Gretel: Witch Hunters (2013) Blu-Ray 1080p | Theatrical Cut | 3D-Video.torrent   [Информация о файле (нажмите для просмотра)] Качество: Вlu-Ray (1080р)Видео: MPEG-4 AVC, 30981 Кбит/с, 1920x1080Аудио: Русский (DTS-HD MA, 6 ch, 3601 Кбит/с), английский (True HD, 6 ch, 3526 Кбит/с), французский, португальский, английский (AC3, 6 ch, 640 Кбит/с)Перевод: ДублированныйСубтитры: Русские, английские, французские, португальские 38,94 Gb 9 2

    gig-torrent.net

    Скачать фильм Охотники на ведьм в 3D через торрент в хорошем качестве бесплатно 1080p

    ОбщееУникальный идентификатор : 192746896218989518292679785357955090487 (0x9101B3B07A469A86AEBB4962633CC837)Полное имя : E:Hansel.&.Gretel.Witch.Hunters.3D(Crop)(Anaglyph).mkvФормат : MatroskaВерсия формата : Version 4 / Version 2Размер файла : 5,47 ГбайтПродолжительность : 1 ч. 27 м.Общий поток : 8897 Кбит/секНазвание фильма : Охотники на ведьм / Hansel&Gretel.WitchHunters.3D(Crop).(Anaglyph)Дата кодирования : UTC 2013-07-31 08:35:15Программа кодирования : mkvmerge v6.2.0 ('Promised Land') built on Apr 28 2013 12:22:01Библиотека кодирования : libebml v1.3.0 + libmatroska v1.4.0

    ВидеоИдентификатор : 1Формат : AVCФормат/Информация : Advanced Video CodecПрофиль формата : [email protected]Параметр CABAC формата : ДаПараметр ReFrames формата : 4 кадраИдентификатор кодека : V_MPEG4/ISO/AVCПродолжительность : 1 ч. 27 м.Битрейт : 8004 Кбит/секШирина : 1920 пикселейВысота : 1072 пикселяСоотношение сторон : 16:9Частота кадров : 23,976 кадра/секЦветовое пространство : YUVСубдискретизация насыщенности : 4:2:0Битовая глубина : 8 битТип развёртки : ПрогрессивнаяБит/(Пиксели*Кадры) : 0.162Размер потока : 4,81 Гбайт (88%)Заголовок : Hansel&Gretel.WitchHunters.3D(Crop).(Anaglyph).mkvБиблиотека кодирования : x264 core 130 r2273 b3065e6Настройки программы : cabac=1 / ref=3 / deblock=1:0:0 / analyse=0x3:0x113 / me=hex / subme=2 / psy=1 / psy_rd=1.00:0.00 / mixed_ref=1 / me_range=16 / chroma_me=1 / trellis=0 / 8x8dct=1 / cqm=0 / deadzone=21,11 / fast_pskip=1 / chroma_qp_offset=0 / threads=1 / lookahead_threads=1 / sliced_threads=0 / nr=0 / decimate=1 / interlaced=0 / bluray_compat=0 / constrained_intra=0 / bframes=3 / b_pyramid=2 / b_adapt=1 / b_bias=0 / direct=1 / weightb=1 / open_gop=0 / weightp=2 / keyint=240 / keyint_min=24 / scenecut=40 / intra_refresh=0 / rc_lookahead=40 / rc=abr / mbtree=1 / bitrate=8004 / ratetol=1.0 / qcomp=0.60 / qpmin=0 / qpmax=69 / qpstep=4 / ip_ratio=1.40 / aq=1:1.00Язык : EnglishОсновные цвета : BT.709-5, BT.1361, IEC 61966-2-4, SMPTE RP177Характеристики трансфера : BT.709-5, BT.1361Коэффициенты матрицы : BT.709-5, BT.1361, IEC 61966-2-4 709, SMPTE RP177

    Аудио #1Идентификатор : 2Формат : AC-3Формат/Информация : Audio Coding 3Расширение режима : CM (complete main)Идентификатор кодека : A_AC3Продолжительность : 1 ч. 27 м.Вид битрейта : ПостоянныйБитрейт : 448 Кбит/секКаналы : 6 каналовРасположение каналов : Front: L C R, Side: L R, LFEЧастота : 48,0 КГцБитовая глубина : 16 битМетод сжатия : С потерямиРазмер потока : 282 Мбайт (5%)Заголовок : Dub (AC3 Dolby Digital, 48 KHz, 448 kbps)Язык : Russian

    Аудио #2Идентификатор : 3Формат : AC-3Формат/Информация : Audio Coding 3Расширение режима : CM (complete main)Идентификатор кодека : A_AC3Продолжительность : 1 ч. 27 м.Вид битрейта : ПостоянныйБитрейт : 448 Кбит/секКаналы : 6 каналовРасположение каналов : Front: L C R, Side: L R, LFEЧастота : 48,0 КГцБитовая глубина : 16 битМетод сжатия : С потерямиРазмер потока : 282 Мбайт (5%)Заголовок : AC3 Dolby Digital, 48 KHz, 448 kbpsЯзык : English

    piratbit.ru

    Скачать Охотники на ведьм через торрент

    Категория: Фильмы 2858 0 Торрент добавлен: 15-04-2015 Рейтинг:

    Продолжительность: 01:20:41 Жанр: ужасы, фэнтези, боевик Режиссер: Томми Виркола В ролях: Джереми Реннер, Джемма Артертон, Фамке Янссен, Зои Белл, Петер Стормаре, Томас Манн, Ингрид Болсай Бердал, Робин Аткин Даунс, Дерек Мирс, Моник Гэндертон

    Гензель с Гретель знакомы давным-давно, они прошли через такое, которое многим даже и не снилось в страшном сне, они могли уничтожить злую ведьму и при этом остаться целыми и невредимыми. Все это они совершали, чтобы на свои родные земли вернуть мир и спокойствие. Они не когда не думали, что на их пути может стать такое…

    Трейлер к фильму Охотники на ведьм

    Охотники на ведьм скачать торрент

    Видео: MPEG-4 AVC, 30981 Кбит/с, 1920x1080Аудио: Русский (DTS-HD MA, 6 ch, 3601 Кбит/с), английский (True HD, 6 ch, 3526 Кбит/с)Дублированный

    38,94 Gb

    Качество: BDRemux 1080p Видео: MPEG-4 AVC, 29744 Кбит/с, 1920x1080Аудио: Русский (АС3, 6 ch, 448 Кбит/с), английский (True HD, 6 ch, 3514 Кбит/с)Дублированный [чистый звук]

    22,92 Gb

    Качество: BDRip [1080p]Видео: 1920x800, 6 662 Кбит/сек, 23,976 кадр/сек, AVC, x264, 2,40:1, 0.181 Бит/[Пиксели*Кадры], 2passАудио: AC-3, 448 Кбит/сек, 6 канала(ов), 48,0 КГц Дублированный [чистый звук]

    4,37 Gb

    Кодек: XviDКачество: HDRipВидео: 720x304 (2.37:1), 23.976 fps, XviD build 64 ~1919 kbps avg, 0.37 bit/pixelЗвук: 48 kHz, AC3 Dolby Digital, 3/2 (L,C,R,l,r) + LFE ch, ~448.00 kbps avgДублированный [Чистый звук] 1,46 Gb

    скачать

    Вы находитесь на странице, где можете совершенно бесплатно скачать фильм Охотники на ведьм в хорошем качестве через торрент, в любом формате, который больше всего вам на данный момент подходит. Скачивание осуществляется через торрент, что означает максимально высокую скорость загрузки. Желаем Вам приятного просмотра!. Не забудь поделиться своими впечатлениями после того как посмотришь фильм Охотники на ведьм.

    Информация Посетители, находящиеся в группе Гости, не могут оставлять комментарии к данной публикации.

    psp-gu.ru


    Смотрите также