Скачать фильм охотники за разумом в хорошем качестве через торрент


Охотники за разумом (2004) HD 1080p скачать торрент в хорошем качестве

Информация о фильмеНазвание: Охотники за разумомОригинальное название: MindhuntersГод выхода: 2004Жанр: триллер, криминал, детективРежиссер: Ренни ХарлинВ ролях: Кэтрин Моррис, Джонни Ли Миллер, ЭлЭл Кул Джей, Кристиан Слэйтер, Клифтон Коллинз мл., Вэл Килмер, Эйон Бэйли, Уилл Кемп, Патрисия Веласкес, Кассандра Белл

О фильме: На удаленном острове семь будущих агентов ФБР проходят решающий тест, чтобы попасть в элитный отдел «охотников за разумом» — людей, по мельчайшим уликам и любым сведениям составляющих психологические профили опаснейших преступников.

Но испытание становится слишком реальным, когда в их группе оказывается настоящий серийный убийца. Успеют ли оставшиеся в живых выявить маньяка в своих рядах, пока он не расправился с каждым поодиночке?

Страна: США, Нидерланды, Великобритания, ФинляндияСтудия: Avenue Pictures Productions, Dimension Films, Weed Road PicturesПродолжительность: 01:45:52Перевод: Профессиональный (дублированный) R5 + Профессиональный (двухголосый, закадровый) Tycoon Studio + Профессиональный (многоголосый, закадровый) + Авторский (одноголосый, закадровый) А.Гаврилов

ФайлКачество: WEB-DL 1080pФормат: MatroskaВидео: 1920x1080 at 23.976 fps, MPEG-4 AVC, ~9293 kbps avgAудио#1: Russian: 48 kHz, AC3, 3/2 (L,C,R,l,r) + LFE ch, ~448 kbps |Дубляж, R5|Аудио#2: Russian: 48 kHz, DTS, 3/2 (L,C,R,l,r) + LFE ch, ~1509 kbps |Многоголосый закадровый|Aудио#3: Russian: 48 kHz, AC3, 3/2 (L,C,R,l,r) + LFE ch, ~448 kbps |Двухголосый закадровый, Tycoon Studio|Аудио#4: Russian: 48 kHz, DTS, 3/2 (L,C,R,l,r) + LFE ch, ~1509 kbps |Авторский, А.Гаврилов|Aудио#5: English: 48 kHz, DTS, 3/2 (L,C,R,l,r) + LFE ch, ~1509 kbpsАудио#6: English: 48 kHz, EAC3, 2/0 (L,R) ch, ~224 kbps avg |Amazon|Субтитры: Russian, English

***Релиз - spartanec163.

В картину приглашали Райана Филиппа, Риз Уизерспун, Кристофера Уокена, Мартина Шина и Гэри Бьюзи.Специально для фильма в Лондоне были подготовлены 450 визуальных эффектов. 10 художников работали над ними в течение девяти месяцев.Консультантом выступил Джеймс Гринлиф, настоящий агент ФБР.Для фильма сняли сразу несколько финалов. С конечным вариантом определились только после тест-просмотров.Слэйтер играет героя по имени J. D. Также звали его персонажа в фильме «Смертельное влечение» (1988).В сценах в конце фильма с участием персонажа по имени Винс (его попытка найти патроны к пистолету), в каждом последующем кадре пистолет в руках Винса таинственным образом меняется — из Beretta 9mm в Glock 17 и обратно.В начале фильма один из героев выключает люминесцентный светильник, выкрутив из него стартер. На самом деле после этого лампа должна была продолжать гореть.

http://screenshotcomparison.com/comparison/216518ОбщееУникальный идентификатор : 228514697764106983923498005756344660206 (0xABEA54755A1BFFA28754096472F1F0EE)Полное имя : Mindhunters.2004.Open.Matte.1080p.WEB-DL.4xRus.Eng.mkvФормат : MatroskaВерсия формата : Version 4 / Version 2Размер файла : 11,3 ГбайтПродолжительность : 1 ч. 45 м.Режим общего битрейта : ПеременныйОбщий поток : 15,2 Мбит/секНазвание фильма : Release by spartanec163Дата кодирования : UTC 2017-07-22 11:39:52Программа кодирования : mkvmerge v8.3.0 ('Over the Horizon') 64bitБиблиотека кодирования : libebml v1.3.1 + libmatroska v1.4.2Attachment : Yes

ВидеоИдентификатор : 1Формат : AVCФормат/Информация : Advanced Video CodecПрофиль формата : [email protected]Параметр CABAC формата : ДаПараметр ReFrames формата : 4 кадраИдентификатор кодека : V_MPEG4/ISO/AVCПродолжительность : 1 ч. 45 м.Вид битрейта : ПеременныйБитрейт : 9293 Кбит/секМаксимальный битрейт : 15,0 Мбит/секШирина : 1920 пикселейВысота : 1080 пикселейСоотношение сторон : 16:9Режим частоты кадров : ПостоянныйЧастота кадров : 23,976 кадра/секЦветовое пространство : YUVСубдискретизация насыщенности : 4:2:0Битовая глубина : 8 битТип развёртки : ПрогрессивнаяБит/(Пиксели*Кадры) : 0.187Размер потока : 6,88 Гбайт (61%)Заголовок : WEB-DL 1080p (Amazon)Язык : EnglishDefault : ДаForced : НетОсновные цвета : BT.709Характеристики трансфера : BT.709Коэффициенты матрицы : BT.709

Аудио #1Идентификатор : 2Формат : AC-3Формат/Информация : Audio Coding 3Расширение режима : CM (complete main)Параметр Endianness формата : BigИдентификатор кодека : A_AC3Продолжительность : 1 ч. 45 м.Вид битрейта : ПостоянныйБитрейт : 448 Кбит/секКаналы : 6 каналовРасположение каналов : Front: L C R, Side: L R, LFEЧастота : 48,0 КГцБитовая глубина : 16 битМетод сжатия : С потерямиРазмер потока : 340 Мбайт (3%)Заголовок : AC3 5.1 448Kbps (Дубляж)Язык : RussianDefault : ДаForced : Нет

Аудио #2Идентификатор : 3Формат : DTSФормат/Информация : Digital Theater SystemsРежим : 16Параметр Endianness формата : BigИдентификатор кодека : A_DTSПродолжительность : 1 ч. 45 м.Вид битрейта : ПостоянныйБитрейт : 1509 Кбит/секКаналы : 6 каналовРасположение каналов : Front: L C R, Side: L R, LFEЧастота : 48,0 КГцБитовая глубина : 24 битМетод сжатия : С потерямиРазмер потока : 1,12 Гбайт (10%)Заголовок : DTS 5.1 1510Kbps (Профессиональный, многоголосый)Язык : RussianDefault : НетForced : Нет

Аудио #3Идентификатор : 4Формат : AC-3Формат/Информация : Audio Coding 3Расширение режима : CM (complete main)Параметр Endianness формата : BigИдентификатор кодека : A_AC3Продолжительность : 1 ч. 45 м.Вид битрейта : ПостоянныйБитрейт : 448 Кбит/секКаналы : 6 каналовРасположение каналов : Front: L C R, Side: L R, LFEЧастота : 48,0 КГцБитовая глубина : 16 битМетод сжатия : С потерямиРазмер потока : 340 Мбайт (3%)Заголовок : AC3 5.1 448Kbps (Профессиональный, двухголосый - Tycoon)Язык : RussianDefault : НетForced : Нет

Аудио #4Идентификатор : 5Формат : DTSФормат/Информация : Digital Theater SystemsРежим : 16Параметр Endianness формата : BigИдентификатор кодека : A_DTSПродолжительность : 1 ч. 45 м.Вид битрейта : ПостоянныйБитрейт : 1509 Кбит/секКаналы : 6 каналовРасположение каналов : Front: L C R, Side: L R, LFEЧастота : 48,0 КГцБитовая глубина : 24 битМетод сжатия : С потерямиРазмер потока : 1,12 Гбайт (10%)Заголовок : DTS 5.1 1510Kbps (Авторский, одноголосый - А. Гаврилов)Язык : RussianDefault : НетForced : Нет

Аудио #5Идентификатор : 6Формат : DTSФормат/Информация : Digital Theater SystemsРежим : 16Параметр Endianness формата : BigИдентификатор кодека : A_DTSПродолжительность : 1 ч. 45 м.Вид битрейта : ПостоянныйБитрейт : 1509 Кбит/секКаналы : 6 каналовРасположение каналов : Front: L C R, Side: L R, LFEЧастота : 48,0 КГцБитовая глубина : 24 битМетод сжатия : С потерямиРазмер потока : 1,12 Гбайт (10%)Заголовок : DTS 5.1 1510Kbps (Оригинал, BluRay)Язык : EnglishDefault : НетForced : Нет

Аудио #6Идентификатор : 7Формат : E-AC-3Формат/Информация : Audio Coding 3Параметр Endianness формата : BigИдентификатор кодека : A_EAC3Продолжительность : 1 ч. 45 м.Вид битрейта : ПостоянныйБитрейт : 224 Кбит/секКаналы : 2 каналаРасположение каналов : Front: L RЧастота : 48,0 КГцМетод сжатия : С потерямиРазмер потока : 170 Мбайт (1%)Заголовок : E-AC3 2.0 224Kbps (Оригинал, Amazon)Язык : EnglishDefault : НетForced : Нет

Текст #1Идентификатор : 8Формат : UTF-8Идентификатор кодека : S_TEXT/UTF8Идентификатор кодека/Информация : UTF-8 Plain TextЯзык : RussianDefault : НетForced : Нет

Текст #2Идентификатор : 9Формат : UTF-8Идентификатор кодека : S_TEXT/UTF8Идентификатор кодека/Информация : UTF-8 Plain TextЗаголовок : SDHЯзык : EnglishDefault : НетForced : Нет

1 12 24-07-2017, 22:30 11.29 GB Связанные раздачи

rutorg2.ru

Скачать фильм Охотники за разумом через торрент в хорошем качестве бесплатно HDTVRip

Размер: 1.84 GB | Добавлен: 6 лет 10 мес. назад | Торрент скачан:60 раз
Реклама Дарим 3000 рублей за регистрацию, не упусти свой шанс получить шикарный бонус!!!

14-12-2010 08:35 Охотники за разумом Скачать торрент  

Охотники за разумом / Mindhunters«Они не умеют читать мысли. Но могут узнать об убийце все.» Год выпуска: 2004Страна: СШАЖанр: боевик, ужасы, триллерПродолжительность: 102 минПеревод: Профессиональный (полное дублирование) + Оригинальная дорожкаРусские субтитры: нетРежиссер: Ренни Харлин /Renny Harlin/В ролях: Иайон Бэйли /Eion Bailey/, Клифтон Коллинз мл. /Clifton Collins Jr./, Эл Эл Кул Джей /LL Cool J/, Уилл Кемп /Will Kemp/, Вэл Килмер /Val Kilmer/, Джонни Ли Миллер /Jonny Lee Miller/, Кристиан Слейтер /Christian Slater/

Описание: Ученики секретной психологической подготовки ФБР выезжают на учения в леса необитаемого острова. В ходе учений отважные воины начинают пропадать. Страшен тот факт – что они одни на острове. Как им противостоять этому невидимому убийце, который знает каждое движение, каждую слабость, каждый страх всех участников этой боевой операции? Часы тикают, время бежит...

Качество: HDTVRip (Исходник)Формат: AVIВидео кодек: XviDАудио кодек: AC3Видео: 720x304 (2.37:1), 23.976 fps, XviD build 47 ~1574 kbps avg, 0.30 bit/pixelАудио #1: 48 kHz, AC3 Dolby Digital, 6 ch, ~448.00 kbps avg - ДубляжАудио #2: 48 kHz, AC3 Dolby Digital, 3/2 (L,C,R,l,r) + LFE ch, ~448.00 kbps avg - Оригинал Скачать Охотники за разумом через торрент http://i13.fastpic.ru/big/2010/1214/fd/672292dd5256fe25c7b522402267c6fd.jpg Скачать фильм Охотники за разумом через торрент бесплантно в хорошем качестве Описание: Ученики секретной психологической подготовки ФБР выезжают на учения в леса необитаемого острова. В ходе учений отважные воины ... 2010-12-14 08:35 5 10 13

Loading...

Loading...

Рекламный пират

14-12-2010 08:37 Охотники за разумом Скачать торрент  

не плохой фильм.

14-12-2010 10:00 Охотники за разумом Скачать торрент  

какие леса - ты сам-то его видел?А фильм Отличный. Спасибо.

14-12-2010 11:17 Охотники за разумом Скачать торрент  

там не в леса они въехали на учение а в городок! если это тот фильм который я думаю! там еще их по одному начал убивать их друган(это в конце выеснилось)!

27-08-2011 21:16 Охотники за разумом Скачать торрент  

Мне вот тока интересно я его скачаю когда нибудь скорость на нуле стоит недельки две как начал???? ) )

Дорогой пользователь! Огромная просьба, поблагодарите релизера, оцените раздачу и оставьте свои комментарий, если Вы скачали Охотники за разумом через торрент бесплатно! Внесите свою лепту в развитие PiratBit!

Комментировать посты могут только пользователи прошедшие не сложную регистрацию

Охотники за разумом через торрент Скачать бесплатно Охотники за разумом Охотники за разумом скачать торрент Охотники за разумом смотреть онлайн Cкачать фильм Охотники за разумом бесплатно Охотники за разумом скачать торрент в хорошем качестве Охотники за разумом смотреть онлайн бесплатно в хорошем качестве

Вы не можете начинать темыВы не можете отвечать на сообщенияВы не можете редактировать свои сообщенияВы не можете удалять свои сообщенияВы не можете голосовать в опросахВы не можете прикреплять файлы к сообщениямВы можете скачивать файлы

piratbit.ru

Скачать фильм Охотники за разумом через торрент в хорошем качестве бесплатно 720p

GeneralUnique ID : 198735913522900454694416004975196785837 (0x9583250A43FE559491734262103E4CAD)Complete name : D:\Ohotniki.Za.Razumom.2004.DUAL.BDRip.720p.x264.AC3.-HQ-ViDEO.mkvFormat : MatroskaFormat version : Version 2File size : 4.80 GiBDuration : 1h 45mnOverall bit rate : 6 487 KbpsMovie name : Mindhunters (2004) BDRip [720p] / by HQ-ViDEOEncoded date : UTC 2012-09-10 09:55:16Writing application : mkvmerge v5.6.0 ('Kenya Kane') built on May 27 2012 16:44:04Writing library : libebml v1.2.3 + libmatroska v1.3.0

VideoID : 1Format : AVCFormat/Info : Advanced Video CodecFormat profile : [email protected] settings, CABAC : YesFormat settings, ReFrames : 9 framesCodec ID : V_MPEG4/ISO/AVCDuration : 1h 45mnBit rate : 5 399 KbpsWidth : 1 280 pixelsHeight : 548 pixelsDisplay aspect ratio : 2.35:1Frame rate mode : ConstantFrame rate : 23.976 fpsColor space : YUVChroma subsampling : 4:2:0Bit depth : 8 bitsScan type : ProgressiveBits/(Pixel*Frame) : 0.321Stream size : 3.90 GiB (81%)Title : Encode by EbPWriting library : x264 core 112 r1867 22bfd31Encoding settings : cabac=1 / ref=9 / deblock=1:-3:-3 / analyse=0x3:0x133 / me=umh / subme=10 / psy=1 / psy_rd=1.20:0.00 / mixed_ref=1 / me_range=64 / chroma_me=1 / trellis=2 / 8x8dct=1 / cqm=0 / deadzone=21,11 / fast_pskip=0 / chroma_qp_offset=-2 / threads=18 / sliced_threads=0 / nr=0 / decimate=0 / interlaced=0 / constrained_intra=0 / bframes=9 / b_pyramid=2 / b_adapt=2 / b_bias=0 / direct=3 / weightb=1 / open_gop=0 / weightp=2 / keyint=250 / keyint_min=23 / scenecut=40 / intra_refresh=0 / rc=2pass / mbtree=0 / bitrate=5399 / ratetol=1.0 / qcomp=0.60 / qpmin=0 / qpmax=51 / qpstep=4 / cplxblur=20.0 / qblur=0.5 / ip_ratio=1.40 / pb_ratio=1.30 / aq=2:0.50Language : EnglishDefault : YesForced : No

Audio #1ID : 2Format : AC-3Format/Info : Audio Coding 3Mode extension : CM (complete main)Format settings, Endianness : BigCodec ID : A_AC3Duration : 1h 45mnBit rate mode : ConstantBit rate : 448 KbpsChannel(s) : 6 channelsChannel positions : Front: L C R, Side: L R, LFESampling rate : 48.0 KHzBit depth : 16 bitsCompression mode : LossyStream size : 339 MiB (7%)Title : DUBLanguage : RussianDefault : YesForced : No

Audio #2ID : 3Format : AC-3Format/Info : Audio Coding 3Mode extension : CM (complete main)Format settings, Endianness : BigCodec ID : A_AC3Duration : 1h 45mnBit rate mode : ConstantBit rate : 640 KbpsChannel(s) : 6 channelsChannel positions : Front: L C R, Side: L R, LFESampling rate : 48.0 KHzBit depth : 16 bitsCompression mode : LossyStream size : 485 MiB (10%)Language : EnglishDefault : NoForced : No

Text #1ID : 4Format : UTF-8Codec ID : S_TEXT/UTF8Codec ID/Info : UTF-8 Plain TextLanguage : RussianDefault : NoForced : No

Text #2ID : 5Format : UTF-8Codec ID : S_TEXT/UTF8Codec ID/Info : UTF-8 Plain TextLanguage : EnglishDefault : NoForced : No

piratbit.ru

1 / Серии 1-5 из 10 [2017 WEBRip] [MVO] скачать через торрент

Раздают: 4 [ 111 KB/s ]
Размер: 3.29 GB | Добавлен: 5 д. назад | Торрент скачан:51 раз
Реклама Дарим 3000 рублей за регистрацию, не упусти свой шанс получить шикарный бонус!!!

18-10-2017 14:33 Охотник за разумом Скачать торрент  

Охотник за разумом / Mindhunter Год выпуска • 2017Страна • СШАЖанр • драма, криминал, триллерПродолжительность 1x• ~ 01:00:00Перевод• Профессиональный (многоголосый, закадровый) "Newstudio"Субтитры: нет

Режиссер • Дэвид Финчер, Эндрю Дуглас, Азиф Кападиа

В ролях • Джонатан Грофф, Холт МакКэллани, Анна Торв, Коттер Смит, Сонни Валиченти, Ханна Гросс, Камерон Бриттон, Алекс Морф, Стэйси Рока, Джо Таттл и др.

Описание • Действие сериала происходит в 1979 году. В центре сюжета два агента ФБР, которые опрашивают находящихся в заключении серийных убийц с целью понимания их образа мыслей, а также раскрытия текущих преступлений.

Качество: WEBRipФормат: AVIВидео: XviD, ~ 1400 Кбит/с, 720х320, 23.976 fpsАудио: 48 kHz, MP3, 2 Ch, 128 kbps - MVOАудио: 48 kHz, MP3, 2 Ch, 128 kbps - ENG

GeneralComplete name : E:\Mindhunter.s01.WEBDLRip.NewStudio\Mindhunter.s01e01.WEBDLRip.NewStudio.aviFormat : AVIFormat/Info : Audio Video InterleaveFile size : 700 MiBDuration : 59mn 44sOverall bit rate : 1 638 KbpsWriting application : VirtualDubMod 1.5.10.2 (build 2540/release)Writing library : VirtualDubMod build 2540/release

VideoID : 0Format : MPEG-4 VisualFormat profile : Advanced [email protected] settings, BVOP : 2Format settings, QPel : YesFormat settings, GMC : No warppointsFormat settings, Matrix : Default (MPEG)Muxing mode : Packed bitstreamCodec ID : XVIDCodec ID/Hint : XviDDuration : 59mn 44sBit rate : 1 307 KbpsWidth : 720 pixelsHeight : 320 pixelsDisplay aspect ratio : 2.25:1Frame rate : 23.976 fpsColor space : YUVChroma subsampling : 4:2:0Bit depth : 8 bitsScan type : ProgressiveCompression mode : LossyBits/(Pixel*Frame) : 0.237Stream size : 558 MiB (80%)Writing library : XviD 73

Audio #1ID : 1Format : MPEG AudioFormat version : Version 1Format profile : Layer 3Mode : Joint stereoMode extension : MS StereoCodec ID : 55Codec ID/Hint : MP3Duration : 59mn 44sBit rate mode : ConstantBit rate : 128 KbpsChannel(s) : 2 channelsSampling rate : 48.0 KHzCompression mode : LossyStream size : 54.7 MiB (8%)Alignment : Aligned on interleaves

Audio #2ID : 2Format : MPEG AudioFormat version : Version 1Format profile : Layer 3Mode : Joint stereoCodec ID : 55Codec ID/Hint : MP3Duration : 59mn 44sBit rate mode : ConstantBit rate : 128 KbpsChannel(s) : 2 channelsSampling rate : 48.0 KHzCompression mode : LossyStream size : 54.7 MiB (8%)Alignment : Aligned on interleavesWriting library : LAME3.99rEncoding settings : -m j -V 4 -q 2 -lowpass 17 -b 128

Когда раздача ведётся путём добавления новых серий, при каждом добавлении создётся новый торрент. Чтобы начать докачку новой серии, пользователям необходимо сделать следующее:(1) остановить скачивание,(2) удалить старый торрент у себя из клиента (старые серии удалять не надо),(3) скачать новый торрент и запустить его у себя в клиенте вместо старого, при этом указать клиенту путь в старую папку, куда и должно происходить скачивание новых серий.Ваш клиент при этом должен произвести хеширование (проверку) старой папки (если не производит сам - помогите ему сделать это), и будет докачивать только те серии, которых у вас ещё нет. Старые серии при этом не удаляются, а продолжают раздаваться!Eсли вы уже удалили старые серии, то предотвратить повторную закачку старых серий можно, отжав галочку в соответсвующих местах при запуске нового торрента. По возможности, желательно не удалять старые серии как можно дольше, чтобы релизёр не столько продолжал раздавать старые серии, а смог сконцентрироваться на новых.

Скачать Охотник за разумом через торрент http://i91.fastpic.ru/big/2017/1018/b4/ca184c092c9e60d4fce7d29e195553b4.jpg Скачать фильм Охотник за разумом через торрент бесплантно в хорошем качестве Описание • Действие сериала происходит в 1979 году. В центре сюжета два агента ФБР, которые опрашивают находящихся в заключении серийных ... 2017-10-20 11:15 10 10 3

Loading...

Loading...

Рекламный пират

20-10-2017 11:16 Охотник за разумом Скачать торрент  

20-10-2017 15:50 Охотник за разумом Скачать торрент  

Вот это реально нежданчик!!!

Дорогой пользователь! Огромная просьба, поблагодарите релизера, оцените раздачу и оставьте свои комментарий, если Вы скачали Охотник за разумом через торрент бесплатно! Внесите свою лепту в развитие PiratBit!

Комментировать посты могут только пользователи прошедшие не сложную регистрацию

Охотник за разумом через торрент Скачать бесплатно Охотник за разумом Охотник за разумом скачать торрент Охотник за разумом смотреть онлайн Cкачать фильм Охотник за разумом бесплатно Охотник за разумом скачать торрент в хорошем качестве Охотник за разумом смотреть онлайн бесплатно в хорошем качестве

Вы не можете начинать темыВы не можете отвечать на сообщенияВы не можете редактировать свои сообщенияВы не можете удалять свои сообщенияВы не можете голосовать в опросахВы не можете прикреплять файлы к сообщениямВы можете скачивать файлы

piratbit.ru

1 / Серии 1-10 из 10 [2017 WEBRip 1080p] MVO [BaibaKo] скачать через торрент

Раздают: 13 [ 0 KB/s ] Качают: 1 [ 0 KB/s ]
Размер: 8.76 GB | Добавлен: 9 д. назад | Торрент скачан:106 раз
Реклама Дарим 3000 рублей за регистрацию, не упусти свой шанс получить шикарный бонус!!!

15-10-2017 00:09 Охотник за разумом Скачать торрент  

Охотник за разумом / Mindhunter
  • Год выпуска: 2017
  • Страна: США
  • Жанр: Триллер, драма, криминал
  • Продолжительность: ~ 00:54:00 (Серия)
  • Перевод: Профессиональный многоголосый [BaibaKo]
  • Режиссер: Дэвид Финчер, Эндрю Дуглас, Азиф Кападиа
  • В ролях: Джонатан Грофф, Холт МакКэллани, Анна Торв, Коттер Смит, Сонни Валиченти, Ханна Гросс, Камерон Бриттон, Алекс Морф, Стэйси Рока, Джо Таттл
  • Действие сериала происходит в 1979 году. В центре сюжета два агента ФБР, которые опрашивают находящихся в заключении серийных убийц с целью понимания их образа мыслей, а также раскрытия текущих преступлений.
  • Рейтинг:

  • Качество: WEBRip 1080p
  • Формат: :MKV
  • Видео кодек: AVC
  • Аудио кодек: AC3
  • Видео: 2262 Кбит/сек, 1920*1080 (16:9), в 23,976 (24000/1001) кадра/сек, AVC
  • Аудио №1: русский 384 Кбит/сек, 48,0 КГц, 16 бит, 6 каналов, AC-3 |[BaibaKo]|
  • Аудио №2: английский 384 Кбит/сек, 48,0 КГц, 16 бит, 6 каналов, AC-3
  • Релиз от: GEKADOL

    Внимание! Раздача ведётся путём добавления новых серий; при каждом добавлении создаётся новый торрент. Чтобы начать докачку новой серии, пользователям необходимо сделать следующее:(1) остановить скачивание,(2) удалить старый торрент у себя из клиента (старые серии удалять не надо),(3) скачать новый торрент и запустить его у себя в клиенте вместо старого, при этом указать клиенту путь в старую папку куда и должно происходить скачивание новых серий.Ваш клиент при этом должен произвести хеширование (проверку) старой папки (если не производит сам - помогите ему сделать это), и будет докачивать только те серии которых у вас ещё нет. Старые серии при этом не удаляются, а продолжают раздаваться!Eсли вы уже удалили старые серии, то предотвратить повторную закачку старых серий можно, отжав галочку в соответствующих местах при запуске нового торрента. По возможности, желательно не удалять старые серии как можно дольше чтобы релизёр не столько продолжал раздавать старые серии, а смог сконцентрироваться на новых.

    ОбщееУникальный идентификатор : 206604297784436369820658224210403702590 (0x9B6E8A55F6EA3702BC11BB91989CB73E)Полное имя : F:\Охотник за разумом (Mindhunter)\Mindhunter.s01e01.HD1080p.WEBRip.Rus.Eng.BaibaKo.tv.mkvФормат : MatroskaВерсия формата : Version 4 / Version 2Размер файла : 1,21 ГбайтПродолжительность : 57 м. 7 с.Режим общего битрейта : ПеременныйОбщий поток : 3032 Кбит/секДата кодирования : UTC 2017-10-14 23:42:42Программа кодирования : mkvmerge v14.0.0 ('Flow') 64bitБиблиотека кодирования : libebml v1.3.4 + libmatroska v1.4.5

    ВидеоИдентификатор : 1Формат : AVCФормат/Информация : Advanced Video CodecПрофиль формата : [email protected]Параметр CABAC формата : ДаПараметр RefFrames формата : 3 кадраИдентификатор кодека : V_MPEG4/ISO/AVCПродолжительность : 57 м. 7 с.Вид битрейта : ПеременныйБитрейт : 2262 Кбит/секМаксимальный битрейт : 3390 Кбит/секШирина : 1920 пикселейВысота : 1080 пикселейСоотношение сторон : 16:9Режим частоты кадров : ПостоянныйЧастота кадров : 23,976 (24000/1001) кадра/секЦветовое пространство : YUVСубдискретизация насыщенности : 4:2:0Битовая глубина : 8 битТип развёртки : ПрогрессивнаяБит/(Пиксели*Кадры) : 0.046Размер потока : 924 Мбайт (75%)Default : НетForced : Нет

    Аудио #1Идентификатор : 2Формат : AC-3Формат/Информация : Audio Coding 3Параметр Endianness формата : BigИдентификатор кодека : A_AC3Продолжительность : 57 м. 7 с.Вид битрейта : ПостоянныйБитрейт : 384 Кбит/секКаналы : 6 каналовРасположение каналов : Front: L C R, Side: L R, LFEЧастота : 48,0 КГцЧастота кадров : 31,250 кадров/сек (1536 SPF)Битовая глубина : 16 битМетод сжатия : С потерямиЗадержка видео : 25 мс.Размер потока : 157 Мбайт (13%)Язык : RussianServiceKind/String : Complete MainDefault : ДаForced : Нет

    Аудио #2Идентификатор : 3Формат : AC-3Формат/Информация : Audio Coding 3Параметр Endianness формата : BigИдентификатор кодека : A_AC3Продолжительность : 57 м. 7 с.Вид битрейта : ПостоянныйБитрейт : 384 Кбит/секКаналы : 6 каналовРасположение каналов : Front: L C R, Side: L R, LFEЧастота : 48,0 КГцЧастота кадров : 31,250 кадров/сек (1536 SPF)Битовая глубина : 16 битМетод сжатия : С потерямиЗадержка видео : 28 мс.Размер потока : 157 Мбайт (13%)Язык : EnglishServiceKind/String : Complete MainDefault : НетForced : Нет

    Внимание! В сериале присутствуют ненормативная лексика и сцены сексуального характера!

    Скриншоты:                       

  • Раздача ведётся путём добавления новых серий. Добавлена 8-10 серия (17.10.2017).Просьба перекачать торрент файл. Скачать Охотник за разумом через торрент http://pic1.pb.wtf/images/11/8nqqe.jpg Скачать фильм Охотник за разумом через торрент бесплантно в хорошем качестве qw.png Действие сериала происходит в 1979 году. В центре сюжета два агента ФБР, которые опрашивают находящихся в заключении серийных ... 2017-10-16 22:59 9.1 10 12

    Loading...

    Loading...

    Последний раз редактировалось: GEKADOL (2017-10-16 22:59), всего редактировалось 4 раз(а)

    Рекламный пират

    15-10-2017 14:21 Охотник за разумом Скачать торрент  

    а ничего так сериальчик смесь молчания ягнят с шерлок хомсом и супернатуралами

    16-10-2017 01:57 Охотник за разумом Скачать торрент  

    kpuctaluk писал(а):

    а ничего так сериальчик смесь молчания ягнят с шерлок хомсом и супернатуралами

    Мне тоже понравился!!!

    16-10-2017 03:33 Охотник за разумом Скачать торрент  

    Ауу, где раздающий?

    16-10-2017 04:12 Охотник за разумом Скачать торрент  

    gamov_danil писал(а):

    Ауу, где раздающий?

    На месте!

    18-10-2017 16:20 Охотник за разумом Скачать торрент  

    Ну чо, досмотрель..., классный сериал, по концовке ещё куча вопросов, но..., жду продолжения, рейтинг оправданный, мне понравилось 5-ть с плюсом, как то так ))).Ну и раздаем канечно )))

    18-10-2017 18:21 Охотник за разумом Скачать торрент  

    хм интересненько

    22-10-2017 09:00 Охотник за разумом Скачать торрент  

    Нахерам этот вечно звонящий телефон на заднем плане?!

    Дорогой пользователь! Огромная просьба, поблагодарите релизера, оцените раздачу и оставьте свои комментарий, если Вы скачали Охотник за разумом через торрент бесплатно! Внесите свою лепту в развитие PiratBit!

    Комментировать посты могут только пользователи прошедшие не сложную регистрацию

    Охотник за разумом через торрент Скачать бесплатно Охотник за разумом Охотник за разумом скачать торрент Охотник за разумом смотреть онлайн Cкачать фильм Охотник за разумом бесплатно Охотник за разумом скачать торрент в хорошем качестве Охотник за разумом смотреть онлайн бесплатно в хорошем качестве

    Вы не можете начинать темыВы не можете отвечать на сообщенияВы не можете редактировать свои сообщенияВы не можете удалять свои сообщенияВы не можете голосовать в опросахВы не можете прикреплять файлы к сообщениямВы можете скачивать файлы

    piratbit.ru

    Сериал Охотник за разумом (2017) скачать торрент

    27 355

    Физрук 4 сезон (2017)

    390

    Мой сын (2017)

    29

    Три сестры (2017)

    295

    Единственный живой парень в Нью-Йорке (2017)

    9 732

    Иностранец (2017)

    355

    Будь мужиком (2017)

    1 590

    Коматозники (2017)

    1 380

    Реальный Рокки (2017)

    3 306

    Геошторм (2017)

    1 206

    Двуличный любовник (2017)

    887

    Как Витька Чеснок вез Леху Штыря в дом инвалидов (2017)

    13 863

    Сделано в Америке (2017)

    6 671

    Напарник (2017)

    1 229

    Борг / Макинрой (2017)

    1 118

    Яма. Наши дни (2017)

    3 799

    Бегущий по лезвию 2049 (2017)

    14 913

    Сериал Беглец (2017)

    6 292

    Безбашенные (2017)

    3 478

    Послание от Кинга (2017)

    2 349

    Между нами горы (2017)

    13 008

    Жизнь впереди (2017)

    119 791

    Сериал Ольга 2 сезон 18 19 20 серия (2017)

    784

    Хорошее время (2017)

    3 092

    Любовь в городе ангелов (2017)

    1 839

    Уотергейт. Крушение Белого дома (2017)

    7 270

    Наемник (2017)

    14 696

    Сериал Отличница (2017)

    2 745

    Техасская резня бензопилой: Кожаное лицо (2017)

    2 703

    Убить Гюнтера (2017)

    1 560

    Заложники (2017)

    24 697

    Сериал Отчий берег (2017)

    866

    ЛЕГО Ниндзяго Фильм (2017)

    3 438

    Kingsman: Золотое кольцо (2017)

    1 598

    Мадам (2017)

    kinonax.com


    Смотрите также