Скачать фильм основной инстинкт через торрент в хорошем качестве


Основной инстинкт 1992 - скачать бесплатно через торрент в хорошем качестве. Без регистрации

Название: Основной инстинкт / Basic Instinct (1992) HDRip-AVC | P2
Качество видео: HDRip-AVC
Перевод: Профессиональный (двухголосый закадровый) CP-DIGITAL
Видео: x264 MPEG-4 AVC, 752x322 (2.35:1) at 23.976 fps, ~739 kbps
Аудио: AAC-HE, 2 ch, 48 kHz, 72 kbps
Скачать

Загрузка начнется в течение 5 сек.

745.76 MB

Название: Основной инстинкт / Basic Instinct (1992) BDRip 1080p | EUR | P, P2, A
Качество видео: BDRip 1080p
Перевод: - Профессиональный (многоголосый, закадровый) РТР
Видео: x264 1912x816, 12000 kbps, 23,976 fps
Аудио: AC-3, 6 ch, 448 kbps (Rus) - MVO РТРAC-3, 2 ch, 192 kbps (Rus) - DVO Премьер Видео ФильмAC-3, 2 ch, 192 kbps (Rus) - DVO Селена Интернешнл по заказу ОРТAC-3, 6 ch, 448 kbps (Rus) - DVO CP DigitalAC-3, 6 ch, 448 kbps (Rus) - AVO Сербин Юрий ВладимировичAC-3, 6 ch, 448 kbps (Rus) - AVO Гаврилов Андрей ЮрьевичAC-3, 6 ch, 448 kbps (Rus) - AVO Матвеев Алексей (Doctor Joker)DTS, 6 ch, 1509 kbps (Eng)
Скачать

Загрузка начнется в течение 5 сек.

14.45 GB

Название: Основной инстинкт / Basic Instinct (1992) BDRip 720p от NNNB | 60 fps | P, P2, A
Качество видео: BDRip 720p (исходник Blu-ray Disc Remux)
Перевод: Профессиональный (двухголосый, закадровый), Профессиональный (многоголосый, закадровый), Авторский (одноголосый)
Видео: 1280x546, 4538 Кбит/сек, 60.000 кадр/сек, AVC, x264, [email protected], 2.35:1, 0.108 Бит/[Пиксели*Кадры]
Аудио: AC-3, 448 Кбит/сек, 6 канала(ов), 48,0 КГц - Двухголосый закадровый, CP-DIGITAL / РусскийAC-3, 192 Кбит/сек, 2 канала(ов), 48,0 КГц - Многоголосый закадровый, ОРТ / РусскийAC-3, 192 Кбит/сек, 2 канала(ов), 48,0 КГц - Многоголосый закадровый, НТВ / РусскийAC-3, 192 Кбит/сек, 2 канала(ов), 48,0 КГц - Одноголосый закадровый, Горчаков / РусскийAC-3, 448 Кбит/сек, 6 канала(ов), 48,0 КГц - Одноголосый закадровый, Гаврилов / РусскийAC-3, 224 Кбит/сек, 2 канала(ов), 48,0 КГц - Одноголосый закадровый, Живов / РусскийAC-3, 192 Кбит/сек, 2 канала(ов), 48,0 КГц - Одноголосый закадровый, Либергал / РусскийAC-3, 448 Кбит/сек, 6 канала(ов), 48,0 КГц - Одноголосый закадровый, Матвеев (Doctor Joker) / РусскийAC-3, 640 Кбит/сек, 6 канала(ов), 48,0 КГц - Оригинал / Английский
Скачать

Загрузка начнется в течение 5 сек.

6.87 GB

Название: Основной инстинкт / Basic Instinct (1992) HDRip | Горчаков
Качество видео: HDRip
Перевод: Авторский (одноголосый закадровый) Василий Горчаков
Видео: XviD 720x304 (2.37:1), 23.976 fps, XviD build 65 ~1429 kbps avg, 0.27 bit/pixel
Аудио: 48 kHz, AC3 Dolby Digital, 2/0 (L,R) ch, ~192 kbps
Скачать

Загрузка начнется в течение 5 сек.

1.46 GB

Название: Основной инстинкт / Basic Instinct (1992) BDRip-AVC от HQ-ViDEO | P2, P
Качество видео: BDRip (источник: Oday / BDRemux / 1080p)
Перевод: Профессиональный (двухголосый, закадровый) |CP-Digital| + Профессиональный (многоголосый, закадровый) |НТВ| + Оригинал (Английский)
Формат видео: AVI
Видео: MPEG-4 AVC; x264 codec 1044 x 446; 23.976 fps; 2089 kbps; 0.187 bit/pixel
Аудио: + Профессиональный (двухголосый, закадровый) ОРТAC3 Dolby Digital; 448 Kbps; 6 channels; 48 KHz (DVO.CP-Digital)AC3 Dolby Digital; 192 Kbps; 2 channels; 48 KHz (MVO.NTV)AC3 Dolby Digital; 448 Kbps; 6 channels; 48 KHz (ENG)AC3 Dolby Digital; 192 Kbps; 2 channels; 48 KHz (DVO.ORT) (отдельно)AC3 Dolby Digital; 192 Kbps; 2 channels; 48 KHz (DVO.Premer.Video.Film) (отдельно)AC3 Dolby Digital; 448 Kbps; 6 channels; 48 KHz (AVO.Gavrilov) (отдельно)AC3 Dolby Digital; 192 Kbps; 2 channels; 48 KHz (AVO.Gorchakov) (отдельно)AC3 Dolby Digital; 192 Kbps; 2 channels; 48 KHz (AVO.Gorchakov.Early) (отдельно)AC3 Dolby Digital; 192 Kbps; 2 channels; 48 KHz (AVO.Libergal) (отдельно)AC3 Dolby Digital; 448 Kbps; 6 channels; 48 KHz (AVO.Serbin) (отдельно)AC3 Dolby Digital; 192 Kbps; 2 channels; 48 KHz (AVO.Zhivov) (отдельно)AC3 Dolby Digital; 448 Kbps; 6 channels; 48 KHz (VO.Matveev) (отдельно)
Скачать

Загрузка начнется в течение 5 сек.

2.85 GB

Название: Основной инстинкт / Basic Instinct (1992) BDRip-AVC от 0ptimus | P, P2, A
Качество видео: BDRip-AVC
Перевод: Профессиональный многоголосый, профессиональный двухголосый, авторский
Видео: h.264 1572 Кбит/с, 1024x440, 23.976 кадр/с
Аудио: • №1: Русский (AC3, 6 ch, 384 Кбит/с) Профессиональный двухголосый [CP-Digital]
Скачать

Загрузка начнется в течение 5 сек.

3.99 GB

Название: Основной инстинкт / Basic Instinct (1992) BDRip | A
Качество видео: BDRip (источник: BlueBird / Blu-Ray Disk / 1080p)
Перевод: Авторский (одноголосый закадровый) Юрий Сербин
Видео: XviD 704x304 (2.32:1), 23.976 fps, XviD build 57 ~1982 kbps avg, 0.39 bit/pixel
Аудио: 48 kHz, AC3 Dolby Digital, 3/2 (L,C,R,l,r) + LFE ch, ~448 kbps
Скачать

Загрузка начнется в течение 5 сек.

2.18 GB

Название: Основной инстинкт / Basic Instinct (1992) BDRip 720p от NNNB | P, P2, A
Качество видео: BDRip 720p (исходник Blu-ray)
Перевод: Профессиональный многоголосый, Профессиональный (двухголосый), Авторский (одноголосый)
Формат видео: AVC (библиотека кодирования x.264)
Видео: 1280x546 (2.35:1), 3672 Кбит/сек, 23,976 кадр/сек, 0,219 Бит/[Пиксели*Кадры]
Аудио: русский / AC3 / 5.1 / 48 kHz / 448 kbps / |Профессиональный двухголосый, CP-DIGITAL|русский / AC3 / 2.0 / 48 kHz / 192 kbps / |Профессиональный многоголосый, ОРТ|русский / AC3 / 2.0 / 48 kHz / 192 kbps / |Профессиональный многоголосый, НТВ|русский / AC3 / 2.0 / 48 kHz / 192 kbps / |Авторский, Горчаков|русский / AC3 / 5.1 / 48 kHz / 448 kbps / |Авторский, Гаврилов|русский / AC3 / 2.0 / 44 kHz / 224 kbps / |Авторский, Живов|русский / AC3 / 2.0 / 48 kHz / 192 kbps / |Авторский, Либергал|русский / AC3 / 5.1 / 48 kHz / 448 kbps / |Авторский, Матвеев (Doctor Joker)|английский / AC3 / 5.1 / 48 kHz / 640 kbps /
Скачать

Загрузка начнется в течение 5 сек.

6.08 GB

Название: Основной инстинкт / Basic Instinct (1992) BDRip-AVC | iPad | P,P1
Качество видео: BDRip-AVC [576p]
Перевод: Русский профессиональный многоголосый закадровый, русский профессиональный одноголосый закадровый
Видео: H.264 1024x436 (2.35:1) at 23.976 fps, AVC at 2300 kbps
Аудио: 1: АAС 2.0 150 kbps - Русский профессиональный многоголосый закадровый (CP-DIGITAL)
Скачать

Загрузка начнется в течение 5 сек.

2.50 GB

Название: Основной инстинкт / Basic Instinct (1992) BDRip-AVC
Качество видео: BDRip-AVC |Source: BD-Remux 1080p|
Перевод: Профессиональный (многоголосый, закадровый)
Формат видео: MKV
Видео: H.264 976x416 (2.35:1), 23.976 fps, ~1390 kbps, 0.143 bit/pixel
Аудио: AAC AAC48 kHz, AAC-LC, 5.1 ch, ~248 kbps VBR | MVO
Скачать

Загрузка начнется в течение 5 сек.

1.47 GB

Название: Основной инстинкт / Basic Instinct (1992) HDRip от Scarabey
Качество видео: HDRip
Перевод: Профессиональный (двухголосый, закадровый)
Формат видео: AVI
Видео: 640x272 (2.35:1), 23.976 fps, XviD build 50 ~717 kbps avg, 0.17 bit/pixel
Аудио: 48 kHz, MPEG Layer 3, 2 ch, ~128.00 kbps avg
Скачать

Загрузка начнется в течение 5 сек.

784.48 MB

Название: Основной инстинкт / Basic Instinct (1992) HDRip от Scarabey
Качество видео: HDRip
Перевод: Профессиональный (двухголосый, закадровый)
Формат видео: AVI
Видео: 720x304 (2.37:1), 23.976 fps, XviD build 50 ~1167 kbps avg, 0.22 bit/pixel
Аудио: 48 kHz, AC3 Dolby Digital, 3/2 (L,C,R,l,r) + LFE ch, ~448.00 kbps avg
Скачать

Загрузка начнется в течение 5 сек.

1.45 GB

Название: Основной инстинкт / Basic Instinct (1992) BDRip 1080р от Freeisland
Качество видео: BDRip.1080p
Перевод: Профессиональный (многоголосый закадровый)
Формат видео: MKV
Видео: AVC 1920x816 (2.35:1), 23.976 fps, AVC, 4 496 Kbps
Аудио: AC3 AC3, 384 Kbps, 48.0 KHz, 6 ch (Rus MVO)
Скачать

Загрузка начнется в течение 5 сек.

4.35 GB

www.kinovit.net

Скачать фильм Основной инстинкт (1992) через торрент

17 января 2017 12:47 Основной инстинкт / Basic Instinct (1992) HDRip | Горчаков .torrent   [Информация о файле (нажмите для просмотра)] Перевод: Авторский (одноголосый закадровый) Василий ГорчаковКодек: XviDКачество: HDRipВидео: 720x304 (2.37:1), 23.976 fps, XviD build 65 ~1429 kbps avg, 0.27 bit/pixelЗвук: 48 kHz, AC3 Dolby Digital, 2/0 (L,R) ch, ~192 kbps 1,46 Gb 38 22 17 января 2017 12:47 Основной инстинкт / Basic Instinct (1992) BDRip-AVC от HQ-ViDEO .torrent   [Информация о файле (нажмите для просмотра)] Перевод: Профессиональный (двухголосый, закадровый)|CP-Digital| + Профессиональный (многоголосый, закадровый) |НТВ| + Оригинал (Английский)Субтитры: Русские, Английские.Формат: AVIКачество: BDRip (источник: Oday /BD-Remux / 1080p)Кодек: MPEG-4 AVC; x264 codecВидео: 1040 x 444; 23.976 fps; 2158 kbps; 0.195 bit/pixelАудио #01: AC3 Dolby Digital; 448 Kbps; 6 channels; 48 KHzАудио #02: AC3 Dolby Digital; 192 Kbps; 2 channels; 48 KHzАудио #03: AC3 Dolby Digital; 448 Kbps; 6 channels; 48 KHzАудио #04: AC3 Dolby Digital; 192 Kbps; 2 channels; 48 KHz(отдельно, http)Аудио #05: AC3 Dolby Digital; 192 Kbps; 2 channels; 48 KHz(отдельно, http)Аудио #06: AC3 Dolby Digital; 448 Kbps; 6 channels; 48 KHz(отдельно, http)Аудио #07: AC3 Dolby Digital; 192 Kbps; 2 channels; 48 KHz(отдельно, http)Аудио #08: AC3 Dolby Digital; 192 Kbps; 2 channels; 48 KHz(отдельно, http)Аудио #09: AC3 Dolby Digital; 192 Kbps; 2 channels; 48 KHz(отдельно, http)Аудио #10: AC3 Dolby Digital; 448 Kbps; 6 channels; 48 KHz(отдельно, http)Аудио #11: AC3 Dolby Digital; 192 Kbps; 2 channels; 48 KHz(отдельно, http)Аудио #12: AC3 Dolby Digital; 448 Kbps; 6 channels; 48 KHz(отдельно, http)Аудио #13: AC3 Dolby Digital; 448 Kbps; 6 channels; 48 KHz(отдельно, http) 2,91 Gb 50 13 17 января 2017 12:47 Основной инстинкт / Basic Instinct (1992) BDRip-AVC от 0ptimus | P, P2, A .torrent   [Информация о файле (нажмите для просмотра)] Перевод: Профессиональный многоголосый, профессиональный двухголосый, авторскийКодек: h.264Качество: BDRip-AVCВидео: 1572 Кбит/с, 1024x440, 23.976 кадр/сЗвук: • №1: Русский (AC3, 6 ch, 384 Кбит/с) Профессиональный двухголосый [CP-Digital] • №2: Русский (AC3, 2 ch, 192 Кбит/с) Профессиональный многоголосый [НТВ] • №3: Русский (AC3, 6 ch, 384 Кбит/с) Авторский [Андрей Гаврилов] • №4: Английский (AC3, 6 ch, 384 Кбит/с) Отдельно: • №5: Русский (AC3, 2 ch, 192 Кбит/с) Профессиональный двухголосый [ОРТ] • №6: Русский (AC3, 2 ch, 192 Кбит/с) Авторский [Юрий Живов] • №7: Русский (AC3, 2 ch, 192 Кбит/с) Авторский [Василий Горчаков] • №8: Русский (AC3, 2 ch, 192 Кбит/с) Авторский [Григорий Либергал] • №9: Русский (AC3, 6 ch, 384 Кбит/с) Авторский [Алексей Матвеев (Doctor Joker)] • №10: Русский (AC3, 6 ch, 384 Кбит/с) Авторский [Юрий Сербин]Субтитры: Русские, английскиеВидео: Идентификатор : 1 Формат : AVC Формат/Информация : Advanced Video Codec Профиль формата : [email protected] Параметр CABAC формата : Да Параметр ReFrames формата : 9 кадров Идентификатор кодека : V_MPEG4/ISO/AVC Продолжительность : 2 ч. 8 м. Битрейт : 1572 Кбит/сек Ширина : 1024 пикселя Высота : 440 пикселей Соотношение сторон : 2,35:1 Режим частоты кадров : Постоянный Частота кадров : 23,976 кадра/сек Цветовое пространство : YUV Субдискретизация насыщенности : 4:2:0 Битовая глубина : 8 бит Тип развёртки : Прогрессивная Бит/(Пиксели*Кадры) : 0.146 Размер потока : 1,36 Гбайт (52%) Заголовок : Rip by 0ptimus Библиотека кодирования : x264 core 133 r2334 a3ac64b Настройки программы : cabac=1 / ref=9 / deblock=1:-2:-1 / analyse=0x3:0x113 / me=umh / subme=11 / psy=1 / psy_rd=1.00:0.20 / mixed_ref=1 / me_range=32 / chroma_me=1 / trellis=2 / 8x8dct=1 / cqm=0 / deadzone=21,11 / fast_pskip=0 / chroma_qp_offset=-3 / threads=3 / lookahead_threads=1 / sliced_threads=0 / nr=0 / decimate=0 / interlaced=0 / bluray_compat=0 / constrained_intra=0 / bframes=12 / b_pyramid=2 / b_adapt=2 / b_bias=0 / direct=3 / weightb=1 / open_gop=0 / weightp=2 / keyint=240 / keyint_min=23 / scenecut=40 / intra_refresh=0 / rc_lookahead=40 / rc=2pass / mbtree=0 / bitrate=1572 / ratetol=1.0 / qcomp=0.60 / qpmin=0 / qpmax=69 / qpstep=4 / cplxblur=20.0 / qblur=0.5 / vbv_maxrate=50000 / vbv_bufsize=50000 / nal_hrd=none / ip_ratio=1.40 / pb_ratio=1.30 / aq=1:1.00 Язык : English Default : Да Forced : ДаАудио #1: Идентификатор : 2 Формат : AC-3 Формат/Информация : Audio Coding 3 Расширение режима : CM (complete main) Параметр Endianness формата : Big Идентификатор кодека : A_AC3 Продолжительность : 2 ч. 8 м. Вид битрейта : Постоянный Битрейт : 384 Кбит/сек Каналы : 6 каналов Расположение каналов : Front: L C R, Side: L R, LFE Частота : 48,0 КГц Битовая глубина : 16 бит Метод сжатия : С потерями Размер потока : 352 Мбайт (13%) Заголовок : Двухголосый [CP-Digital] AC3 5.1 @ 384 kbps Язык : Russian Default : Да Forced : ДаАудио #2: Идентификатор : 3 Формат : AC-3 Формат/Информация : Audio Coding 3 Расширение режима : CM (complete main) Параметр Endianness формата : Big Идентификатор кодека : A_AC3 Продолжительность : 2 ч. 8 м. Вид битрейта : Постоянный Битрейт : 192 Кбит/сек Каналы : 2 канала Расположение каналов : Front: L R Частота : 48,0 КГц Битовая глубина : 16 бит Метод сжатия : С потерями Размер потока : 176 Мбайт (7%) Заголовок : Многоголосый [НТВ] AC3 2.0 @ 192 kbps Язык : Russian Default : Нет Forced : НетАудио #3: Идентификатор : 4 Формат : AC-3 Формат/Информация : Audio Coding 3 Расширение режима : CM (complete main) Параметр Endianness формата : Big Идентификатор кодека : A_AC3 Продолжительность : 2 ч. 8 м. Вид битрейта : Постоянный Битрейт : 384 Кбит/сек Каналы : 6 каналов Расположение каналов : Front: L C R, Side: L R, LFE Частота : 48,0 КГц Битовая глубина : 16 бит Метод сжатия : С потерями Размер потока : 352 Мбайт (13%) Заголовок : Авторский [Андрей Гаврилов] AC3 5.1 @ 384 kbps Язык : Russian Default : Нет Forced : НетАудио #4: Идентификатор : 5 Формат : AC-3 Формат/Информация : Audio Coding 3 Расширение режима : CM (complete main) Параметр Endianness формата : Big Идентификатор кодека : A_AC3 Продолжительность : 2 ч. 8 м. Вид битрейта : Постоянный Битрейт : 384 Кбит/сек Каналы : 6 каналов Расположение каналов : Front: L C R, Side: L R, LFE Частота : 48,0 КГц Битовая глубина : 16 бит Метод сжатия : С потерями Размер потока : 352 Мбайт (13%) Заголовок : AC3 5.1 @ 384 kbps Язык : English Default : Нет Forced : Нет 3,99 Gb 6 5 17 января 2017 12:47 Основной инстинкт / Basic Instinct (1992) BDRip | A .torrent   [Информация о файле (нажмите для просмотра)] Перевод: Авторский (одноголосый закадровый)Юрий СербинКодек: XviDКачество: BDRip (источник: BlueBird / Blu-Ray Disk / 1080p)Видео: 704x304 (2.32:1), 23.976 fps, XviD build 57 ~1982 kbps avg, 0.39 bit/pixelАудио: 48 kHz, AC3 Dolby Digital, 3/2 (L,C,R,l,r) + LFE ch, ~448 kbpsСубтитры: нет 2,18 Gb 13 1 17 января 2017 12:47 Основной инстинкт / Basic Instinct (1992) BDRip 720p от NNNB | P, P2, A .torrent   [Информация о файле (нажмите для просмотра)] Перевод: Профессиональный многоголосый, Профессиональный (двухголосый), Авторский (одноголосый)Качество: BDRip 720p (исходник Blu-ray)Формат: AVC (библиотека кодирования x.264)Видео: 1280x546 (2.35:1), 3672 Кбит/сек, 23,976 кадр/сек, 0,219 Бит/[Пиксели*Кадры]Аудио №1: русский / AC3 / 5.1 / 48 kHz / 448 kbps /|Профессиональный двухголосый, CP-DIGITAL| Аудио №2: русский / AC3 / 2.0 / 48 kHz / 192 kbps /|Профессиональный многоголосый, ОРТ| Аудио №3: русский / AC3 / 2.0 / 48 kHz / 192 kbps /|Профессиональный многоголосый, НТВ| Аудио №4: русский / AC3 / 2.0 / 48 kHz / 192 kbps /|Авторский, Горчаков| Аудио №5: русский / AC3 / 5.1 / 48 kHz / 448 kbps /|Авторский, Гаврилов| Аудио №6: русский / AC3 / 2.0 / 44 kHz / 224 kbps /|Авторский, Живов| Аудио №7: русский / AC3 / 2.0 / 48 kHz / 192 kbps /|Авторский, Либергал| Аудио №8: русский / AC3 / 5.1 / 48 kHz / 448 kbps /|Авторский, Матвеев (Doctor Joker)| Аудио №9: английский / AC3 / 5.1 / 48 kHz / 640 kbps /Субтитры: русские (Full), английские (Full) 6,08 Gb 24 10 17 января 2017 12:47 Основной инстинкт / Basic Instinct (1992) HDRip от MediaClub | КПК .torrent   [Информация о файле (нажмите для просмотра)] Перевод: Профессиональный многоголосыйКодек: MPEG-4Качество: HDRipВидео: 500 Кбит/с, 320x128, 23.976 кадр/сЗвук: Русский (AAC, 2 ch, 128 Кбит/с) 575,35 Mb 15 2 17 января 2017 12:47 Основной инстинкт / Basic Instinct (1992) BDRip-AVC | iPad | P,P1 .torrent   [Информация о файле (нажмите для просмотра)] Перевод: Русский профессиональный многоголосый закадровый, русский профессиональный одноголосый закадровыйКодек: H.264Качество: BDRip-AVC [576p]Видео: 1024x436 (2.35:1) at 23.976 fps, AVC at 2300 kbpsЗвук: 1: АAС 2.0 150 kbps - Русский профессиональный многоголосый закадровый (CP-DIGITAL) 2: АAС 2.0 150 kbps - Русский профессиональный одноголосый закадровый (Горчаков) 3: АAС 2.0 140 kbps - АнглийскийСубтитры: русские, английские 2,5 Gb 5 1 17 января 2017 12:47 Основной инстинкт / Basic Instinct (1992) BDRip-AVC .torrent   [Информация о файле (нажмите для просмотра)] Перевод: Профессиональный (двухголосый, закадровый) CP-DigitalСубтитры: русские, английскиеКачество: BDRip-AVC |Source: BD-Remux 1080p|Формат: MKVВидео: 976x416 (2.35:1), 23.976 fps, ~1390 kbps, 0.143 bit/pixelВидео: Идентификатор : 1 Формат : AVC Формат/Информация : Advanced Video Codec Профиль формата : [email protected] Параметр CABAC формата : Да Параметр ReFrames формата : 16 кадров Идентификатор кодека : V_MPEG4/ISO/AVC Продолжительность : 2 ч. 8 м. Номинальный битрейт : 1390 Кбит/сек Ширина : 976 пикселей Высота : 416 пикселей Соотношение сторон : 2,35:1 Режим частоты кадров : Постоянный Частота кадров : 23,976 кадра/сек Цветовое пространство : YUV Субдискретизация насыщенности : 4:2:0 Битовая глубина : 8 бит Тип развёртки : Прогрессивная Бит/(Пиксели*Кадры) : 0.143 Заголовок : 976x416 (2.35:1), 23.976 fps, 1390 kbps, 0.143 bit/pixel Библиотека кодирования : x264 core 129 r2230 1cffe9f Настройки программы : cabac=1 / ref=16 / deblock=1:-2:-2 / analyse=0x3:0x133 / me=umh / subme=11 / psy=1 / psy_rd=1.00:0.03 / mixed_ref=1 / me_range=48 / chroma_me=1 / trellis=2 / 8x8dct=1 / cqm=0 / deadzone=21,11 / fast_pskip=0 / chroma_qp_offset=-3 / threads=6 / lookahead_threads=1 / sliced_threads=0 / nr=0 / decimate=0 / interlaced=0 / bluray_compat=0 / constrained_intra=0 / bframes=12 / b_pyramid=2 / b_adapt=2 / b_bias=0 / direct=3 / weightb=1 / open_gop=0 / weightp=2 / keyint=240 / keyint_min=23 / scenecut=40 / intra_refresh=0 / rc=2pass / mbtree=0 / bitrate=1390 / ratetol=1.0 / qcomp=0.65 / qpmin=0 / qpmax=69 / qpstep=4 / cplxblur=20.0 / qblur=0.5 / ip_ratio=1.40 / pb_ratio=1.25 / aq=1:1.05 Язык : English Default : Да Forced : Нет Коэффициенты матрицы : BT.709Аудио: Идентификатор : 2 Формат : AAC Формат/Информация : Advanced Audio Codec Профиль формата : LC Идентификатор кодека : A_AAC Продолжительность : 2 ч. 8 м. Каналы : 6 каналов Расположение каналов : Front: L C R, Side: L R, LFE Частота : 48,0 КГц Метод сжатия : С потерями Заголовок : 48 kHz, AAC-LC, 5.1 ch, 248 kbps - MVO Язык : Russian Default : Да Forced : Нет 1,47 Gb 11 5 17 января 2017 12:47 Основной инстинкт / Basic Instinct (1992) HDRip от Scarabey .torrent   [Информация о файле (нажмите для просмотра)] Перевод: Профессиональный (двухголосый, закадровый)Субтитры: нетКачество: HDRipФормат: AVIВидео: 720x304 (2.37:1), 23.976 fps, XviD build 50 ~1167 kbps avg, 0.22 bit/pixelАудио: 48 kHz, AC3 Dolby Digital, 3/2 (L,C,R,l,r) + LFE ch, ~448.00 kbps avg 1,45 Gb 136 16 17 января 2017 12:47 Основной инстинкт / Basic Instinct (1992) HDRip от Scarabey .torrent   [Информация о файле (нажмите для просмотра)] Перевод: Профессиональный (двухголосый, закадровый)Субтитры: нетКачество: HDRipФормат: AVIВидео: 640x272 (2.35:1), 23.976 fps, XviD build 50 ~717 kbps avg, 0.17 bit/pixelАудио: 48 kHz, MPEG Layer 3, 2 ch, ~128.00 kbps avg 784,48 Mb 11 5 17 января 2017 12:47 Основной инстинкт / Basic Instinct (1992) BDRip-AVC от NovaLan .torrent   [Информация о файле (нажмите для просмотра)] Перевод: Профессиональный многоголосый / Авторский одноголосый (Гаврилов)Кодек: H.264Качество: BDRip-AVCВидео: MPEG-4 AVC, 1999 Кбит/с, 1024x432, 23.976 кадр/секЗвук: Русский (АС3, 6 ch, 384 Кбит/с), русский (АС3, 6 ch, 448 Кбит/с), aнглийский (АС3, 6 ch, 448 Кбит/с)Субтитры: Английские 2,94 Gb 8 4 17 января 2017 12:47 Основной инстинкт / Basic Instinct (1992) BDRip от HQCLUB .torrent   [Информация о файле (нажмите для просмотра)] Перевод: Профессиональный (двухголосый, закадровый)CP-Digital + Профессиональный (многоголосый, закадровый) НТВСубтитры: русские, английскиеФормат: AVIКачество: BDRip (источник: BlueBird / Blu-ray Disc / 1080p)Видео: 704x304 (2.32:1), 23.976 fps, XviD build 57 ~1982 kbps avg, 0.39 bit/pixelАудио #01: 48 kHz, AC3 Dolby Digital, 3/2 (L,C,R,l,r) + LFE ch, ~448 kbps|DVO CP-Digital|Аудио #02: 48 kHz, AC3 Dolby Digital, 2/0 (L,R) ch, ~192 kbps avg|MVO НТВ|Аудио #03: 48 kHz, AC3 Dolby Digital, 2/0 (L,R) ch, ~192 kbps avg|MVO ОРТ|Аудио #04: 48 kHz, AC3 Dolby Digital, 2/0 (L,R) ch, ~192 kbps avg|DVO Премьер Видео фильм|Аудио #05: 48 kHz, AC3 Dolby Digital, 3/2 (L,C,R,l,r) + LFE ch, ~448 kbps|AVO А. Гаврилов|Аудио #06: 48 kHz, AC3 Dolby Digital, 2/0 (L,R) ch, ~192 kbps avg|AVO Ю. Живов|Аудио #07: 48 kHz, AC3 Dolby Digital, 3/2 (L,C,R,l,r) + LFE ch, ~448 kbps|AVO Ю. Сербин|Аудио #08: 48 kHz, AC3 Dolby Digital, 2/0 (L,R) ch, ~192 kbps avg|AVO В. Горчаков (ранний)|Аудио #09: 48 kHz, AC3 Dolby Digital, 2/0 (L,R) ch, ~192 kbps avg|AVO В. Горчаков (поздний)|Аудио #10: 48 kHz, AC3 Dolby Digital, 2/0 (L,R) ch, ~192 kbps avg|AVO Г. Либергал|Аудио #11: 48 kHz, AC3 Dolby Digital, 3/2 (L,C,R,l,r) + LFE ch, ~448 kbps|AVO А. "Doctor Joker" Матвеев|Аудио #12: 48 kHz, AC3 Dolby Digital, 3/2 (L,C,R,l,r) + LFE ch, ~448 kbps|Original| 2,18 Gb 10 1 17 января 2017 12:47 Основной инстинкт / Basic Instinct (1992) HDRip | A .torrent   [Информация о файле (нажмите для просмотра)] Перевод: Авторский одноголосный А.ГавриловКодек: XviDКачество: HDRipВидео: 720x304 (2.37:1), 23.976 fps, XviD build 47 ~1172 kbps avg, 0.22 bit/pixeЗвук: 48 kHz, AC3 Dolby Digital, 3/2 (L,C,R,l,r) + LFE ch, ~448.00 kbps avg 1,46 Gb 5 1 17 января 2017 12:47 Основной инстинкт / Basic Instinct (1992) DVD5 .torrent   [Информация о файле (нажмите для просмотра)] Перевод: б) профессиональный многоголосныйКодек: MPEG-2Качество: DVD5,Видео: NTSC 16:9 (720x480) VBR Auto LetterboxedЗвук: Russian (Dolby AC3, 6 ch) / English (Dolby AC3, 2 ch) 4,37 Gb 2 2 17 января 2017 12:47 Основной инстинкт / Basic Instinct (1992) BDRip от HQ-ViDEO .torrent   2,18 Gb 9 7

gig-torrent.net

Скачать фильм Основной инстинкт через торрент в хорошем качестве бесплатно 720p]

Format                                   : MatroskaFormat version                           : Version 2File size                                : 6.65 GiBDuration                                 : 2 h 8 minOverall bit rate                         : 7 424 kb/sMovie name                               : Osnovnoj instinkt.(1992).BDRip.720p.[denis100]Encoded date                             : UTC 2017-10-08 07:27:49Writing application                      : mkvmerge v5.8.0 ('No Sleep / Pillow') built on Sep  2 2012 15:37:04Writing library                          : libebml v1.2.3 + libmatroska v1.3.0

VideoID                                       : 1Format                                   : AVCFormat/Info                              : Advanced Video CodecFormat profile                           : [email protected] settings, CABAC                   : YesFormat settings, ReFrames                : 11 framesCodec ID                                 : V_MPEG4/ISO/AVCDuration                                 : 2 h 8 minBit rate                                 : 3 660 kb/sWidth                                    : 1 280 pixelsHeight                                   : 546 pixelsDisplay aspect ratio                     : 2.35:1Frame rate mode                          : ConstantFrame rate                               : 23.976 (24000/1001) FPSColor space                              : YUVChroma subsampling                       : 4:2:0Bit depth                                : 8 bitsScan type                                : ProgressiveBits/(Pixel*Frame)                       : 0.218Stream size                              : 3.28 GiB (49%)Title                                    : Osnovnoj instinkt.(1992).BDRip.720p.[denis100]Writing library                          : x264 core 144 r2525 40bb568Encoding settings                        : cabac=1 / ref=11 / deblock=1:-3:-3 / analyse=0x3:0x133 / me=umh / subme=11 / psy=1 / psy_rd=1.00:0.00 / mixed_ref=1 / me_range=32 / chroma_me=1 / trellis=2 / 8x8dct=1 / cqm=0 / deadzone=21,11 / fast_pskip=0 / chroma_qp_offset=-2 / threads=6 / lookahead_threads=1 / sliced_threads=0 / nr=0 / decimate=1 / interlaced=0 / bluray_compat=0 / constrained_intra=0 / bframes=14 / b_pyramid=2 / b_adapt=2 / b_bias=0 / direct=3 / weightb=1 / open_gop=0 / weightp=2 / keyint=240 / keyint_min=23 / scenecut=40 / intra_refresh=0 / rc=crf / mbtree=0 / crf=16.9 / qcomp=0.60 / qpmin=0 / qpmax=69 / qpstep=4 / ip_ratio=1.40 / pb_ratio=1.30 / aq=1:1.00Language                                 : EnglishDefault                                  : YesForced                                   : No

Audio #1ID                                       : 2Format                                   : AC-3Format/Info                              : Audio Coding 3Mode extension                           : CM (complete main)Format settings, Endianness              : BigCodec ID                                 : A_AC3Duration                                 : 2 h 8 minBit rate mode                            : ConstantBit rate                                 : 448 kb/sChannel(s)                               : 6 channelsChannel positions                        : Front: L C R, Side: L R, LFESampling rate                            : 48.0 kHzFrame rate                               : 31.250 FPS (1536 spf)Compression mode                         : LossyStream size                              : 411 MiB (6%)Title                                    : Профессиональный двухголосый, CP-DIGITALLanguage                                 : RussianDefault                                  : YesForced                                   : No

Audio #2ID                                       : 3Format                                   : AC-3Format/Info                              : Audio Coding 3Mode extension                           : CM (complete main)Format settings, Endianness              : BigCodec ID                                 : A_AC3Duration                                 : 2 h 8 minBit rate mode                            : ConstantBit rate                                 : 192 kb/sChannel(s)                               : 2 channelsChannel positions                        : Front: L RSampling rate                            : 48.0 kHzFrame rate                               : 31.250 FPS (1536 spf)Compression mode                         : LossyStream size                              : 176 MiB (3%)Title                                    : Профессиональный многоголосый, ОРТLanguage                                 : RussianDefault                                  : NoForced                                   : No

Audio #3ID                                       : 4Format                                   : AC-3Format/Info                              : Audio Coding 3Mode extension                           : CM (complete main)Format settings, Endianness              : BigCodec ID                                 : A_AC3Duration                                 : 2 h 8 minBit rate mode                            : ConstantBit rate                                 : 192 kb/sChannel(s)                               : 2 channelsChannel positions                        : Front: L RSampling rate                            : 48.0 kHzFrame rate                               : 31.250 FPS (1536 spf)Compression mode                         : LossyStream size                              : 176 MiB (3%)Title                                    : Профессиональный двухголосый, Премьер Видео ФильмLanguage                                 : RussianDefault                                  : NoForced                                   : No

Audio #4ID                                       : 5Format                                   : AC-3Format/Info                              : Audio Coding 3Mode extension                           : CM (complete main)Format settings, Endianness              : BigCodec ID                                 : A_AC3Duration                                 : 2 h 8 minBit rate mode                            : ConstantBit rate                                 : 192 kb/sChannel(s)                               : 2 channelsChannel positions                        : Front: L RSampling rate                            : 48.0 kHzFrame rate                               : 31.250 FPS (1536 spf)Compression mode                         : LossyStream size                              : 176 MiB (3%)Title                                    : Профессиональный многоголосый, РТРLanguage                                 : RussianDefault                                  : NoForced                                   : No

Audio #5ID                                       : 6Format                                   : AC-3Format/Info                              : Audio Coding 3Mode extension                           : CM (complete main)Format settings, Endianness              : BigCodec ID                                 : A_AC3Duration                                 : 2 h 8 minBit rate mode                            : ConstantBit rate                                 : 192 kb/sChannel(s)                               : 2 channelsChannel positions                        : Front: L RSampling rate                            : 48.0 kHzFrame rate                               : 31.250 FPS (1536 spf)Compression mode                         : LossyStream size                              : 176 MiB (3%)Title                                    : Авторский, ГорчаковLanguage                                 : RussianDefault                                  : NoForced                                   : No

Audio #6ID                                       : 7Format                                   : AC-3Format/Info                              : Audio Coding 3Mode extension                           : CM (complete main)Format settings, Endianness              : BigCodec ID                                 : A_AC3Duration                                 : 2 h 8 minBit rate mode                            : ConstantBit rate                                 : 448 kb/sChannel(s)                               : 6 channelsChannel positions                        : Front: L C R, Side: L R, LFESampling rate                            : 48.0 kHzFrame rate                               : 31.250 FPS (1536 spf)Compression mode                         : LossyStream size                              : 411 MiB (6%)Title                                    : Авторский, ГавриловLanguage                                 : RussianDefault                                  : NoForced                                   : No

Audio #7ID                                       : 8Format                                   : AC-3Format/Info                              : Audio Coding 3Mode extension                           : CM (complete main)Format settings, Endianness              : BigCodec ID                                 : A_AC3Duration                                 : 2 h 8 minBit rate mode                            : ConstantBit rate                                 : 224 kb/sChannel(s)                               : 2 channelsChannel positions                        : Front: L RSampling rate                            : 44.1 kHzFrame rate                               : 28.711 FPS (1536 spf)Compression mode                         : LossyStream size                              : 205 MiB (3%)Title                                    : Авторский, ЖивовLanguage                                 : RussianDefault                                  : NoForced                                   : No

Audio #8ID                                       : 9Format                                   : AC-3Format/Info                              : Audio Coding 3Mode extension                           : CM (complete main)Format settings, Endianness              : BigCodec ID                                 : A_AC3Duration                                 : 2 h 8 minBit rate mode                            : ConstantBit rate                                 : 192 kb/sChannel(s)                               : 2 channelsChannel positions                        : Front: L RSampling rate                            : 48.0 kHzFrame rate                               : 31.250 FPS (1536 spf)Compression mode                         : LossyStream size                              : 176 MiB (3%)Title                                    : Авторский, ЛибергалLanguage                                 : RussianDefault                                  : NoForced                                   : No

Audio #9ID                                       : 10Format                                   : AC-3Format/Info                              : Audio Coding 3Mode extension                           : CM (complete main)Format settings, Endianness              : BigCodec ID                                 : A_AC3Duration                                 : 2 h 8 minBit rate mode                            : ConstantBit rate                                 : 448 kb/sChannel(s)                               : 6 channelsChannel positions                        : Front: L C R, Side: L R, LFESampling rate                            : 48.0 kHzFrame rate                               : 31.250 FPS (1536 spf)Compression mode                         : LossyStream size                              : 411 MiB (6%)Title                                    : Авторский, Матвеев (Doctor Joker)Language                                 : RussianDefault                                  : NoForced                                   : No

Audio #10ID                                       : 11Format                                   : AC-3Format/Info                              : Audio Coding 3Mode extension                           : CM (complete main)Format settings, Endianness              : BigCodec ID                                 : A_AC3Duration                                 : 2 h 8 minBit rate mode                            : ConstantBit rate                                 : 448 kb/sChannel(s)                               : 6 channelsChannel positions                        : Front: L C R, Side: L R, LFESampling rate                            : 48.0 kHzFrame rate                               : 31.250 FPS (1536 spf)Compression mode                         : LossyStream size                              : 411 MiB (6%)Title                                    : Авторский, Юрий СербинLanguage                                 : RussianDefault                                  : NoForced                                   : No

Audio #11ID                                       : 12Format                                   : AC-3Format/Info                              : Audio Coding 3Mode extension                           : CM (complete main)Format settings, Endianness              : BigCodec ID                                 : A_AC3Duration                                 : 2 h 8 minBit rate mode                            : ConstantBit rate                                 : 640 kb/sChannel(s)                               : 6 channelsChannel positions                        : Front: L C R, Side: L R, LFESampling rate                            : 48.0 kHzFrame rate                               : 31.250 FPS (1536 spf)Compression mode                         : LossyStream size                              : 587 MiB (9%)Title                                    : EnglishLanguage                                 : EnglishDefault                                  : NoForced                                   : No

Text #1ID                                       : 13Format                                   : UTF-8Codec ID                                 : S_TEXT/UTF8Codec ID/Info                            : UTF-8 Plain TextTitle                                    : FullLanguage                                 : RussianDefault                                  : NoForced                                   : No

Text #2ID                                       : 14Format                                   : UTF-8Codec ID                                 : S_TEXT/UTF8Codec ID/Info                            : UTF-8 Plain TextTitle                                    : FullLanguage                                 : EnglishDefault                                  : NoForced                                   : No

Menu00:00:00.000                             : en:Sex Crimes00:07:20.857                             : en:An Amateur00:15:36.810                             : en:Written Alabi00:21:01.009                             : en:Nothing to Hide00:29:34.773                             : en:Innocent Test00:35:33.005                             : en:Internal Affairs00:40:29.176                             : en:Reckless Pursuit00:46:48.138                             : en:Rough Edges01:02:07.515                             : en:Playing Games01:11:34.415                             : en:Pretty Good Beginning01:20:44.881                             : en:Deadly Chase01:28:39.772                             : en:Mind Manipulation01:34:23.074                             : en:Personal Files01:41:37.299                             : en:Researching Records01:50:21.448                             : en:Killer Story01:58:32.605                             : en:Happily Ever After

piratbit.ru

Скачать фильм Инстинкт (1999) через торрент

7 июля 2016 06:57 Инстинкт / Instinct (1999) WEB-DLRip-AVC от NNM-CLUB | P2, A .torrent   [Информация о файле (нажмите для просмотра)] Перевод: Профессиональный (двухголосый, закадровый), авторский (одноголосый, закадровый)Субтитры: отсутствуютВидео: AVC, 1024x432 (2.35:1), 23.976 fps, 1 949 Kbps (0.184 bit/pixel)Аудио #1: AC-3, 48.0 KHz, 6 ch, 384 Kbps, CBR (Russian) - двухголосыйАудио #2: AC-3, 48.0 KHz, 2 ch, 192 Kbps, CBR (Russian) - С.ВизгуновВидео: Идентификатор : 1 Формат : AVC Формат/Информация : Advanced Video Codec Профиль формата : [email protected] Параметр CABAC формата : Да Параметр ReFrames формата : 8 кадров Идентификатор кодека : V_MPEG4/ISO/AVC Продолжительность : 2 ч. 3 м. Битрейт : 1949 Кбит/сек Ширина : 1024 пикселя Высота : 432 пикселя Соотношение сторон : 2,40:1 Режим частоты кадров : Постоянный Частота кадров : 23,976 кадра/сек Цветовое пространство : YUV Субдискретизация насыщенности : 4:2:0 Битовая глубина : 8 бит Тип развёртки : Прогрессивная Бит/(Пиксели*Кадры) : 0.184 Размер потока : 1,64 Гбайт (75%) Библиотека кодирования : x264 core 146 r2538 121396c Настройки программы : cabac=1 / ref=8 / deblock=1:-2:-2 / analyse=0x3:0x133 / me=umh / subme=10 / psy=1 / psy_rd=1.10:0.10 / mixed_ref=1 / me_range=32 / chroma_me=1 / trellis=2 / 8x8dct=1 / cqm=0 / deadzone=21,11 / fast_pskip=0 / chroma_qp_offset=-3 / threads=12 / lookahead_threads=1 / sliced_threads=0 / nr=0 / decimate=0 / interlaced=0 / bluray_compat=0 / constrained_intra=0 / bframes=6 / b_pyramid=2 / b_adapt=2 / b_bias=0 / direct=3 / weightb=1 / open_gop=0 / weightp=2 / keyint=240 / keyint_min=23 / scenecut=40 / intra_refresh=0 / rc=2pass / mbtree=0 / bitrate=1949 / ratetol=1.0 / qcomp=0.60 / qpmin=0 / qpmax=69 / qpstep=4 / cplxblur=20.0 / qblur=0.5 / ip_ratio=1.40 / pb_ratio=1.30 / aq=1:0.90 Язык : English Default : Да Forced : НетАудио #1: Идентификатор : 2 Формат : AC-3 Формат/Информация : Audio Coding 3 Расширение режима : CM (complete main) Параметр Endianness формата : Big Идентификатор кодека : A_AC3 Продолжительность : 2 ч. 3 м. Вид битрейта : Постоянный Битрейт : 384 Кбит/сек Каналы : 6 каналов Расположение каналов : Front: L C R, Side: L R, LFE Частота : 48,0 КГц Битовая глубина : 16 бит Метод сжатия : С потерями Размер потока : 339 Мбайт (15%) Заголовок : DVO, R5 Язык : Russian Default : Да Forced : НетАудио #2: Идентификатор : 3 Формат : AC-3 Формат/Информация : Audio Coding 3 Расширение режима : CM (complete main) Параметр Endianness формата : Big Идентификатор кодека : A_AC3 Продолжительность : 2 ч. 3 м. Вид битрейта : Постоянный Битрейт : 192 Кбит/сек Каналы : 2 канала Расположение каналов : Front: L R Частота : 48,0 КГц Битовая глубина : 16 бит Метод сжатия : С потерями Размер потока : 170 Мбайт (8%) Заголовок : Vizgunov Язык : Russian Default : Нет Forced : Нет 2,18 Gb 25 2 7 июля 2016 06:57 Инстинкт / Instinct (1999) DVDRip-AVC от Temperest .torrent   [Информация о файле (нажмите для просмотра)] Перевод: Профессиональный (двухголосый, закадровый)R5Кодек: h.264Качество: DVDRip-AVCВидео: 704x416 (2.35:1) @ 984x416 (анаморф), 25.000 fps, AVC, ~1665 Kbps, 0.227 bits/pixelЗвук: Русский, 48.0 KHz, AC3, 6 ch, 384 Kbps Английский, 48.0 KHz, AC3, 6 ch, 384 KbpsСубтитры: Русские (R5), VobSubВидео: Идентификатор : 1 Формат : AVC Формат/Информация : Advanced Video Codec Профиль формата : [email protected] Параметр CABAC формата : Да Параметр ReFrames формата : 16 кадров Идентификатор кодека : V_MPEG4/ISO/AVC Продолжительность : 1 ч. 58 м. Битрейт : 1665 Кбит/сек Ширина : 704 пикселя Высота : 416 пикселей Соотношение сторон : 2,35:1 Соотношение сторон в оригинале : 2,35:1 Режим частоты кадров : Постоянный Частота кадров : 25,000 кадров/сек Цветовое пространство : YUV Субдискретизация насыщенности : 4:2:0 Битовая глубина : 8 бит Тип развёртки : Прогрессивная Бит/(Пиксели*Кадры) : 0.227 Размер потока : 1,34 Гбайт (66%) Библиотека кодирования : x264 core 138 r2358 9e941d1 Настройки программы : cabac=1 / ref=16 / deblock=1:0:0 / analyse=0x3:0x133 / me=umh / subme=10 / psy=1 / psy_rd=1.10:0.10 / mixed_ref=1 / me_range=32 / chroma_me=1 / trellis=2 / 8x8dct=1 / cqm=0 / deadzone=21,11 / fast_pskip=0 / chroma_qp_offset=-6 / threads=8 / lookahead_threads=2 / sliced_threads=0 / nr=0 / decimate=0 / interlaced=0 / bluray_compat=0 / constrained_intra=0 / bframes=12 / b_pyramid=2 / b_adapt=2 / b_bias=0 / direct=3 / weightb=1 / open_gop=0 / weightp=2 / keyint=250 / keyint_min=25 / scenecut=60 / intra_refresh=0 / rc_lookahead=60 / rc=2pass / mbtree=0 / bitrate=1665 / ratetol=1.0 / qcomp=0.60 / qpmin=0 / qpmax=69 / qpstep=4 / cplxblur=20.0 / qblur=0.5 / vbv_maxrate=50000 / vbv_bufsize=62500 / nal_hrd=none / ip_ratio=1.40 / pb_ratio=1.30 / aq=2:1.00 Default : Нет Forced : Нет Коэффициенты матрицы : BT.601Аудио #1: Идентификатор : 2 Формат : AC-3 Формат/Информация : Audio Coding 3 Расширение режима : CM (complete main) Параметр Endianness формата : Big Идентификатор кодека : A_AC3 Продолжительность : 1 ч. 58 м. Вид битрейта : Постоянный Битрейт : 384 Кбит/сек Каналы : 6 каналов Расположение каналов : Front: L C R, Side: L R, LFE Частота : 48,0 КГц Битовая глубина : 16 бит Метод сжатия : С потерями Размер потока : 326 Мбайт (16%) Язык : Russian Default : Да Forced : НетАудио #2: Идентификатор : 3 Формат : AC-3 Формат/Информация : Audio Coding 3 Расширение режима : CM (complete main) Параметр Endianness формата : Big Идентификатор кодека : A_AC3 Продолжительность : 1 ч. 58 м. Вид битрейта : Постоянный Битрейт : 384 Кбит/сек Каналы : 6 каналов Расположение каналов : Front: L C R, Side: L R, LFE Частота : 48,0 КГц Битовая глубина : 16 бит Метод сжатия : С потерями Размер потока : 326 Мбайт (16%) Язык : English Default : Нет Forced : Нет 2,02 Gb 5 3 7 июля 2016 06:57 Инстинкт / Instinct (1999) DVDRip .torrent   [Информация о файле (нажмите для просмотра)] Перевод: Профессиональный (двухголосый)Кодек: XviDКачество: DVDRip - исх. DVD-9Видео: 640x272 (2.35:1), 25 fps, XviD build 50 ~739 kbps avg, 0.17 bit/pixelЗвук: 48 kHz, MPEG Layer 3, 2 ch, ~128.00 kbps avg 743,97 Mb 7 2

gig-torrent.net


Смотрите также