Скачать фильм пассажиры через торрент в hd качестве 1080p 2016 года


Пассажиры (2016) HD 1080p скачать торрент в хорошем качестве

Год выпуска: 2016Страна: СШАЖанр: фантастика, драма, мелодрамаПродолжительность: 01:56:10Перевод: Дублированный [Лицензия]Субтитры: русские, украинские, английские

В ролях: Дженнифер Лоуренс, Крис Пратт, Майкл Шин, Лоренс Фишбёрн, Энди Гарсиа, Винс Фостер, Кара Мишель Уайлдер, Конор Брофи, Джули Серда, Аврора ПерриноРежиссёр: Мортен Тильдум

Описание: Космический корабль с 5,000 пассажиров на борту, погруженных на время полета в искусственный сон, держит курс на планету, которая станет для них новым домом. Всё идет по плану, но из-за сбоя системы двое пассажиров неожиданно просыпаются и понимают, что до конечного пункта путешествия – 90 лет пути, и им суждено остаток жизни провести вдвоем в роскошных интерьерах корабля, оснащенного по последнему слову техники. Постепенно Джима и Аврору начинает непреодолимо тянуть друг к другу, но корабль попадает в беду, и теперь в их руках – жизнь и судьба всех обитателей корабля.

Качество: BDRip 1080pФормат: MKVВидео кодек: [email protected]Аудио кодек: AC3, DTSВидео: 1920x804, 23,976 fps, HEVC, ~5647 kbps, 10bitАудио: Rus, 48 kHz/16-bit, AC3 5.1, ~640 kbps | ДубляжАудио: Ukr, 48 kHz/16-bit, AC3 5.1, ~640 kbps | ДубляжАудио: Eng, 48 kHz/16-bit, DTS 5.1, ~1509 kbps | ОригиналНавигация по главам: Присутствует

- H.265/HEVC (High Efficiency Video Coding) - это новый стандарт кодирования видео.- Стандарт H.265/HEVC является логическим продолжением стандарта H.264/AVC (Advanced Video Coding), и характеризуется более эффективными алгоритмами сжатия, а также поддержкой высокого разрешения вплоть до 8K UHD (8192x4320). Первая версия стандарта H.265 была опубликована в начале 2013 года. - Рипы в фомате HEVC поддерживается не всеми аппаратными проигрывателями.- Для корректного воспроизведения может потребоваться обновление ПО.- Владельцам несовместимого железа просьба не беспокоить, есть альтернативные релизы.

ОбщееУникальный идентификатор : 198132790937684882216060035665407380629 (0x950EFCCD025326C3A2FF37ADB2160C95)Полное имя : F:HEVCPassengers (2016)Passengers.2016.1080p_HEVCCLUB.mkvФормат : MatroskaВерсия формата : Version 4 / Version 2Размер файла : 6,85 ГбайтПродолжительность : 1 ч. 56 м.Общий поток : 8440 Кбит/секНазвание фильма : Passengers (2016) - HEVC.CLUBДата кодирования : UTC 2017-03-21 22:29:19Программа кодирования : mkvmerge v9.9.0 ('Pick Up') 64bitБиблиотека кодирования : libebml v1.3.4 + libmatroska v1.4.5Обложка : YesAttachments : cover.jpg

ВидеоИдентификатор : 1Формат : HEVCФормат/Информация : High Efficiency Video CodingПрофиль формата : Main [email protected]@HighИдентификатор кодека : V_MPEGH/ISO/HEVCПродолжительность : 1 ч. 56 м.Битрейт : 5647 Кбит/секШирина : 1920 пикселейВысота : 804 пикселяСоотношение сторон : 2,40:1Режим частоты кадров : ПостоянныйЧастота кадров : 23,976 (24000/1001) кадра/секЦветовое пространство : YUVСубдискретизация насыщенности : 4:2:0Битовая глубина : 10 битБит/(Пиксели*Кадры) : 0.153Размер потока : 4,58 Гбайт (67%)Библиотека кодирования : x265 2.2+36-9b975fec584a:[Windows][GCC 6.3.0][64 bit] 10bitНастройки программы : cpuid=1173503 / frame-threads=3 / numa-pools=8 / wpp / no-pmode / no-pme / no-psnr / ssim / log-level=2 / input-csp=1 / input-res=1920x804 / interlace=0 / total-frames=0 / level-idc=41 / high-tier=1 / uhd-bd=0 / ref=6 / no-allow-non-conformance / repeat-headers / annexb / aud / hrd / info / hash=0 / no-temporal-layers / open-gop / min-keyint=23 / keyint=250 / bframes=10 / b-adapt=2 / b-pyramid / bframe-bias=0 / rc-lookahead=60 / lookahead-slices=1 / scenecut=40 / no-intra-refresh / ctu=64 / min-cu-size=8 / no-rect / no-amp / max-tu-size=32 / tu-inter-depth=3 / tu-intra-depth=3 / limit-tu=0 / rdoq-level=1 / dynamic-rd=2.00 / signhide / no-tskip / nr-intra=0 / nr-inter=0 / no-constrained-intra / no-strong-intra-smoothing / max-merge=2 / limit-refs=3 / no-limit-modes / me=1 / subme=4 / merange=64 / temporal-mvp / weightp / weightb / no-analyze-src-pics / deblock=-3:-3 / no-sao / no-sao-non-deblock / rd=4 / no-early-skip / no-rskip / no-fast-intra / no-tskip-fast / no-cu-lossless / no-b-intra / rdpenalty=0 / psy-rd=1.60 / psy-rdoq=2.30 / no-rd-refine / analysis-mode=0 / no-lossless / cbqpoffs=0 / crqpoffs=0 / rc=crf / crf=22.0 / qcomp=0.90 / qpstep=6 / stats-write=0 / stats-read=0 / vbv-maxrate=50000 / vbv-bufsize=50000 / vbv-init=0.9 / crf-max=0.0 / crf-min=0.0 / ipratio=1.40 / pbratio=1.00 / aq-mode=1 / aq-strength=1.40 / no-cutree / zone-count=0 / no-strict-cbr / qg-size=32 / no-rc-grain / qpmax=69 / qpmin=0 / sar=1 / overscan=0 / videoformat=5 / range=0 / colorprim=2 / transfer=2 / colormatrix=1 / chromaloc=0 / display-window=0 / max-cll=0,0 / min-luma=0 / max-luma=1023 / log2-max-poc-lsb=8 / vui-timing-info / vui-hrd-info / slices=1 / opt-qp-pps / opt-ref-list-length-pps / no-multi-pass-opt-rps / scenecut-bias=0.05 / no-opt-cu-delta-qp / aq-motion / no-hdrDefault : ДаForced : ДаЦветовой диапазон : LimitedКоэффициенты матрицы : BT.709

Аудио #1Идентификатор : 2Формат : AC-3Формат/Информация : Audio Coding 3Расширение режима : CM (complete main)Параметр Endianness формата : BigИдентификатор кодека : A_AC3Продолжительность : 1 ч. 56 м.Вид битрейта : ПостоянныйБитрейт : 640 Кбит/секКаналы : 6 каналовРасположение каналов : Front: L C R, Side: L R, LFEЧастота : 48,0 КГцЧастота кадров : 31,250 кадров/сек (1536 spf)Метод сжатия : С потерямиРазмер потока : 532 Мбайт (8%)Заголовок : DubЯзык : RussianDefault : ДаForced : Нет

Аудио #2Идентификатор : 3Формат : AC-3Формат/Информация : Audio Coding 3Расширение режима : CM (complete main)Параметр Endianness формата : BigИдентификатор кодека : A_AC3Продолжительность : 1 ч. 56 м.Вид битрейта : ПостоянныйБитрейт : 640 Кбит/секКаналы : 6 каналовРасположение каналов : Front: L C R, Side: L R, LFEЧастота : 48,0 КГцЧастота кадров : 31,250 кадров/сек (1536 spf)Метод сжатия : С потерямиРазмер потока : 532 Мбайт (8%)Заголовок : DubЯзык : UkrainianDefault : НетForced : Нет

Аудио #3Идентификатор : 4Формат : DTSФормат/Информация : Digital Theater SystemsРежим : 16Параметр Endianness формата : BigИдентификатор кодека : A_DTSПродолжительность : 1 ч. 56 м.Вид битрейта : ПостоянныйБитрейт : 1509 Кбит/секКаналы : 6 каналовРасположение каналов : Front: L C R, Side: L R, LFEЧастота : 48,0 КГцЧастота кадров : 93,750 кадра/сек (512 spf)Битовая глубина : 16 битМетод сжатия : С потерямиРазмер потока : 1,22 Гбайт (18%)Заголовок : OriginalЯзык : EnglishDefault : НетForced : Нет

Текст #1Идентификатор : 5Формат : UTF-8Идентификатор кодека : S_TEXT/UTF8Идентификатор кодека/Информация : UTF-8 Plain TextПродолжительность : 1 ч. 48 м.Битрейт : 0 бит/секCount of elements : 13Размер потока : 592 байт (0%)Заголовок : ForcedЯзык : RussianDefault : ДаForced : Нет

Текст #2Идентификатор : 6Формат : UTF-8Идентификатор кодека : S_TEXT/UTF8Идентификатор кодека/Информация : UTF-8 Plain TextПродолжительность : 1 ч. 54 м.Битрейт : 68 бит/секCount of elements : 1115Размер потока : 57,7 Кбайт (0%)Заголовок : FullЯзык : RussianDefault : НетForced : Нет

Текст #3Идентификатор : 7Формат : UTF-8Идентификатор кодека : S_TEXT/UTF8Идентификатор кодека/Информация : UTF-8 Plain TextПродолжительность : 1 ч. 54 м.Битрейт : 0 бит/секCount of elements : 9Размер потока : 412 байт (0%)Заголовок : ForcedЯзык : UkrainianDefault : НетForced : Нет

Текст #4Идентификатор : 8Формат : UTF-8Идентификатор кодека : S_TEXT/UTF8Идентификатор кодека/Информация : UTF-8 Plain TextПродолжительность : 1 ч. 54 м.Битрейт : 75 бит/секCount of elements : 1282Размер потока : 63,3 Кбайт (0%)Заголовок : FullЯзык : UkrainianDefault : НетForced : Нет

Текст #5Идентификатор : 9Формат : UTF-8Идентификатор кодека : S_TEXT/UTF8Идентификатор кодека/Информация : UTF-8 Plain TextПродолжительность : 1 ч. 45 м.Битрейт : 49 бит/секCount of elements : 1280Размер потока : 37,9 Кбайт (0%)Заголовок : FullЯзык : EnglishDefault : НетForced : Нет

Текст #6Идентификатор : 10Формат : UTF-8Идентификатор кодека : S_TEXT/UTF8Идентификатор кодека/Информация : UTF-8 Plain TextПродолжительность : 1 ч. 48 м.Битрейт : 57 бит/секCount of elements : 1619Размер потока : 45,3 Кбайт (0%)Заголовок : SDHЯзык : EnglishDefault : НетForced : Нет

Меню00:00:00.000 : en:00:00:00.00000:07:04.674 : en:00:07:04.67400:14:38.211 : en:00:14:38.21100:20:33.649 : en:00:20:33.64900:25:06.338 : en:00:25:06.33800:30:30.662 : en:00:30:30.66200:40:47.987 : en:00:40:47.98700:50:23.020 : en:00:50:23.02000:57:28.945 : en:00:57:28.94501:02:54.813 : en:01:02:54.81301:10:47.160 : en:01:10:47.16001:17:48.664 : en:01:17:48.66401:25:17.029 : en:01:25:17.02901:31:45.041 : en:01:31:45.04101:37:53.242 : en:01:37:53.24201:42:18.549 : en:01:42:18.549

rutorg2.ru

Скачать торрент Пассажиры / Passengers (2016) BDRip 1080p от Ash61 | 3D-Video | halfOU

ПассажирыPassengers«Ничто не случайно»Год выпуска: 2016Страна: США (Sony, Columbia Pictures, Village Roadshow Pictures, Start Motion Pictures, Original Film)Жанр: Фантастика, Драма, Мелодрама, ПриключенияПродолжительность: 01:56:11

Перевод: Профессиональный дублированный (лицензия)

Режиссер: Мортен Тильдум / Morten Tyldum

Роли исполняли (дублировали):

Aurora Lane - Дженнифер Лоуренс (Наталья Грачёва) Jim Preston - Крис Пратт (Сергей Смирнов) Arthur - Майкл Шин (Василий Дахненко) Gus Mancuso - Лоренс Фишбёрн (Сергей Чихачев) Captain Norris - Энди Гарсиа Executive Officer - Винс Фостер Communications Officer - Кара Мишель Уайлдер Crew Member - Конор Брофи Instructor (Hologram) - Джули Серда (Нина Александрова) Best Friend - Аврора Перрино (Татьяна Абрамова)

Описание: Космический корабль с 5 000 пассажирами на борту, погруженных на время полета в искусственный сон, держит курс на планету, которая станет для них новым домом. Всё идет по плану, но из-за сбоя системы двое пассажиров неожиданно просыпаются и понимают, что до конечного пункта путешествия 90 лет пути, и им суждено остаток жизни провести вдвоем в роскошных интерьерах корабля, оснащенного по последнему слову техники. Постепенно Джима и Аврору начинает непреодолимо тянуть друг к другу, но корабль попадает в беду, и теперь в их руках — жизнь и судьба всех обитателей корабля.

Знаете ли вы, что...

  • Ранее проект готовился на студии Universal, но перешел к Sony Pictures Entertainment.
  • Идея и сценарий фильма разрабатывались на студии Company Films, принадлежащей Киану Ривзу и Стивену Хэймелу.
  • Сценарий Джона Спэйтса, написанный в 2007 году, занял третье место в Черном списке лучших сценариев того года.
  • Изначально на главную роль рассматривался Киану Ривз.
  • В разное время на главную женскую роль претендовали Риз Уизерспун, Рэйчел МакАдамс и Эмили Блант.
  • На одном из постеров сразу под названием картины изображены символы: точка точка точка, тире тире тире, точка точка точка — означающие сигнал S.O.S. в азбуке Морзе.
  • На режиссерское кресло претендовали Габриэле Муччино, Марк Форстер и Брайан Кирк.
  • Крис Пратт и Дженнифер Лоуренс оба участвуют в экранизациях комиксов Marvel. Пратт исполняет роль Питера Квилла (Звездного Лорда) в «Стражах Галактики», а Лоуренс играет Рейвен Даркхолм (Мистик) в саге про «Людей Икс».
  • Примечательно, что героиню Дженнифер Лоуренс зовут Аврора. Так же звали Спящую красавицу из одноименного мультфильма студии Дисней.
  • Стекло скафандра имеет мощный ультрафиолетовый фильтр, из-за чего снаружи оно выглядит зеркальным. Если бы оно было прозрачным, как в фильме, у героев бы сгорело лицо за несколько минут.

    Осторожно, следующие факты содержат спойлеры!

  • Дженнифер Лоуренс призналась, что очень нервничала в интимной сцене с Крисом Пратом, потому что это была первая такая сцена в её карьере и потому, что ей впервые довелось целоваться с женатым актёром. Актриса призналась, что перед съёмками этой сцены выпила для храбрости.
  • Дженнифер Лоуренс утверждает, что фильм «Пассажиры» — первый, где ей пришлось играть постельную сцену. Однако она уже играла в таких сценах с Антоном Ельчиным в фильме «Как сумасшедший» (2011) и с Брэдли Купером в фильме Сюзанны Бир «Серена» (2014).
  • Ошибки в фильме (осторожно, спойлеры!)

  • В условия невесомости, даже с отключенным питанием, корабль не может взять и резко остановить вращение, как показано в фильме. Это нарушает сразу несколько фундаментальных законов физики.
  • Когда главный герой вручную открывает вентиляцию реактора, в него устремляется не просто огонь, а поток плазмы, то есть заряженных частиц очень большой энергии. В таких условиях никак не может работать радиосвязь.
  • Обмерзание скафандра изнутри, как показано в конце фильма, может быть вызвано лишь ударной разгерметизацией, например, если бы ему оторвало шлем. А с мелкой пробоиной в рукаве скафандр легко справляется без особого ущерба космонавту внутри.
  • В комнате управления реактором, когда возросла температура, Аврора обожглась об рычаг, но при этом все остальные объекты в комнате почему-то не нагрелись и она спокойно к ним прикасается.
  • В лифте, которым пользуются главные герои и который проходит как раз через ось вращения корабля, гравитация должна отсутствовать постоянно, а не только при движении. А вот при движении внутри лифта должно образовываться условное «тяготение», вызванное его ускорением.
  • Премьера: 14 декабря 2016 (22 декабря 2016)Бюджет: $110 000 000Кассовые сборы: $283 432 307

    Качество: BDRip (by Ash61)Контейнер: MKVФормат 3D: Half OverUnder / Вертикальная анаморфная стереопараПорядок ракурсов: левый ракурс первыйВидео: AVC / 1920х1080p / 23,976 fps / 8213 Kbps

    Аудио:#1 - Русский / AC3 / 48 KHz / 5.1 ch / 640 Kbps (Дубляж - BD Eur)#2 - Украинский / AC3 / 48 KHz / 5.1 ch / 640 Kbps (Дубляж - BD Eur)#3 - Английский / AC3 / 48 KHz / 5.1 ch / 640 Kbps (Original)

    Субтитры (SRT):Вшитые (softsub):#1 - Русские Форсированные [расширенные] (включены по умолчанию)#2 - Русские Полные#3 - Украинские Форсированные [расширенные]#4 - Украинские Полные#5 - English Full#6 - English SDH

    Внешние (UTF-8):#1 - Русские Форсированные [расширенные] (включены по умолчанию)#2 - Украинские Форсированные [расширенные]

    MediaInfo

    General Unique ID : 206239199529918063781593188788838313063 (0x9B28399A21B3B8A699195C1F76E7AC67) Complete name : E:Passengers(2016)3D-halfOU(Ash61)Passengers(2016)3D-halfOU(Ash61).mkv Format : Matroska Format version : Version 2 File size : 8.39 GiB Duration : 1h 56mn Overall bit rate : 10.3 Mbps Movie name : Пассажиры / Passengers (2016) в 3Д Encoded date : UTC 2017-03-21 20:17:45 Writing application : mkvmerge v5.8.0 ('No Sleep / Pillow') built on Sep 2 2012 15:37:04 Writing library : libebml v1.2.3 + libmatroska v1.3.0

    Video ID : 1 Format : AVC Format/Info : Advanced Video Codec Format profile : [email protected] Format settings, CABAC : Yes Format settings, ReFrames : 4 frames Codec ID : V_MPEG4/ISO/AVC Duration : 1h 56mn Bit rate : 8 213 Kbps Width : 1 920 pixels Height : 1 080 pixels Display aspect ratio : 16:9 Frame rate mode : Constant Frame rate : 23.976 fps Color space : YUV Chroma subsampling : 4:2:0 Bit depth : 8 bits Scan type : Progressive Bits/(Pixel*Frame) : 0.165 Stream size : 6.66 GiB (79%) Title : BDRip by Ash61 Writing library : x264 core 146 r2538 121396c Encoding settings : cabac=1 / ref=4 / deblock=1:-3:-3 / analyse=0x3:0x113 / me=umh / subme=10 / psy=1 / psy_rd=1.00:0.00 / mixed_ref=1 / me_range=32 / chroma_me=1 / trellis=2 / 8x8dct=1 / cqm=0 / deadzone=21,11 / fast_pskip=1 / chroma_qp_offset=-2 / threads=12 / lookahead_threads=2 / sliced_threads=0 / nr=0 / decimate=1 / interlaced=0 / bluray_compat=0 / constrained_intra=0 / bframes=9 / b_pyramid=2 / b_adapt=2 / b_bias=0 / direct=3 / weightb=1 / open_gop=0 / weightp=2 / keyint=250 / keyint_min=23 / scenecut=40 / intra_refresh=0 / rc_lookahead=60 / rc=crf / mbtree=0 / crf=15.5 / qcomp=0.70 / qpmin=0 / qpmax=69 / qpstep=4 / vbv_maxrate=40000 / vbv_bufsize=30000 / crf_max=0.0 / nal_hrd=none / filler=0 / frame-packing=4 / ip_ratio=1.40 / pb_ratio=1.30 / aq=1:0.70 Language : English Default : Yes Forced : No

    Audio #1 ID : 2 Format : AC-3 Format/Info : Audio Coding 3 Mode extension : CM (complete main) Format settings, Endianness : Big Codec ID : A_AC3 Duration : 1h 56mn Bit rate mode : Constant Bit rate : 640 Kbps Channel(s) : 6 channels Channel positions : Front: L C R, Side: L R, LFE Sampling rate : 48.0 KHz Bit depth : 16 bits Compression mode : Lossy Stream size : 532 MiB (6%) Title : Дубляж - BD Eur Language : Russian Default : Yes Forced : No

    Audio #2 ID : 3 Format : AC-3 Format/Info : Audio Coding 3 Mode extension : CM (complete main) Format settings, Endianness : Big Codec ID : A_AC3 Duration : 1h 56mn Bit rate mode : Constant Bit rate : 640 Kbps Channel(s) : 6 channels Channel positions : Front: L C R, Side: L R, LFE Sampling rate : 48.0 KHz Bit depth : 16 bits Compression mode : Lossy Stream size : 532 MiB (6%) Title : Дубляж - BD Eur Language : Ukrainian Default : No Forced : No

    Audio #3 ID : 4 Format : AC-3 Format/Info : Audio Coding 3 Mode extension : CM (complete main) Format settings, Endianness : Big Codec ID : A_AC3 Duration : 1h 56mn Bit rate mode : Constant Bit rate : 640 Kbps Channel(s) : 6 channels Channel positions : Front: L C R, Side: L R, LFE Sampling rate : 48.0 KHz Bit depth : 16 bits Compression mode : Lossy Stream size : 532 MiB (6%) Title : Original Language : English Default : No Forced : No

    Text #1 ID : 5 Format : UTF-8 Codec ID : S_TEXT/UTF8 Codec ID/Info : UTF-8 Plain Text Title : Форсированные (расширенные) Language : Russian Default : Yes Forced : No

    Text #2 ID : 6 Format : UTF-8 Codec ID : S_TEXT/UTF8 Codec ID/Info : UTF-8 Plain Text Title : Полные Language : Russian Default : No Forced : No

    Text #3 ID : 7 Format : UTF-8 Codec ID : S_TEXT/UTF8 Codec ID/Info : UTF-8 Plain Text Title : Форсированные (расширенные) Language : Ukrainian Default : No Forced : No

    Text #4 ID : 8 Format : UTF-8 Codec ID : S_TEXT/UTF8 Codec ID/Info : UTF-8 Plain Text Title : Полные Language : Ukrainian Default : No Forced : No

    Text #5 ID : 9 Format : UTF-8 Codec ID : S_TEXT/UTF8 Codec ID/Info : UTF-8 Plain Text Title : Full Language : English Default : No Forced : No

    Text #6 ID : 10 Format : UTF-8 Codec ID : S_TEXT/UTF8 Codec ID/Info : UTF-8 Plain Text Title : SDH Language : English Default : No Forced : No

    Menu 00:00:00.000 : :1 00:07:04.673 : :2 00:14:38.210 : :3 00:20:33.648 : :4 00:25:06.337 : :5 00:30:30.662 : :6 00:40:47.987 : :7 00:50:23.018 : :8 00:57:28.945 : :9 01:02:54.811 : :10 01:10:47.158 : :11 01:17:48.662 : :12 01:25:17.028 : :13 01:31:45.041 : :14 01:37:53.242 : :15 01:42:18.548 : :16

    Каталог фильмов, выходивших в 3Д, со ссылками (27.02.2017)О форматах и методах просмотра 3D

    krutor.org

    Скачать фильм Пассажиры через торрент в хорошем качестве бесплатно 1080p от Ash61

    General

    Unique ID : 206239199529918063781593188788838313063 (0x9B28399A21B3B8A699195C1F76E7AC67)

    Complete name : E:Passengers(2016)3D-halfOU(Ash61)Passengers(2016)3D-halfOU(Ash61).mkv

    Format : Matroska

    Format version : Version 2

    File size : 8.39 GiB

    Duration : 1h 56mn

    Overall bit rate : 10.3 Mbps

    Movie name : Пассажиры / Passengers (2016) в 3Д

    Encoded date : UTC 2017-03-21 20:17:45

    Writing application : mkvmerge v5.8.0 ('No Sleep / Pillow') built on Sep 2 2012 15:37:04

    Writing library : libebml v1.2.3 + libmatroska v1.3.0

    Video

    ID : 1

    Format : AVC

    Format/Info : Advanced Video Codec

    Format profile : [email protected]

    Format settings, CABAC : Yes

    Format settings, ReFrames : 4 frames

    Codec ID : V_MPEG4/ISO/AVC

    Duration : 1h 56mn

    Bit rate : 8 213 Kbps

    Width : 1 920 pixels

    Height : 1 080 pixels

    Display aspect ratio : 16:9

    Frame rate mode : Constant

    Frame rate : 23.976 fps

    Color space : YUV

    Chroma subsampling : 4:2:0

    Bit depth : 8 bits

    Scan type : Progressive

    Bits/(Pixel*Frame) : 0.165

    Stream size : 6.66 GiB (79%)

    Title : BDRip by Ash61

    Writing library : x264 core 146 r2538 121396c

    Encoding settings : cabac=1 / ref=4 / deblock=1:-3:-3 / analyse=0x3:0x113 / me=umh / subme=10 / psy=1 / psy_rd=1.00:0.00 / mixed_ref=1 / me_range=32 / chroma_me=1 / trellis=2 / 8x8dct=1 / cqm=0 / deadzone=21,11 / fast_pskip=1 / chroma_qp_offset=-2 / threads=12 / lookahead_threads=2 / sliced_threads=0 / nr=0 / decimate=1 / interlaced=0 / bluray_compat=0 / constrained_intra=0 / bframes=9 / b_pyramid=2 / b_adapt=2 / b_bias=0 / direct=3 / weightb=1 / open_gop=0 / weightp=2 / keyint=250 / keyint_min=23 / scenecut=40 / intra_refresh=0 / rc_lookahead=60 / rc=crf / mbtree=0 / crf=15.5 / qcomp=0.70 / qpmin=0 / qpmax=69 / qpstep=4 / vbv_maxrate=40000 / vbv_bufsize=30000 / crf_max=0.0 / nal_hrd=none / filler=0 / frame-packing=4 / ip_ratio=1.40 / pb_ratio=1.30 / aq=1:0.70

    Language : English

    Default : Yes

    Forced : No

    Audio #1

    ID : 2

    Format : AC-3

    Format/Info : Audio Coding 3

    Mode extension : CM (complete main)

    Format settings, Endianness : Big

    Codec ID : A_AC3

    Duration : 1h 56mn

    Bit rate mode : Constant

    Bit rate : 640 Kbps

    Channel(s) : 6 channels

    Channel positions : Front: L C R, Side: L R, LFE

    Sampling rate : 48.0 KHz

    Bit depth : 16 bits

    Compression mode : Lossy

    Stream size : 532 MiB (6%)

    Title : Дубляж - BD Eur

    Language : Russian

    Default : Yes

    Forced : No

    Audio #2

    ID : 3

    Format : AC-3

    Format/Info : Audio Coding 3

    Mode extension : CM (complete main)

    Format settings, Endianness : Big

    Codec ID : A_AC3

    Duration : 1h 56mn

    Bit rate mode : Constant

    Bit rate : 640 Kbps

    Channel(s) : 6 channels

    Channel positions : Front: L C R, Side: L R, LFE

    Sampling rate : 48.0 KHz

    Bit depth : 16 bits

    Compression mode : Lossy

    Stream size : 532 MiB (6%)

    Title : Дубляж - BD Eur

    Language : Ukrainian

    Default : No

    Forced : No

    Audio #3

    ID : 4

    Format : AC-3

    Format/Info : Audio Coding 3

    Mode extension : CM (complete main)

    Format settings, Endianness : Big

    Codec ID : A_AC3

    Duration : 1h 56mn

    Bit rate mode : Constant

    Bit rate : 640 Kbps

    Channel(s) : 6 channels

    Channel positions : Front: L C R, Side: L R, LFE

    Sampling rate : 48.0 KHz

    Bit depth : 16 bits

    Compression mode : Lossy

    Stream size : 532 MiB (6%)

    Title : Original

    Language : English

    Default : No

    Forced : No

    Text #1

    ID : 5

    Format : UTF-8

    Codec ID : S_TEXT/UTF8

    Codec ID/Info : UTF-8 Plain Text

    Title : Форсированные (расширенные)

    Language : Russian

    Default : Yes

    Forced : No

    Text #2

    ID : 6

    Format : UTF-8

    Codec ID : S_TEXT/UTF8

    Codec ID/Info : UTF-8 Plain Text

    Title : Полные

    Language : Russian

    Default : No

    Forced : No

    Text #3

    ID : 7

    Format : UTF-8

    Codec ID : S_TEXT/UTF8

    Codec ID/Info : UTF-8 Plain Text

    Title : Форсированные (расширенные)

    Language : Ukrainian

    Default : No

    Forced : No

    Text #4

    ID : 8

    Format : UTF-8

    Codec ID : S_TEXT/UTF8

    Codec ID/Info : UTF-8 Plain Text

    Title : Полные

    Language : Ukrainian

    Default : No

    Forced : No

    Text #5

    ID : 9

    Format : UTF-8

    Codec ID : S_TEXT/UTF8

    Codec ID/Info : UTF-8 Plain Text

    Title : Full

    Language : English

    Default : No

    Forced : No

    Text #6

    ID : 10

    Format : UTF-8

    Codec ID : S_TEXT/UTF8

    Codec ID/Info : UTF-8 Plain Text

    Title : SDH

    Language : English

    Default : No

    Forced : No

    Menu

    00:00:00.000 : :1

    00:07:04.673 : :2

    00:14:38.210 : :3

    00:20:33.648 : :4

    00:25:06.337 : :5

    00:30:30.662 : :6

    00:40:47.987 : :7

    00:50:23.018 : :8

    00:57:28.945 : :9

    01:02:54.811 : :10

    01:10:47.158 : :11

    01:17:48.662 : :12

    01:25:17.028 : :13

    01:31:45.041 : :14

    01:37:53.242 : :15

    01:42:18.548 : :16

    piratbit.ru

    Скачать фильм Пассажиры через торрент в хорошем качестве бесплатно 1080p

    GeneralUnique ID : 210021249310983467423779147827134828746 (0x9E009F0D8DC37232A93683A132FF90CA)Complete name : C:\Passengers.2016.BDRip.1080p.(qqss44).mkvFormat : MatroskaFormat version : Version 2File size : 6.74 GiBDuration : 1 h 56 minOverall bit rate : 8 304 kb/sMovie name : Passengers.2016.BDRip.1080p.(qqss44)Encoded date : UTC 2017-03-03 12:25:58Writing application : mkvmerge v5.8.0 ('No Sleep / Pillow') built on Sep 2 2012 15:37:04Writing library : libebml v1.2.3 + libmatroska v1.3.0

    VideoID : 1Format : AVCFormat/Info : Advanced Video CodecFormat profile : [email protected] settings, CABAC : YesFormat settings, ReFrames : 5 framesCodec ID : V_MPEG4/ISO/AVCDuration : 1 h 56 minBit rate : 7 277 kb/sWidth : 1 920 pixelsHeight : 802 pixelsDisplay aspect ratio : 2.40:1Frame rate mode : ConstantFrame rate : 23.976 (24000/1001) FPSColor space : YUVChroma subsampling : 4:2:0Bit depth : 8 bitsScan type : ProgressiveBits/(Pixel*Frame) : 0.197Stream size : 5.77 GiB (86%)Title : Passengers.2016.BDRip.1080p.(qqss44)Writing library : x264 core 148 r2744kMod b97ae06Encoding settings : cabac=1 / ref=5 / deblock=1:-3:-3 / analyse=0x3:0x133 / me=umh / subme=11 / psy=1 / fade_compensate=0.00 / psy_rd=1.00:0.00 / mixed_ref=1 / me_range=32 / chroma_me=1 / trellis=2 / 8x8dct=1 / cqm=0 / deadzone=21,11 / fast_pskip=0 / chroma_qp_offset=-2 / threads=12 / lookahead_threads=2 / sliced_threads=0 / nr=0 / decimate=0 / interlaced=0 / bluray_compat=0 / constrained_intra=0 / bframes=9 / b_pyramid=2 / b_adapt=2 / b_bias=0 / direct=3 / weightb=1 / open_gop=0 / weightp=2 / keyint=240 / keyint_min=23 / scenecut=40 / intra_refresh=0 / rc=2pass / mbtree=0 / bitrate=7277 / ratetol=1.0 / qcomp=0.60 / qpmin=0 / qpmax=69 / qpstep=4 / cplxblur=20.0 / qblur=0.5 / ip_ratio=1.40 / pb_ratio=1.30 / aq=3:0.70Language : EnglishDefault : YesForced : No

    Audio #1ID : 2Format : AC-3Format/Info : Audio Coding 3Mode extension : CM (complete main)Format settings, Endianness : BigCodec ID : A_AC3Duration : 1 h 56 minBit rate mode : ConstantBit rate : 384 kb/sChannel(s) : 6 channelsChannel positions : Front: L C R, Side: L R, LFESampling rate : 48.0 kHzFrame rate : 31.250 FPS (1536 spf)Compression mode : LossyStream size : 319 MiB (5%)Title : DUB | DD5.1 @ 384 kbpsLanguage : RussianDefault : YesForced : No

    Audio #2ID : 3Format : AC-3Format/Info : Audio Coding 3Mode extension : CM (complete main)Format settings, Endianness : BigCodec ID : A_AC3Duration : 1 h 56 minBit rate mode : ConstantBit rate : 640 kb/sChannel(s) : 6 channelsChannel positions : Front: L C R, Side: L R, LFESampling rate : 48.0 kHzFrame rate : 31.250 FPS (1536 spf)Compression mode : LossyStream size : 532 MiB (8%)Title : Original | DD5.1 @ 640 kbpsLanguage : EnglishDefault : NoForced : No

    Text #1ID : 4Format : UTF-8Codec ID : S_TEXT/UTF8Codec ID/Info : UTF-8 Plain TextTitle : FULLLanguage : RussianDefault : NoForced : No

    Text #2ID : 5Format : UTF-8Codec ID : S_TEXT/UTF8Codec ID/Info : UTF-8 Plain TextTitle : FULLLanguage : EnglishDefault : NoForced : No

    Menu00:00:00.000 : en:00:00:00.00000:07:04.674 : en:00:07:04.67400:14:38.211 : en:00:14:38.21100:20:33.649 : en:00:20:33.64900:25:06.338 : en:00:25:06.33800:30:30.662 : en:00:30:30.66200:40:47.987 : en:00:40:47.98700:50:23.020 : en:00:50:23.02000:57:28.945 : en:00:57:28.94501:02:54.813 : en:01:02:54.81301:10:47.160 : en:01:10:47.16001:17:48.664 : en:01:17:48.66401:25:17.029 : en:01:25:17.02901:31:45.041 : en:01:31:45.04101:37:53.242 : en:01:37:53.24201:42:18.549 : en:01:42:18.549

    piratbit.ru

    Скачать фильм Пассажиры через торрент в хорошем качестве бесплатно 1080p

    GeneralUnique ID : 171139119518508843895073672212713565688 (0x80C0320BDFA1F5CD87E01DF1B017EDF8)Complete name : E:\Passengers 3D.mkvFormat : MatroskaFormat version : Version 4 / Version 2File size : 9.06 GiBDuration : 1 h 56 minOverall bit rate : 11.2 Mb/sMovie name : Пассажиры в 3DEncoded date : UTC 2017-03-02 06:24:17Writing application : mkvmerge v7.2.0 ('On Every Street') 64bit built on Sep 13 2014 15:52:10Writing library : libebml v1.3.0 + libmatroska v1.4.1

    VideoID : 1Format : AVCFormat/Info : Advanced Video CodecFormat profile : [email protected] settings, CABAC : YesFormat settings, ReFrames : 5 framesCodec ID : V_MPEG4/ISO/AVCDuration : 1 h 56 minBit rate : 9 272 kb/sWidth : 1 920 pixelsHeight : 808 pixelsDisplay aspect ratio : 2.40:1Frame rate mode : ConstantFrame rate : 23.976 FPSColor space : YUVChroma subsampling : 4:2:0Bit depth : 8 bitsScan type : ProgressiveBits/(Pixel*Frame) : 0.249Stream size : 7.34 GiB (81%)Writing library : x264 core 148 r2744 b97ae06Encoding settings : cabac=1 / ref=5 / deblock=1:0:0 / analyse=0x3:0x133 / me=umh / subme=7 / psy=1 / psy_rd=1.00:0.00 / mixed_ref=1 / me_range=16 / chroma_me=1 / trellis=1 / 8x8dct=1 / cqm=0 / deadzone=21,11 / fast_pskip=0 / chroma_qp_offset=-2 / threads=25 / lookahead_threads=4 / sliced_threads=0 / nr=0 / decimate=1 / interlaced=0 / bluray_compat=0 / constrained_intra=0 / bframes=3 / b_pyramid=2 / b_adapt=1 / b_bias=0 / direct=1 / weightb=1 / open_gop=0 / weightp=2 / keyint=250 / keyint_min=23 / scenecut=40 / intra_refresh=0 / rc_lookahead=40 / rc=2pass / mbtree=1 / bitrate=9272 / ratetol=1.0 / qcomp=0.60 / qpmin=0 / qpmax=69 / qpstep=4 / cplxblur=20.0 / qblur=0.5 / ip_ratio=1.40 / aq=1:1.00Language : EnglishDefault : NoForced : No

    Audio #1ID : 2Format : AC-3Format/Info : Audio Coding 3Mode extension : CM (complete main)Format settings, Endianness : BigCodec ID : A_AC3Duration : 1 h 56 minBit rate mode : ConstantBit rate : 384 kb/sChannel(s) : 6 channelsChannel positions : Front: L C R, Side: L R, LFESampling rate : 48.0 kHzFrame rate : 31.250 FPS (1536 spf)Compression mode : LossyStream size : 319 MiB (3%)Title : ДубляжLanguage : RussianDefault : YesForced : No

    Audio #2ID : 3Format : DTSFormat/Info : Digital Theater SystemsMode : 16Format settings, Endianness : BigCodec ID : A_DTSDuration : 1 h 56 minBit rate mode : ConstantBit rate : 1 509 kb/sChannel(s) : 6 channelsChannel positions : Front: L C R, Side: L R, LFESampling rate : 48.0 kHzFrame rate : 93.750 FPS (512 spf)Bit depth : 24 bitsCompression mode : LossyStream size : 1.22 GiB (14%)Title : ОригиналLanguage : EnglishDefault : NoForced : No

    TextID : 4Format : UTF-8Codec ID : S_TEXT/UTF8Codec ID/Info : UTF-8 Plain TextTitle : forcedLanguage : RussianDefault : YesForced : No

    Menu00:00:00.000 : en:00:00:00.00000:07:04.674 : en:00:07:04.67400:14:38.211 : en:00:14:38.21100:20:33.649 : en:00:20:33.64900:25:06.338 : en:00:25:06.33800:30:30.662 : en:00:30:30.66200:40:47.987 : en:00:40:47.98700:50:23.020 : en:00:50:23.02000:57:28.945 : en:00:57:28.94501:02:54.813 : en:01:02:54.81301:10:47.160 : en:01:10:47.16001:17:48.664 : en:01:17:48.66401:25:17.029 : en:01:25:17.02901:31:45.041 : en:01:31:45.04101:37:53.242 : en:01:37:53.24201:42:18.549 : en:01:42:18.549

    piratbit.ru

    Скачать фильм Пассажиры через торрент в хорошем качестве бесплатно 1080p

    General

    Unique ID : 235845317918179079725119478238919861923 (0xB16E27EFC2DAECC59AFEC6FEC9C926A3)

    Complete name : C:Passengers.2016.D.BDREMUX.1080p.ExKinoRay.mkv

    Format : Matroska

    Format version : Version 4 / Version 2

    File size : 24.1 GiB

    Duration : 1 h 56 min

    Overall bit rate mode : Variable

    Overall bit rate : 29.8 Mb/s

    Encoded date : UTC 2017-03-21 18:42:27

    Writing application : mkvmerge v8.3.0 ('Over the Horizon') 64bit

    Writing library : libebml v1.3.1 + libmatroska v1.4.2

    Video

    ID : 1

    Format : AVC

    Format/Info : Advanced Video Codec

    Format profile : [email protected]

    Format settings, CABAC : Yes

    Format settings, ReFrames : 2 frames

    Format settings, GOP : M=1, N=10

    Codec ID : V_MPEG4/ISO/AVC

    Duration : 1 h 56 min

    Bit rate mode : Variable

    Bit rate : 26.9 Mb/s

    Width : 1 920 pixels

    Height : 1 080 pixels

    Display aspect ratio : 16:9

    Frame rate mode : Constant

    Frame rate : 23.976 (24000/1001) FPS

    Color space : YUV

    Chroma subsampling : 4:2:0

    Bit depth : 8 bits

    Scan type : Progressive

    Bits/(Pixel*Frame) : 0.540

    Stream size : 21.8 GiB (90%)

    Language : English

    Default : Yes

    Forced : No

    Audio #1

    ID : 2

    Format : AC-3

    Format/Info : Audio Coding 3

    Mode extension : CM (complete main)

    Format settings, Endianness : Big

    Codec ID : A_AC3

    Duration : 1 h 56 min

    Bit rate mode : Constant

    Bit rate : 640 kb/s

    Channel(s) : 6 channels

    Channel positions : Front: L C R, Side: L R, LFE

    Sampling rate : 48.0 kHz

    Frame rate : 31.250 FPS (1536 spf)

    Bit depth : 16 bits

    Compression mode : Lossy

    Stream size : 532 MiB (2%)

    Title : Dub [License]

    Language : Russian

    Default : Yes

    Forced : No

    Audio #2

    ID : 3

    Format : AC-3

    Format/Info : Audio Coding 3

    Mode extension : CM (complete main)

    Format settings, Endianness : Big

    Codec ID : A_AC3

    Duration : 1 h 56 min

    Bit rate mode : Constant

    Bit rate : 128 kb/s

    Channel(s) : 2 channels

    Channel positions : Front: L R

    Sampling rate : 48.0 kHz

    Frame rate : 31.250 FPS (1536 spf)

    Bit depth : 16 bits

    Compression mode : Lossy

    Delay relative to video : 1 s 0 ms

    Stream size : 106 MiB (0%)

    Title : iTunes

    Language : Ukrainian

    Default : No

    Forced : No

    Audio #3

    ID : 4

    Format : DTS

    Format/Info : Digital Theater Systems

    Format profile : MA / Core

    Mode : 16

    Format settings, Endianness : Big

    Codec ID : A_DTS

    Duration : 1 h 56 min

    Bit rate mode : Variable / Constant

    Bit rate : 2 119 kb/s / 1 509 kb/s

    Channel(s) : 6 channels

    Channel positions : Front: L C R, Side: L R, LFE

    Sampling rate : 48.0 kHz

    Frame rate : 93.750 FPS (512 spf)

    Bit depth : 16 bits

    Compression mode : Lossless / Lossy

    Stream size : 1.72 GiB (7%)

    Title : Original

    Language : English

    Default : No

    Forced : No

    Text #1

    ID : 5

    Format : UTF-8

    Codec ID : S_TEXT/UTF8

    Codec ID/Info : UTF-8 Plain Text

    Duration : 1 h 48 min

    Bit rate : 0 b/s

    Count of elements : 13

    Stream size : 592 Bytes (0%)

    Title : Forced

    Language : Russian

    Default : Yes

    Forced : No

    Text #2

    ID : 6

    Format : UTF-8

    Codec ID : S_TEXT/UTF8

    Codec ID/Info : UTF-8 Plain Text

    Duration : 1 h 54 min

    Bit rate : 68 b/s

    Count of elements : 1115

    Stream size : 57.7 KiB (0%)

    Title : Full

    Language : Russian

    Default : No

    Forced : No

    Text #3

    ID : 7

    Format : UTF-8

    Codec ID : S_TEXT/UTF8

    Codec ID/Info : UTF-8 Plain Text

    Duration : 1 h 54 min

    Bit rate : 75 b/s

    Count of elements : 1282

    Stream size : 63.3 KiB (0%)

    Title : Full

    Language : Ukrainian

    Default : No

    Forced : No

    Text #4

    ID : 8

    Format : UTF-8

    Codec ID : S_TEXT/UTF8

    Codec ID/Info : UTF-8 Plain Text

    Duration : 1 h 45 min

    Bit rate : 49 b/s

    Count of elements : 1280

    Stream size : 37.9 KiB (0%)

    Title : Full

    Language : English

    Default : No

    Forced : No

    Text #5

    ID : 9

    Format : UTF-8

    Codec ID : S_TEXT/UTF8

    Codec ID/Info : UTF-8 Plain Text

    Duration : 1 h 48 min

    Bit rate : 57 b/s

    Count of elements : 1619

    Stream size : 45.3 KiB (0%)

    Title : SDH

    Language : English

    Default : No

    Forced : No

    Menu

    00:00:00.000 : en:00:00:00.000

    00:07:04.674 : en:00:07:04.674

    00:14:38.211 : en:00:14:38.211

    00:20:33.649 : en:00:20:33.649

    00:25:06.338 : en:00:25:06.338

    00:30:30.662 : en:00:30:30.662

    00:40:47.987 : en:00:40:47.987

    00:50:23.020 : en:00:50:23.020

    00:57:28.945 : en:00:57:28.945

    01:02:54.813 : en:01:02:54.813

    01:10:47.160 : en:01:10:47.160

    01:17:48.664 : en:01:17:48.664

    01:25:17.029 : en:01:25:17.029

    01:31:45.041 : en:01:31:45.041

    01:37:53.242 : en:01:37:53.242

    01:42:18.549 : en:01:42:18.549

    piratbit.ru


    Смотрите также