Скачать фильм пеликан через торрент в хорошем качестве


Скачать фильм Пеликан через торрент в хорошем качестве бесплатно DVDRip

Размер: 1.37 GB | Добавлен: 5 лет 10 мес. назад | Торрент скачан:411 раз
Реклама Дарим 3000 рублей за регистрацию, не упусти свой шанс получить шикарный бонус!!!

28-11-2011 21:09 Пеликан Скачать торрент  

Пеликан / Nicostratos le pélicanГод выпуска: 2011Страна: Франция, ГрецияЖанр: драма, комедияПродолжительность: 01:28:26Перевод: Профессиональный (полное дублирование)Тип релиза: Лицензия

Режиссер: Оливье Орле

В ролях: Тибо Ле Геллек, Джейд-Роуз, Паркер Франсуа-Ксавье Демезон, Геннадиос Пацис, Нтинос Понтикопоулос, Димитрис Сарикизоуглоу, Сократис Пацикас и др.

Описание: После смерти жены мужчина отказывается выходить на улицу и не хочет общаться с единственным сыном. Жизнь теряет смысл, перестает для него существовать. Однажды мальчик находит птенца пеликана, которого решает оставить у себя. Он выкармливает птицу, и между ними завязываются теплые дружеские отношения. Пеликан помогает мальчику вновь обрести своего отца и возродить его к жизни.

Качество: DVDRipФормат: AVIВидео кодек: XviDАудио кодек: AC3Видео: XviD, 720x304, 25 fps, ~1819 Kbit/sАудио: АС3, 48000 Hz, 6 каналов, 384 kbit/s

Скачать Пеликан через торрент http://i2.imageban.ru/out/2011/11/28/8d5351789b9fbce3d39d09bcd9a4e787.jpg Скачать фильм Пеликан через торрент бесплантно в хорошем качестве Описание: После смерти жены мужчина отказывается выходить на улицу и не хочет общаться с единственным сыном. Жизнь теряет смысл, перестает ... 2011-11-28 21:09 4.8 10 24

Loading...

Loading...

Рекламный пират

29-11-2011 11:40 Пеликан Скачать торрент  

13-12-2011 07:55 Пеликан Скачать торрент  

«Удивительная история дружбы» - действительно удивительная, с пеликаном...

15-12-2011 12:11 Пеликан Скачать торрент  

Фильм классный, красиво снят, красивые пейзажи, добрый сюжет. Отличный фильм для семейного просмотра!

16-12-2011 19:41 Пеликан Скачать торрент  

Эллины - молодцы! По-настоящему добрый фильм. Отлично!!!

21-12-2011 21:08 Пеликан Скачать торрент  

с пасибо..приятный фильм.даж носом похлюпать хотел...но Я Ж-мужик!!!-не положено... поглядите.думаю не пожалеете.. это как ХАТИКО -только не такой грустный..

Дорогой пользователь! Огромная просьба, поблагодарите релизера, оцените раздачу и оставьте свои комментарий, если Вы скачали Пеликан через торрент бесплатно! Внесите свою лепту в развитие PiratBit!

Комментировать посты могут только пользователи прошедшие не сложную регистрацию

Пеликан через торрент Скачать бесплатно Пеликан Пеликан скачать торрент Пеликан смотреть онлайн Cкачать фильм Пеликан бесплатно Пеликан скачать торрент в хорошем качестве Пеликан смотреть онлайн бесплатно в хорошем качестве

Вы не можете начинать темыВы не можете отвечать на сообщенияВы не можете редактировать свои сообщенияВы не можете удалять свои сообщенияВы не можете голосовать в опросахВы не можете прикреплять файлы к сообщениямВы можете скачивать файлы

piratbit.ru

Скачать фильм Пеликан через торрент в хорошем качестве бесплатно 720p)

GeneralUnique ID : 227012873425590307291297988128987690702 (0xAAC916CD3CC2BA789D0C9163962436CE)Complete name : E:\Pelikan.2011.x264.BDRip.720p.mkvFormat : MatroskaFormat version : Version 2File size : 4.59 GiBDuration : 1h 31mnOverall bit rate : 7 145 KbpsEncoded date : UTC 2012-03-01 02:27:37Writing application : mkvmerge v5.3.0 ('I could have danced') built on Feb 9 2012 10:38:07Writing library : libebml v1.2.3 + libmatroska v1.3.0

VideoID : 1Format : AVCFormat/Info : Advanced Video CodecFormat profile : [email protected] settings, CABAC : YesFormat settings, ReFrames : 5 framesCodec ID : V_MPEG4/ISO/AVCDuration : 1h 31mnBit rate : 5 283 KbpsWidth : 1 280 pixelsHeight : 544 pixelsDisplay aspect ratio : 2.35:1Frame rate : 24.000 fpsColor space : YUVChroma subsampling : 4:2:0Bit depth : 8 bitsScan type : ProgressiveBits/(Pixel*Frame) : 0.316Stream size : 3.28 GiB (72%)Writing library : x264 core 120 r2164 da19765Encoding settings : cabac=1 / ref=5 / deblock=1:0:0 / analyse=0x3:0x113 / me=umh / subme=7 / psy=1 / psy_rd=1.00:0.15 / mixed_ref=1 / me_range=16 / chroma_me=1 / trellis=1 / 8x8dct=1 / cqm=0 / deadzone=21,11 / fast_pskip=0 / chroma_qp_offset=-3 / threads=6 / sliced_threads=0 / nr=0 / decimate=1 / interlaced=0 / bluray_compat=0 / constrained_intra=0 / bframes=3 / b_pyramid=2 / b_adapt=1 / b_bias=0 / direct=1 / weightb=1 / open_gop=0 / weightp=2 / keyint=250 / keyint_min=24 / scenecut=40 / intra_refresh=0 / rc_lookahead=40 / rc=2pass / mbtree=1 / bitrate=5283 / ratetol=1.0 / qcomp=0.60 / qpmin=0 / qpmax=69 / qpstep=4 / cplxblur=20.0 / qblur=0.5 / ip_ratio=1.40 / aq=1:1.00Language : EnglishDefault : YesForced : No

Audio #1ID : 2Format : AC-3Format/Info : Audio Coding 3Mode extension : CM (complete main)Codec ID : A_AC3Duration : 1h 31mnBit rate mode : ConstantBit rate : 384 KbpsChannel(s) : 6 channelsChannel positions : Front: L C R, Side: L R, LFESampling rate : 48.0 KHzBit depth : 16 bitsCompression mode : LossyStream size : 253 MiB (5%)Language : RussianDefault : YesForced : No

Audio #2ID : 3Format : DTSFormat/Info : Digital Theater SystemsCodec ID : A_DTSDuration : 1h 31mnBit rate mode : ConstantBit rate : 1 510 KbpsChannel(s) : 6 channelsChannel positions : Front: L C R, Side: L R, LFESampling rate : 48.0 KHzBit depth : 24 bitsCompression mode : LossyStream size : 993 MiB (21%)Language : FrenchDefault : NoForced : No

TextID : 4Format : UTF-8Codec ID : S_TEXT/UTF8Codec ID/Info : UTF-8 Plain TextLanguage : RussianDefault : NoForced : No

Menu00:00:00.000 : en:00:00:00.00000:09:23.375 : en:00:09:23.37500:20:06.250 : en:00:20:06.25000:30:33.083 : en:00:30:33.08300:42:02.042 : en:00:42:02.04200:52:53.125 : en:00:52:53.12501:02:23.000 : en:01:02:23.00001:12:04.708 : en:01:12:04.70801:21:48.167 : en:01:21:48.167

piratbit.ru

Скачать фильм Пеликан через торрент в хорошем качестве бесплатно BDRemux

Пеликан / Nicostratos le pélican

Год выпуска: 2011Страна: ФранцияЖанр: драма, комедия, семейныйПродолжительность: 01:31:57Перевод: Профессиональный (полное дублирование) [Лицензия] Русские субтитры: есть

Режиссер: Оливье ОрлеПродюссер: Алэн Гранджерар, Джереми Бурдек, Серж Де ПаксСценарий: Эрик Буассе, Оливье Орле

Мировой рейтинг IMDB 6.80 (168)

В ролях: Эмир Кустурица, Тибо Ле Геллек, Джейд-Роуз Паркер, Франсуа-Ксавье Демезон, Геннадиос Пацис, Валериан де Вилленьюв, Ивис Нэдот, Нтинос Понтикопоулос, Димитрис Сарикизоуглоу, Сократис Пацикас, Василий Дахненко, Николай Быстров, Анна Штукатурова, Лиза Мартиросова, Ефим Клиновский

Описание: После смерти жены мужчина отказывается выходить на улицу и не хочет общаться с единственным сыном. Жизнь теряет смысл, перестает для него существовать. Однажды мальчик находит птенца пеликана, которого решает оставить у себя. Он выкармливает птицу, и между ними завязываются теплые дружеские отношения. Пеликан помогает мальчику вновь обрести своего отца и возродить его к жизни.

Похожие раздачи: Пеликан

Качество: BDRemuxФормат: MKVВидео кодек: H.26xАудио кодек: AC3Видео: 1920x1080, 26983 kbps, 24 fpsАудио#1: Русский AC3 5.1, 48 KHz, 384 kbpsАудио#2: Французский DTS-HD Master Audio 5.1, 48 KHz, 24 bit, 3785 kbps, Lossless (DTS Core: 5.1, 48 KHz, 24bit, 1536 kbps)Субтитры: Русские, украинские

GeneralUnique ID : 181074920817129584267399568925451784382 (0x8839C2DF2D903B669F2FD5BE142290BE)Complete name : E:\Мои документы\Андрей\Downloads\Nicostratos Le Pelican.2011.BD.Remux.1080p.h364.Rus.Fre.mkvFormat : MatroskaFormat version : Version 2File size : 20.0 GiBDuration : 1h 31mnOverall bit rate mode : VariableOverall bit rate : 31.2 MbpsEncoded date : UTC 2012-03-11 13:20:17Writing application : mkvmerge v5.3.0 ('I could have danced') built on Mar 5 2012 16:04:53Writing library : libebml v1.2.3 + libmatroska v1.3.0VideoID : 1Format : AVCFormat/Info : Advanced Video CodecFormat profile : [email protected] settings, CABAC : YesFormat settings, ReFrames : 4 framesMuxing mode : Container [email protected] ID : V_MPEG4/ISO/AVCDuration : 1h 31mnBit rate mode : VariableBit rate : 28.6 MbpsMaximum bit rate : 38.0 MbpsWidth : 1 920 pixelsHeight : 1 080 pixelsDisplay aspect ratio : 16:9Frame rate : 24.000 fpsStandard : NTSCColor space : YUVChroma subsampling : 4:2:0Bit depth : 8 bitsScan type : ProgressiveBits/(Pixel*Frame) : 0.574Stream size : 18.4 GiB (92%)Language : FrenchDefault : YesForced : NoColor primaries : BT.709-5, BT.1361, IEC 61966-2-4, SMPTE RP177Transfer characteristics : BT.709-5, BT.1361Matrix coefficients : BT.709-5, BT.1361, IEC 61966-2-4 709, SMPTE RP177Audio #1ID : 2Format : AC-3Format/Info : Audio Coding 3Mode extension : CM (complete main)Codec ID : A_AC3Duration : 1h 31mnBit rate mode : ConstantBit rate : 384 KbpsChannel(s) : 6 channelsChannel positions : Front: L C R, Side: L R, LFESampling rate : 48.0 KHzBit depth : 16 bitsCompression mode : LossyStream size : 253 MiB (1%)Title : Dub AC3 5.1 384 kbpsLanguage : RussianDefault : YesForced : NoAudio #2ID : 3Format : DTSFormat/Info : Digital Theater SystemsFormat profile : MA / CoreCodec ID : A_DTSDuration : 1h 31mnBit rate mode : VariableBit rate : 1 561 Kbps / 1 510 KbpsChannel(s) : 6 channelsChannel positions : Front: L C R, Side: L R, LFESampling rate : 48.0 KHzBit depth : 16 bitsCompression mode : Lossless / LossyTitle : DTS-HD Master Audio, 5.1, 3785 kbps, 24 bit, Lossless (1536 kbps core)Language : FrenchDefault : NoForced : NoText #1ID : 4Format : UTF-8Codec ID : S_TEXT/UTF8Codec ID/Info : UTF-8 Plain TextLanguage : RussianDefault : NoForced : NoText #2ID : 5Format : UTF-8Codec ID : S_TEXT/UTF8Codec ID/Info : UTF-8 Plain TextLanguage : UkrainianDefault : NoForced : NoMenu00:00:00.000 : en:Chapter 100:09:23.375 : en:Chapter 200:20:06.250 : en:Chapter 300:30:33.083 : en:Chapter 400:42:02.042 : en:Chapter 500:52:53.125 : en:Chapter 601:02:23.000 : en:Chapter 701:12:04.708 : en:Chapter 801:21:48.167 : en:Chapter 9[/code]

piratbit.ru

Фильм Пеликан. Смотреть онлайн. Скачать торрент. Бесплатно в хорошем качестве HD 720.

Поделиться с друзьями в социальных сетях. ОБНОВИТЬ САЙТ - F5

Раздел сайта: Фильмы про животных для детей.Предлагаем онлайн смотреть фильм Пеликан бесплатно в хорошем качестве HD 720 на нашем сайте.После смерти жены мужчина отказывается выходить на улицу и не хочет общаться с единственным сыном. Жизнь теряет смысл, перестает для него существовать. Однажды мальчик находит птенца пеликана, которого решает оставить у себя. Он выкупил его, обменяв на золотой крестик, доставшийся ему от покойной матери. Мальчик выкормил полуживую птицу, и между ними завязываются теплые дружеские отношения. Пеликан помогает мальчику вновь обрести своего отца и возродить его к жизни.Время: 1 час 28 минут.

Скачать фильм Пеликан через торрент без регистрации по ссылке:http://www.fast-torrent.ru/download/torrent/78104/%D0%9F%D0%B5%D0%BB%D0%B8%D0%BA%D0%B0%D0%BD%20-%20Nicostratos%20le%20p%C3%A9lican%20(2011)%20BDRip%201080p.torrent

В храме Живоначальной Троицы в Хохлах (Москва) на встречах детского киноклуба подростки смотрят и обсуждают фильмы. Недавно в киноклубе посмотрели фильм «Пеликан» (Режиссер: Оливье Орле. В ролях: Эмир Кустурица, Тибо Ле Геллек, Джейд-Роуз Паркер и другие, Франция, Греция, 2011 год). Своими впечатлениями от увиденного поделился настоятель храма.

Протоиерей Алексий Уминский, настоятель храма Живоначальной Троицы:

Мне кажется, что режиссер Оливье Орле вместе с Эриком Буассе, с которым они писали сценарий по книге Буассе «Никостратос», создали гениальную вещь, вложив в неё очень важный символ, известный даже не всем христианам, – пеликан. Известны очень древние изображения пеликана как символа Христа и Церкви.

На древних фресках и мозаиках пеликан изображается птицей, которая выклевывает у себя сердце, кровь, чтобы накормить своей кровью своих детей. Это единственная птица в мире, которая кормит своих детей своей плотью, и поэтому она – древнейший символ Христа.

Я уверен, что авторы этого не знали, но в итоге получилось именно так. Получился именно такой образ пеликана, который спасает людей ценой своей жизни. Через символ креста как жертвы, через собственную кровь и плоть, как бы погибель, он воскрешает любовь между людьми, которая почти умерла.

Эти люди – мелочные, им пеликан нужен, чтобы заработать деньги, они все, даже мальчик, который заботится о пеликане, превращают свою дружбу, любовь, человеческие отношения в какую-то жалкую коммерческую вещь.

Даже мальчик понимает, что он предает свою дружбу с пеликаном, когда выставляет его на продажу. Но с другой стороны, через этот шаг он хочет вернуть своего отца к себе, потому что зарабатывает больше денег, чем отец на трудной работе, собирая виноград.

Через это предательство пеликан почти гибнет. Девочка его зовет фотографироваться, туристы едут на него смотреть и – его сбивает автобус.

Я уверен, что авторы картины аналогии с евангельским сюжетом с символом пеликана, как Христа, не осознают, но у них почему-то получилось сделать всё именно так.

Это удивительная линия – предательство, жертва, и потом воскрешение. Заметьте, как это ни странно, но пеликан именно воскрес. Он был погребен, мертв для всех, в том числе для мальчика, – и вдруг воскрес. Может быть, я сейчас говорю странные вещи, нагнетаю метафизическую атмосферу, но, тем не менее, удивительно, как этот символ вдруг может быть понят.

Мы, смотрящие этот фильм, знаем Евангелие, знаем христианскую символику, можем понять его именно в таком контекст. Для многих людей всё это окажется за кадром, они этого никогда не поймут, не услышат, не увидят. Но они все равно почувствуют тот глубокий смысл жертвы и воскресения. Любви, которая жертвует собой и не умирает.

Мне кажется, это самое главное в этом фильме, многослойном и вместе с тем простым, сентиментальным и даже банальным. Но за этим стоит гораздо больше, чем мы видим.

Будьте в курсе предстоящих событий и новостей!

Присоединяйтесь к группе - Добринский храм

ПОМОГИТЕ ХРАМУ! Пожертвовать деньги на храм или сайт.

pravera.ru

Скачать фильм Дело о пеликанах (1993) через торрент

18 мая 2016 10:49 Дело о пеликанах / The Pelican Brief (1993) HDRip от Scarabey | D .torrent   [Информация о файле (нажмите для просмотра)] Перевод: Профессиональный (полное дублирование)Видео: 720x304 (2.37:1), 23.976 fps, XviD build 50 ~1817 kbps avg, 0.35 bit/pixelАудио: 48 kHz, AC3 Dolby Digital, 3/2 (L,C,R,l,r) + LFE ch, ~384.00 kbps avg 2,18 Gb 8 2 18 мая 2016 10:49 Дело о пеликанах / The Pelican Brief (1993) HDRip от Scarabey | D .torrent   [Информация о файле (нажмите для просмотра)] Перевод: Профессиональный (полное дублирование)Видео: 720x304 (2.37:1), 23.976 fps, XviD build 50 ~1269 kbps avg, 0.24 bit/pixelАудио: 48 kHz, AC3 Dolby Digital, 2/0 (L,R) ch, ~192.00 kbps avg 1,45 Gb 12 4 18 мая 2016 10:49 Дело о пеликанах / The Pelican Brief (1993) BDRip 720p by msltel | D, P .torrent   [Информация о файле (нажмите для просмотра)] Качество: BDRip 720pВидео: MPEG-4 AVC, 3928 Кбит/с, 1280x534Аудио 1: русский, 48 kHz, AC3, 6 ch, 384 kbps avg, [Дублированный, Мост видео]Аудио 2: русский, 48 kHz, AC3, 2 ch, 192 kbps avg, [Дублированный, Варус видео], * Sergunka172 (рутрекер)Аудио 3: русский, 48 kHz, AC3, 5 ch, 448 kbps avg, [Профессиональный многоголосый, ТК Россия], * ylnian (Кинозал)Аудио 4: русский, 48 kHz, AC3, 2 ch, 192 kbps avg, [Профессиональный многоголосый, HTB+], * Sergunka172 (рутрекер)Аудио 5: английский, 48 kHz, AC3, 6 ch, 448 kbps avg, [Оригинал]Субтитры: русскиеСубтитры: английскиеВидео: Идентификатор : 1 Формат : AVC Формат/Информация : Advanced Video Codec Профиль формата : [email protected] Параметр CABAC формата : Да Параметр ReFrames формата : 9 кадров Идентификатор кодека : V_MPEG4/ISO/AVC Продолжительность : 2 ч. 21 м. Битрейт : 3928 Кбит/сек Ширина : 1280 пикселей Высота : 534 пикселя Соотношение сторон : 2,40:1 Режим частоты кадров : Постоянный Частота кадров : 23,976 кадра/сек Цветовое пространство : YUV Субдискретизация насыщенности : 4:2:0 Битовая глубина : 8 бит Тип развёртки : Прогрессивная Бит/(Пиксели*Кадры) : 0.240 Размер потока : 3,87 Гбайт (69%) Заголовок : BDRip -- STarankov Библиотека кодирования : x264 core 138 r2358 9e941d1 Настройки программы : cabac=1 / ref=9 / deblock=1:-1:-1 / analyse=0x3:0x113 / me=umh / subme=10 / psy=1 / psy_rd=1.00:0.15 / mixed_ref=1 / me_range=32 / chroma_me=1 / trellis=2 / 8x8dct=1 / cqm=0 / deadzone=21,11 / fast_pskip=0 / chroma_qp_offset=-3 / threads=6 / lookahead_threads=1 / sliced_threads=0 / nr=0 / decimate=1 / interlaced=0 / bluray_compat=0 / constrained_intra=0 / bframes=8 / b_pyramid=2 / b_adapt=2 / b_bias=0 / direct=1 / weightb=1 / open_gop=0 / weightp=2 / keyint=230 / keyint_min=23 / scenecut=40 / intra_refresh=0 / rc_lookahead=40 / rc=crf / mbtree=0 / crf=18.0 / qcomp=0.60 / qpmin=0 / qpmax=69 / qpstep=4 / vbv_maxrate=40000 / vbv_bufsize=50000 / crf_max=0.0 / nal_hrd=none / ip_ratio=1.40 / pb_ratio=1.30 / aq=1:1.00 Язык : English Default : Да Forced : НетАудио #1: Идентификатор : 2 Формат : AC-3 Формат/Информация : Audio Coding 3 Расширение режима : CM (complete main) Параметр Endianness формата : Big Идентификатор кодека : A_AC3 Продолжительность : 2 ч. 21 м. Вид битрейта : Постоянный Битрейт : 384 Кбит/сек Каналы : 6 каналов Расположение каналов : Front: L C R, Side: L R, LFE Частота : 48,0 КГц Битовая глубина : 16 бит Метод сжатия : С потерями Размер потока : 388 Мбайт (7%) Заголовок : DUB (Мост видео), * -DaRkY- (рутрекер) Язык : Russian Default : Да Forced : НетАудио #2: Идентификатор : 3 Формат : AC-3 Формат/Информация : Audio Coding 3 Расширение режима : CM (complete main) Параметр Endianness формата : Big Идентификатор кодека : A_AC3 Продолжительность : 2 ч. 21 м. Вид битрейта : Постоянный Битрейт : 192 Кбит/сек Каналы : 2 канала Расположение каналов : Front: L R Частота : 48,0 КГц Битовая глубина : 16 бит Метод сжатия : С потерями Размер потока : 194 Мбайт (3%) Заголовок : DUB (Варус видео), * Sergunka172 (рутрекер) Язык : Russian Default : Нет Forced : НетАудио #3: Идентификатор : 4 Формат : AC-3 Формат/Информация : Audio Coding 3 Расширение режима : CM (complete main) Параметр Endianness формата : Big Идентификатор кодека : A_AC3 Продолжительность : 2 ч. 21 м. Вид битрейта : Постоянный Битрейт : 448 Кбит/сек Каналы : 5 каналов Расположение каналов : Front: L C R, Side: L R Частота : 48,0 КГц Битовая глубина : 16 бит Метод сжатия : С потерями Размер потока : 452 Мбайт (8%) Заголовок : MVO (ТК Россия), * ylnian (Кинозал) Язык : Russian Default : Нет Forced : НетАудио #4: Идентификатор : 5 Формат : AC-3 Формат/Информация : Audio Coding 3 Расширение режима : CM (complete main) Параметр Endianness формата : Big Идентификатор кодека : A_AC3 Продолжительность : 2 ч. 21 м. Вид битрейта : Постоянный Битрейт : 192 Кбит/сек Каналы : 2 канала Расположение каналов : Front: L R Частота : 48,0 КГц Битовая глубина : 16 бит Метод сжатия : С потерями Размер потока : 194 Мбайт (3%) Заголовок : MVO (HTB+), * Sergunka172 (рутрекер) Язык : Russian Default : Нет Forced : НетАудио #5: Идентификатор : 6 Формат : AC-3 Формат/Информация : Audio Coding 3 Расширение режима : CM (complete main) Параметр Endianness формата : Big Идентификатор кодека : A_AC3 Продолжительность : 2 ч. 21 м. Вид битрейта : Постоянный Битрейт : 448 Кбит/сек Каналы : 6 каналов Расположение каналов : Front: L C R, Side: L R, LFE Частота : 48,0 КГц Битовая глубина : 16 бит Метод сжатия : С потерями Размер потока : 452 Мбайт (8%) Заголовок : Original Язык : English Default : Нет Forced : Нет 5,62 Gb 3 3 18 мая 2016 10:49 Дело о пеликанах / The Pelican Brief (1993) BDRip 1080p by msltel | D, P .torrent   [Информация о файле (нажмите для просмотра)] Качество: BDRip 1080pВидео: MPEG-4 AVC, 8600 Кбит/с, 1920x800Аудио 1: русский, 48 kHz, AC3, 6 ch, 384 kbps avg, [Дублированный, Мост видео]Аудио 2: русский, 48 kHz, AC3, 2 ch, 192 kbps avg, [Дублированный, Варус видео], * Sergunka172 (рутрекер)Аудио 3: русский, 48 kHz, AC3, 5 ch, 448 kbps avg, [Профессиональный многоголосый, ТК Россия], * ylnian (Кинозал)Аудио 4: русский, 48 kHz, AC3, 2 ch, 192 kbps avg, [Профессиональный многоголосый, HTB+], * Sergunka172 (рутрекер)Аудио 5: английский, 48 kHz, DTS, 6 ch, 1509 kbps avg, [Оригинал]Субтитры: русскиеСубтитры: английскиеВидео: Идентификатор : 1 Формат : AVC Формат/Информация : Advanced Video Codec Профиль формата : [email protected] Параметр CABAC формата : Да Параметр ReFrames формата : 4 кадра Идентификатор кодека : V_MPEG4/ISO/AVC Продолжительность : 2 ч. 21 м. Битрейт : 8600 Кбит/сек Ширина : 1920 пикселей Высота : 800 пикселей Соотношение сторон : 2,40:1 Режим частоты кадров : Постоянный Частота кадров : 23,976 кадра/сек Цветовое пространство : YUV Субдискретизация насыщенности : 4:2:0 Битовая глубина : 8 бит Тип развёртки : Прогрессивная Бит/(Пиксели*Кадры) : 0.234 Размер потока : 8,48 Гбайт (74%) Заголовок : BDRip -- STarankov Библиотека кодирования : x264 core 138 r2358 9e941d1 Настройки программы : cabac=1 / ref=4 / deblock=1:-1:-1 / analyse=0x3:0x113 / me=umh / subme=10 / psy=1 / psy_rd=1.00:0.15 / mixed_ref=1 / me_range=32 / chroma_me=1 / trellis=2 / 8x8dct=1 / cqm=0 / deadzone=21,11 / fast_pskip=0 / chroma_qp_offset=-3 / threads=6 / lookahead_threads=1 / sliced_threads=0 / nr=0 / decimate=1 / interlaced=0 / bluray_compat=0 / constrained_intra=0 / bframes=8 / b_pyramid=2 / b_adapt=2 / b_bias=0 / direct=1 / weightb=1 / open_gop=0 / weightp=2 / keyint=230 / keyint_min=23 / scenecut=40 / intra_refresh=0 / rc_lookahead=40 / rc=crf / mbtree=0 / crf=18.5 / qcomp=0.60 / qpmin=0 / qpmax=69 / qpstep=4 / vbv_maxrate=40000 / vbv_bufsize=50000 / crf_max=0.0 / nal_hrd=none / ip_ratio=1.40 / pb_ratio=1.30 / aq=1:1.00 Язык : English Default : Да Forced : НетАудио #1: Идентификатор : 2 Формат : AC-3 Формат/Информация : Audio Coding 3 Расширение режима : CM (complete main) Параметр Endianness формата : Big Идентификатор кодека : A_AC3 Продолжительность : 2 ч. 21 м. Вид битрейта : Постоянный Битрейт : 384 Кбит/сек Каналы : 6 каналов Расположение каналов : Front: L C R, Side: L R, LFE Частота : 48,0 КГц Битовая глубина : 16 бит Метод сжатия : С потерями Размер потока : 388 Мбайт (3%) Заголовок : DUB (Мост видео) Язык : Russian Default : Да Forced : НетАудио #2: Идентификатор : 3 Формат : AC-3 Формат/Информация : Audio Coding 3 Расширение режима : CM (complete main) Параметр Endianness формата : Big Идентификатор кодека : A_AC3 Продолжительность : 2 ч. 21 м. Вид битрейта : Постоянный Битрейт : 192 Кбит/сек Каналы : 2 канала Расположение каналов : Front: L R Частота : 48,0 КГц Битовая глубина : 16 бит Метод сжатия : С потерями Размер потока : 194 Мбайт (2%) Заголовок : DUB (Варус видео), * Sergunka172 (рутрекер) Язык : Russian Default : Нет Forced : НетАудио #3: Идентификатор : 4 Формат : AC-3 Формат/Информация : Audio Coding 3 Расширение режима : CM (complete main) Параметр Endianness формата : Big Идентификатор кодека : A_AC3 Продолжительность : 2 ч. 21 м. Вид битрейта : Постоянный Битрейт : 448 Кбит/сек Каналы : 5 каналов Расположение каналов : Front: L C R, Side: L R Частота : 48,0 КГц Битовая глубина : 16 бит Метод сжатия : С потерями Размер потока : 452 Мбайт (4%) Заголовок : MVO (ТК Россия), * ylnian (Кинозал) Язык : Russian Default : Нет Forced : НетАудио #4: Идентификатор : 5 Формат : AC-3 Формат/Информация : Audio Coding 3 Расширение режима : CM (complete main) Параметр Endianness формата : Big Идентификатор кодека : A_AC3 Продолжительность : 2 ч. 21 м. Вид битрейта : Постоянный Битрейт : 192 Кбит/сек Каналы : 2 канала Расположение каналов : Front: L R Частота : 48,0 КГц Битовая глубина : 16 бит Метод сжатия : С потерями Размер потока : 194 Мбайт (2%) Заголовок : MVO (HTB+), * Sergunka172 (рутрекер) Язык : Russian Default : Нет Forced : НетАудио #5: Идентификатор : 6 Формат : DTS Формат/Информация : Digital Theater Systems Режим : 16 Параметр Endianness формата : Big Идентификатор кодека : A_DTS Продолжительность : 2 ч. 21 м. Вид битрейта : Постоянный Битрейт : 1510 Кбит/сек Каналы : 6 каналов Расположение каналов : Front: L C R, Side: L R, LFE Частота : 48,0 КГц Битовая глубина : 24 бит Метод сжатия : С потерями Размер потока : 1,49 Гбайт (13%) Заголовок : Original Язык : English Default : Нет Forced : Нет 11,39 Gb 3 2 18 мая 2016 10:49 Дело о пеликанах / The Pelican Brief (1993) BDRip от HQCLUB .torrent   [Информация о файле (нажмите для просмотра)] Перевод: профессиональный (полное дублирование)Субтитры: русские, английские (внешние, srt*)Формат: AVIКачество: BDRip (источник:Видео: 720x304 (2.37:1), 23.976 fps, XviD build 50 ~1821 kbps avg, 0.35 bit/pixelАудио #1: (DUB) 48 kHz, AC3 Dolby Digital, 3/2 (L,C,R,l,r) + LFE ch, 384.00 kbps avgАудио #2: (DUB.VARUS-VIDEO) 48 kHz, AC3 Dolby Digital, 2/0 (L,R) ch, 192 kbps avg (отдельно)Аудио #3: (MVO) 48 kHz, AC3 Dolby Digital, 2/0 (L,R) ch, 192 kbps avg (отдельно)Аудио #4: (MVO.NTV.PLUS) 48 kHz, AC3 Dolby Digital, 2/0 (L,R) ch, 192 kbps avg (отдельно)Аудио #5: (AVO.MIHALEV) 48 kHz, AC3 Dolby Digital, 2/0 (L,R) ch, 192 kbps avg (отдельно)Аудио #6: (ENG) 48 kHz, AC3 Dolby Digital, 3/2 (L,C,R,l,r) + LFE ch, 384.00 kbps avg (отдельно) 2,18 Gb 4 3 18 мая 2016 10:49 Дело о пеликанах / The Pelican Brief (1993) BDRip-AVC от HQCLUB .torrent   [Информация о файле (нажмите для просмотра)] Перевод: профессиональный (полное дублирование) + оригинал (английский)Субтитры: русские, английскиеФормат: MKVКачество: BDRip-AVC (источник: -DaRkY- /BDRemux / 1080p)Видео: 1024x432 (2.40:1), 23.976 fps, MPEG-4 AVC, ~2590 kbps avg, 0.244 bit/pixelАудио #1: 48 kHz, AC3 Dolby Digital, 3/2 (L,C,R,l,r) + LFE ch, ~384 kbps | Профессиональный (полное дублирование) | (RUS)Аудио #2: 48 kHz, AC3 Dolby Digital, 3/2 (L,C,R,l,r) + LFE ch, ~384 kbps | Оригинал | (ENG)Видео: Идентификатор : 1 Формат : AVC Формат/Информация : Advanced Video Codec Профиль формата : [email protected] Параметр CABAC формата : Да Параметр ReFrames формата : 7 кадров Идентификатор кодека : V_MPEG4/ISO/AVC Продолжительность : 2 ч. 21 м. Битрейт : 2590 Кбит/сек Ширина : 1024 пикселя Высота : 432 пикселя Соотношение сторон : 2,40:1 Режим частоты кадров : Постоянный Частота кадров : 23,976 кадра/сек Цветовое пространство : YUV Субдискретизация насыщенности : 4:2:0 Битовая глубина : 8 бит Тип развёртки : Прогрессивная Бит/(Пиксели*Кадры) : 0.244 Размер потока : 2,49 Гбайт (75%) Заголовок : Дело о пеликанах / The Pelican Brief (1993) BDRip-AVC by HQCLUB [Elheym] Библиотека кодирования : x264 core 142 r2431 ac76440 Настройки программы : cabac=1 / ref=8 / deblock=1:-3:-2 / analyse=0x3:0x113 / me=umh / subme=11 / psy=1 / psy_rd=1.00:0.00 / mixed_ref=1 / me_range=32 / chroma_me=1 / trellis=2 / 8x8dct=1 / cqm=0 / deadzone=21,11 / fast_pskip=1 / chroma_qp_offset=-4 / threads=6 / lookahead_threads=1 / sliced_threads=0 / nr=0 / decimate=1 / interlaced=0 / bluray_compat=0 / constrained_intra=0 / bframes=13 / b_pyramid=1 / b_adapt=2 / b_bias=0 / direct=3 / weightb=1 / open_gop=0 / weightp=2 / keyint=240 / keyint_min=23 / scenecut=40 / intra_refresh=0 / rc_lookahead=40 / rc=2pass / mbtree=1 / bitrate=2590 / ratetol=1.0 / qcomp=0.60 / qpmin=10 / qpmax=69 / qpstep=4 / cplxblur=20.0 / qblur=0.5 / vbv_maxrate=50000 / vbv_bufsize=62500 / nal_hrd=none / filler=0 / ip_ratio=1.40 / aq=1:1.00 Язык : English Default : Да Forced : НетАудио #1: Идентификатор : 2 Формат : AC-3 Формат/Информация : Audio Coding 3 Расширение режима : CM (complete main) Параметр Endianness формата : Big Идентификатор кодека : A_AC3 Продолжительность : 2 ч. 21 м. Вид битрейта : Постоянный Битрейт : 384 Кбит/сек Каналы : 6 каналов Расположение каналов : Front: L C R, Side: L R, LFE Частота : 48,0 КГц Битовая глубина : 16 бит Метод сжатия : С потерями Размер потока : 388 Мбайт (11%) Заголовок : АС3, 5.1 @ ~384 kbps - Dub Язык : Russian Default : Нет Forced : НетАудио #2: Идентификатор : 3 Формат : AC-3 Формат/Информация : Audio Coding 3 Расширение режима : CM (complete main) Параметр Endianness формата : Big Идентификатор кодека : A_AC3 Продолжительность : 2 ч. 21 м. Вид битрейта : Постоянный Битрейт : 384 Кбит/сек Каналы : 6 каналов Расположение каналов : Front: L C R, Side: L R, LFE Частота : 48,0 КГц Битовая глубина : 16 бит Метод сжатия : С потерями Размер потока : 388 Мбайт (11%) Заголовок : АС3, 5.1 @ ~384 kbps - Original Язык : English Default : Нет Forced : Нет 3,31 Gb 3 1 18 мая 2016 10:49 Дело о пеликанах / The Pelican Brief (1993) BDRip-AVC от 0ptimus | D, P, A .torrent   [Информация о файле (нажмите для просмотра)] Перевод: Дублированный, профессиональный многоголосый, авторский одноголосыйКодек: h364Качество: BDRip-AVCВидео: MPEG-4 AVC, 2191 Кбит/с, 1024х426, 23.976 кадр/сЗвук: • №1: Русский (AC3, 6 ch, 384 Кбит/с) Дублированный • №2: Русский (AC3, 2 ch, 192 Кбит/с) Профессиональный многоголосый • №3: Русский (AC3, 2 ch, 192 Кбит/с) Авторский одноголосый [Алексей Михалев] • №4: Английский (AC3, 6 ch, 384 Кбит/с)Субтитры: Русские, английские 3,3 Gb 3 5 18 мая 2016 10:49 Дело о пеликанах / The Pelican Brief (1993) BDRip 1080p от BT-Club .torrent   [Информация о файле (нажмите для просмотра)] Перевод: ДублированныйКачество: BDRip 1080pКодек: x264Формат: MKVВидео: 1920 x 800, 23.976 fps, ~5000 kbpsЗвук: Audio#1: AC3, 48 kHz, 6 ch, 448 kbps | Английский Audio#2: AC3, 48 kHz, 6 ch, 384 kbps | РусскийСубтитры: Русские, английскиеВидео: Идентификатор : 1 Формат : AVC Формат/Информация : Advanced Video Codec Профиль формата : [email protected] Параметр CABAC формата : Да Параметр ReFrames формата : 4 кадра Идентификатор кодека : V_MPEG4/ISO/AVC Продолжительность : 2 ч. 21 м. Вид битрейта : Переменный Битрейт : 4999 Кбит/сек Максимальный битрейт : 14,0 Мбит/сек Ширина : 1920 пикселей Высота : 800 пикселей Соотношение сторон : 2,40:1 Частота кадров : 23,976 кадра/сек Цветовое пространство : YUV Субдискретизация насыщенности : 4:2:0 Битовая глубина : 8 бит Тип развёртки : Прогрессивная Бит/(Пиксели*Кадры) : 0.136 Размер потока : 4,84 Гбайт (84%) Библиотека кодирования : x264 core 120 r2164 da19765 Настройки программы : cabac=1 / ref=5 / deblock=1:-1:-1 / analyse=0x3:0x133 / me=tesa / subme=11 / psy=1 / psy_rd=1.00:0.15 / mixed_ref=1 / me_range=24 / chroma_me=1 / trellis=2 / 8x8dct=1 / cqm=0 / deadzone=21,11 / fast_pskip=0 / chroma_qp_offset=-3 / threads=12 / sliced_threads=0 / slices=4 / nr=0 / decimate=1 / interlaced=0 / bluray_compat=1 / constrained_intra=0 / bframes=3 / b_pyramid=1 / b_adapt=2 / b_bias=0 / direct=3 / weightb=1 / open_gop=1 / weightp=1 / keyint=24 / keyint_min=1 / scenecut=40 / intra_refresh=0 / rc_lookahead=24 / rc=2pass / mbtree=1 / bitrate=4999 / ratetol=1.0 / qcomp=0.60 / qpmin=10 / qpmax=51 / qpstep=4 / cplxblur=20.0 / qblur=0.5 / vbv_maxrate=14000 / vbv_bufsize=14000 / nal_hrd=vbr / ip_ratio=1.40 / aq=1:1.00 Язык : English Default : Да Forced : Нет Основные цвета : Generic filmАудио #1: Идентификатор : 2 Формат : AC-3 Формат/Информация : Audio Coding 3 Расширение режима : CM (complete main) Параметр Endianness формата : Big Идентификатор кодека : A_AC3 Продолжительность : 2 ч. 21 м. Вид битрейта : Постоянный Битрейт : 448 Кбит/сек Каналы : 6 каналов Расположение каналов : Front: L C R, Side: L R, LFE Частота : 48,0 КГц Битовая глубина : 16 бит Метод сжатия : С потерями Размер потока : 452 Мбайт (8%) Заголовок : Оригинал Язык : English Default : Нет Forced : НетАудио #2: Идентификатор : 3 Формат : AC-3 Формат/Информация : Audio Coding 3 Расширение режима : CM (complete main) Параметр Endianness формата : Big Идентификатор кодека : A_AC3 Продолжительность : 2 ч. 21 м. Вид битрейта : Постоянный Битрейт : 384 Кбит/сек Каналы : 6 каналов Расположение каналов : Front: L C R, Side: L R, LFE Частота : 48,0 КГц Битовая глубина : 16 бит Метод сжатия : С потерями Размер потока : 388 Мбайт (7%) Заголовок : Дублированный Язык : Russian Default : Да Forced : Нет 5,77 Gb 3 1 18 мая 2016 10:49 Дело о пеликанах / The Pelican Brief (1993) DVDRip от HQ-ViDEO .torrent   1,46 Gb 1 1

gig-torrent.net


Смотрите также