Скачать фильм первый мститель 2 через торрент в хорошем качестве


Другая война через торрент в хорошем качестве бесплатно 1080p

Полное имя : D:\Первый.мститель.Другая.война-Captain.America.The.Winter.Soldier.(2014).BDRip.[1080p].3D.mkvФормат : MatroskaВерсия формата : Version 2Размер файла : 9,94 ГбайтПродолжительность : 2 ч. 15 м.Общий поток : 10,5 Мбит/секНазвание фильма : Первый мститель: Другая война / Captain America: The Winter Soldier (2014) 3DДата кодирования : UTC 2014-08-02 10:10:36Программа кодирования : mkvmerge v5.7.0 ('The Whirlwind') built on Aug 7 2012 14:11:40Библиотека кодирования : libebml v1.2.3 + libmatroska v1.3.0Attachment : Yes

ВидеоИдентификатор : 1Формат : AVCФормат/Информация : Advanced Video CodecПрофиль формата : [email protected]Параметр CABAC формата : ДаПараметр ReFrames формата : 4 кадраИдентификатор кодека : V_MPEG4/ISO/AVCБитрейт : 7918 Кбит/секШирина : 1920 пикселейВысота : 1080 пикселейСоотношение сторон : 16:9Режим частоты кадров : ПеременныйЧастота кадров в оригинале : 23,976 кадра/секЦветовое пространство : YUVСубдискретизация насыщенности : 4:2:0Битовая глубина : 8 битТип развёртки : ПрогрессивнаяЗаголовок : Первый.мститель.Другая.война-Captain.America.The.Winter.Soldier.(2014).BDRip.[1080p].3DБиблиотека кодирования : x264 core 138 r2358 9e941d1Настройки программы : cabac=1 / ref=4 / deblock=1:-3:-3 / analyse=0x3:0x113 / me=umh / subme=10 / psy=1 / psy_rd=1.00:0.15 / mixed_ref=1 / me_range=32 / chroma_me=1 / trellis=2 / 8x8dct=1 / cqm=0 / deadzone=21,11 / fast_pskip=1 / chroma_qp_offset=-3 / threads=12 / lookahead_threads=3 / sliced_threads=0 / nr=0 / decimate=1 / interlaced=0 / bluray_compat=0 / constrained_intra=0 / bframes=10 / b_pyramid=2 / b_adapt=2 / b_bias=0 / direct=3 / weightb=1 / open_gop=0 / weightp=2 / keyint=250 / keyint_min=23 / scenecut=40 / intra_refresh=0 / rc_lookahead=60 / rc=crf / mbtree=1 / crf=17.0 / qcomp=0.70 / qpmin=0 / qpmax=69 / qpstep=4 / vbv_maxrate=40000 / vbv_bufsize=30000 / crf_max=0.0 / nal_hrd=none / frame-packing=4 / ip_ratio=1.40 / aq=1:0.70Язык : EnglishDefault : ДаForced : Нет

Аудио #1Идентификатор : 2Формат : AC-3Формат/Информация : Audio Coding 3Расширение режима : CM (complete main)Параметр Endianness формата : BigИдентификатор кодека : A_AC3Продолжительность : 2 ч. 15 м.Вид битрейта : ПостоянныйБитрейт : 640 Кбит/секКаналы : 6 каналовРасположение каналов : Front: L C R, Side: L R, LFEЧастота : 48,0 КГцБитовая глубина : 16 битМетод сжатия : С потерямиРазмер потока : 622 Мбайт (6%)Заголовок : AC3 5.1 / 640 kbps / Dub (Blu-ray EUR)Язык : RussianDefault : ДаForced : Нет

Аудио #2Идентификатор : 3Формат : DTSФормат/Информация : Digital Theater SystemsИдентификатор кодека : A_DTSПродолжительность : 2 ч. 15 м.Вид битрейта : ПостоянныйБитрейт : 1510 Кбит/секКаналы : 6 каналовРасположение каналов : Front: L C R, Side: L R, LFEЧастота : 48,0 КГцБитовая глубина : 24 битМетод сжатия : С потерямиРазмер потока : 1,43 Гбайт (14%)Заголовок : DTS 5.1 / 1536 kbps / OriginalЯзык : EnglishDefault : НетForced : Нет

Аудио #3Идентификатор : 4Формат : AC-3Формат/Информация : Audio Coding 3Расширение режима : CM (complete main)Параметр Endianness формата : BigИдентификатор кодека : A_AC3Продолжительность : 2 ч. 15 м.Вид битрейта : ПостоянныйБитрейт : 192 Кбит/секКаналы : 2 каналаРасположение каналов : Front: L RЧастота : 48,0 КГцБитовая глубина : 16 битМетод сжатия : С потерямиРазмер потока : 187 Мбайт (2%)Заголовок : AC3 2.0 / 192 kbps / CommentaryЯзык : EnglishDefault : НетForced : Нет

Текст #1Идентификатор : 5Формат : UTF-8Идентификатор кодека : S_TEXT/UTF8Идентификатор кодека/Информация : UTF-8 Plain TextЗаголовок : ForcedЯзык : RussianDefault : ДаForced : Нет

Текст #2Идентификатор : 6Формат : UTF-8Идентификатор кодека : S_TEXT/UTF8Идентификатор кодека/Информация : UTF-8 Plain TextЗаголовок : FullЯзык : RussianDefault : НетForced : Нет

Текст #3Идентификатор : 7Формат : UTF-8Идентификатор кодека : S_TEXT/UTF8Идентификатор кодека/Информация : UTF-8 Plain TextЗаголовок : CommentaryЯзык : RussianDefault : НетForced : Нет

Текст #4Идентификатор : 8Формат : UTF-8Идентификатор кодека : S_TEXT/UTF8Идентификатор кодека/Информация : UTF-8 Plain TextЗаголовок : ForcedЯзык : EnglishDefault : НетForced : Нет

Текст #5Идентификатор : 9Формат : UTF-8Идентификатор кодека : S_TEXT/UTF8Идентификатор кодека/Информация : UTF-8 Plain TextЗаголовок : FullЯзык : EnglishDefault : НетForced : Нет

Текст #6Идентификатор : 10Формат : UTF-8Идентификатор кодека : S_TEXT/UTF8Идентификатор кодека/Информация : UTF-8 Plain TextЗаголовок : SDHЯзык : EnglishDefault : НетForced : Нет

Текст #7Идентификатор : 11Формат : UTF-8Идентификатор кодека : S_TEXT/UTF8Идентификатор кодека/Информация : UTF-8 Plain TextЗаголовок : SDH (Colored)Язык : EnglishDefault : НетForced : Нет

Меню00:00:00.000 : en:Prologue00:03:28.666 : en:Hostages on the Lemurian Star00:13:31.727 : en:Don't Hold Your Breath00:17:57.868 : en:Steve Visits the Smithsonian00:22:25.302 : en:Project Insight00:33:20.415 : en:In Pursuit00:41:27.276 : en:Steve Meets Alexander Pierce00:51:37.302 : en:Fugitives from S.H.I.E.L.D.00:58:23.958 : en:Uncovering the Past01:07:40.347 : en:Call It a Resume01:16:22.202 : en:Facing Off with the Winter Soldier01:24:43.078 : en:Captain's Orders01:32:17.698 : en:13 Paying a Price01:37:06.612 : en:Engaging01:49:13.088 : en:The End of the Line01:55:03.730 : en:Battle over the Potomac02:01:11.055 : en:Life After S.H.I.E.L.D.02:06:22.241 : en:End Credits

piratbit.ru

Противостояние через торрент в хорошем качестве бесплатно BDRip-AVC

GeneralUnique ID : 247959735254722150078295254405121254492 (0xBA8B4ED361E7A3CCA4DB3A10A3D7245C)Complete name : D:\download\Captain.America.Civil.War.2016.BDRip-AVC by schultz R.G.Resident.mkvFormat : MatroskaFormat version : Version 4 / Version 2File size : 2.92 GiBDuration : 2 h 27 minOverall bit rate : 2 830 kb/sEncoded date : UTC 2016-08-31 07:15:54Writing application : mkvmerge v8.9.0 ('Father Daughter') 64bitWriting library : libebml v1.3.3 + libmatroska v1.4.4

VideoID : 1Format : AVCFormat/Info : Advanced Video CodecFormat profile : [email protected] settings, CABAC : YesFormat settings, ReFrames : 11 framesCodec ID : V_MPEG4/ISO/AVCDuration : 2 h 27 minBit rate : 1 996 kb/sWidth : 1 024 pixelsHeight : 428 pixelsDisplay aspect ratio : 2.40:1Frame rate mode : ConstantFrame rate : 23.976 (23976/1000) FPSColor space : YUVChroma subsampling : 4:2:0Bit depth : 8 bitsScan type : ProgressiveBits/(Pixel*Frame) : 0.190Stream size : 2.06 GiB (71%)Writing library : x264 core 146 r2538 121396cEncoding settings : cabac=1 / ref=11 / deblock=1:-3:-3 / analyse=0x3:0x113 / me=umh / subme=11 / psy=1 / psy_rd=1.00:0.00 / mixed_ref=1 / me_range=48 / chroma_me=1 / trellis=2 / 8x8dct=1 / cqm=0 / deadzone=21,11 / fast_pskip=0 / chroma_qp_offset=-2 / threads=12 / lookahead_threads=3 / sliced_threads=0 / nr=0 / decimate=0 / interlaced=0 / bluray_compat=0 / constrained_intra=0 / bframes=12 / b_pyramid=2 / b_adapt=2 / b_bias=0 / direct=3 / weightb=1 / open_gop=0 / weightp=2 / keyint=240 / keyint_min=23 / scenecut=40 / intra_refresh=0 / rc_lookahead=40 / rc=2pass / mbtree=1 / bitrate=1996 / ratetol=1.0 / qcomp=0.60 / qpmin=0 / qpmax=69 / qpstep=4 / cplxblur=20.0 / qblur=0.5 / vbv_maxrate=14000 / vbv_bufsize=14000 / nal_hrd=none / filler=0 / ip_ratio=1.40 / aq=1:1.00Language : EnglishDefault : YesForced : No

Audio #1ID : 2Format : AC-3Format/Info : Audio Coding 3Mode extension : CM (complete main)Format settings, Endianness : BigCodec ID : A_AC3Duration : 2 h 27 minBit rate mode : ConstantBit rate : 384 kb/sChannel(s) : 6 channelsChannel positions : Front: L C R, Side: L R, LFESampling rate : 48.0 kHzFrame rate : 31.250 FPS (1536 spf)Compression mode : LossyDelay relative to video : 800 msStream size : 406 MiB (14%)Language : RussianDefault : YesForced : No

Audio #2ID : 3Format : AC-3Format/Info : Audio Coding 3Mode extension : CM (complete main)Format settings, Endianness : BigCodec ID : A_AC3Duration : 2 h 27 minBit rate mode : ConstantBit rate : 448 kb/sChannel(s) : 6 channelsChannel positions : Front: L C R, Side: L R, LFESampling rate : 48.0 kHzFrame rate : 31.250 FPS (1536 spf)Compression mode : LossyStream size : 473 MiB (16%)Language : EnglishDefault : NoForced : No

Text #1ID : 4Format : UTF-8Codec ID : S_TEXT/UTF8Codec ID/Info : UTF-8 Plain TextDuration : 2 h 26 minBit rate : 86 b/sCount of elements : 1512Stream size : 92.8 KiB (0%)Title : fullLanguage : RussianDefault : YesForced : No

Text #2ID : 5Format : UTF-8Codec ID : S_TEXT/UTF8Codec ID/Info : UTF-8 Plain TextDuration : 2 h 25 minBit rate : 50 b/sCount of elements : 1865Stream size : 54.2 KiB (0%)Title : FullLanguage : EnglishDefault : NoForced : No

Text #3ID : 6Format : UTF-8Codec ID : S_TEXT/UTF8Codec ID/Info : UTF-8 Plain TextDuration : 2 h 26 minBit rate : 55 b/sCount of elements : 2105Stream size : 59.1 KiB (0%)Title : SDHLanguage : EnglishDefault : NoForced : No

piratbit.ru

Противостояние через торрент в хорошем качестве бесплатно 1080p

GeneralUnique ID : 183731979501425731931796469574883767565 (0x8A397DFAAE41A946B3DDF2BB49E6750D)Complete name : Captain.America.Civil.War.2016.BDRip.1080p.selezen.mkvFormat : MatroskaFormat version : Version 4 / Version 2File size : 11.1 GiBDuration : 2 h 27 minOverall bit rate : 10.7 Mb/sMovie name : Captain.America.Civil.War.2016.BDRip.1080p.selezenEncoded date : UTC 2016-08-29 10:44:02Writing application : mkvmerge v8.3.0 ('Over the Horizon') 64bitWriting library : libebml v1.3.1 + libmatroska v1.4.2

VideoID : 1Format : AVCFormat/Info : Advanced Video CodecFormat profile : [email protected] settings, CABAC : YesFormat settings, ReFrames : 5 framesCodec ID : V_MPEG4/ISO/AVCDuration : 2 h 27 minBit rate : 9 086 kb/sWidth : 1 920 pixelsHeight : 808 pixelsDisplay aspect ratio : 2.40:1Frame rate mode : ConstantFrame rate : 23.976 (24000/1001) FPSColor space : YUVChroma subsampling : 4:2:0Bit depth : 8 bitsScan type : ProgressiveBits/(Pixel*Frame) : 0.244Stream size : 9.37 GiB (85%)Writing library : x264 core 148 r2705 3f5ed56Encoding settings : cabac=1 / ref=5 / deblock=1:-3:-3 / analyse=0x3:0x113 / me=umh / subme=8 / psy=1 / psy_rd=1.00:0.00 / mixed_ref=1 / me_range=16 / chroma_me=1 / trellis=1 / 8x8dct=1 / cqm=0 / deadzone=21,11 / fast_pskip=1 / chroma_qp_offset=-2 / threads=24 / lookahead_threads=4 / sliced_threads=0 / nr=0 / decimate=1 / interlaced=0 / bluray_compat=0 / constrained_intra=0 / bframes=3 / b_pyramid=2 / b_adapt=2 / b_bias=0 / direct=3 / weightb=1 / open_gop=0 / weightp=2 / keyint=240 / keyint_min=24 / scenecut=40 / intra_refresh=0 / rc_lookahead=50 / rc=2pass / mbtree=1 / bitrate=9086 / ratetol=1.0 / qcomp=0.60 / qpmin=0 / qpmax=69 / qpstep=4 / cplxblur=20.0 / qblur=0.5 / ip_ratio=1.40 / aq=3:0.80Language : EnglishDefault : YesForced : No

Audio #1ID : 2Format : AC-3Format/Info : Audio Coding 3Mode extension : CM (complete main)Format settings, Endianness : BigCodec ID : A_AC3Duration : 2 h 27 minBit rate mode : ConstantBit rate : 128 kb/sChannel(s) : 2 channelsChannel positions : Front: L RSampling rate : 48.0 kHzFrame rate : 31.250 FPS (1536 spf)Compression mode : LossyStream size : 135 MiB (1%)Language : RussianDefault : YesForced : No

Audio #2ID : 3Format : DTSFormat/Info : Digital Theater SystemsMode : 16Format settings, Endianness : BigCodec ID : A_DTSDuration : 2 h 27 minBit rate mode : ConstantBit rate : 1 509 kb/sChannel(s) : 6 channelsChannel positions : Front: L C R, Side: L R, LFESampling rate : 48.0 kHzFrame rate : 93.750 FPS (512 spf)Bit depth : 24 bitsCompression mode : LossyStream size : 1.56 GiB (14%)Language : EnglishDefault : NoForced : No

Text #1ID : 4Format : UTF-8Codec ID : S_TEXT/UTF8Codec ID/Info : UTF-8 Plain TextDuration : 2 h 25 minBit rate : 50 b/sCount of elements : 1865Stream size : 54.2 KiB (0%)Language : EnglishDefault : NoForced : No

Text #2ID : 5Format : UTF-8Codec ID : S_TEXT/UTF8Codec ID/Info : UTF-8 Plain TextDuration : 2 h 26 minBit rate : 55 b/sCount of elements : 2105Stream size : 59.1 KiB (0%)Title : SDHLanguage : EnglishDefault : NoForced : No

Menu00:00:00.000 : en:00:00:00.00000:09:01.958 : en:00:09:01.95800:13:04.993 : en:00:13:04.99300:21:03.345 : en:00:21:03.34500:27:53.380 : en:00:27:53.38000:31:57.290 : en:00:31:57.29000:35:08.398 : en:00:35:08.39800:42:58.451 : en:00:42:58.45100:52:04.621 : en:00:52:04.62101:05:39.102 : en:01:05:39.10201:16:41.639 : en:01:16:41.63901:22:28.777 : en:01:22:28.77701:29:29.489 : en:01:29:29.48901:34:09.769 : en:01:34:09.76901:45:38.582 : en:01:45:38.58201:55:54.322 : en:01:55:54.32202:02:35.056 : en:02:02:35.05602:12:14.176 : en:02:12:14.17602:18:29.384 : en:02:18:29.384

piratbit.ru

Противостояние в 3D через торрент в хорошем качестве бесплатно 1080р

Раздают: 2 [ 0 KB/s ] Качают: 1 [ 0 KB/s ]
Размер: 18.31 GB | Добавлен: 1 год 1 мес. назад | Торрент скачан:292 раза
Реклама Дарим 3000 рублей за регистрацию, не упусти свой шанс получить шикарный бонус!!!

03-09-2016 04:48 Первый мститель: Противостояние в 3D Скачать торрент  

Первый мститель: Противостояние / Captain America: Civil War

Страна: США , Германия Год выпуска: 2016Жанр: фантастика, боевик, приключения, 3DПродолжительность: 02:27:41Перевод: Дубляж - iTunes

Режиссер: Энтони Руссо, Джо Руссо

Дата премьеры (мир): 12 апреля 2016Дата премьеры (РФ): 5 мая 2016, «WDSSPR»Релиз на DVD, Blu-Ray: 2 августа 2016, «Уолт Дисней Компани СНГ»

В ролях: Крис Эванс (Steve Rogers / Captain America), Роберт Дауни мл. (Tony Stark / Iron Man), Скарлетт Йоханссон (Natasha Romanoff / Black Widow), Себастьян Стэн (Bucky Barnes / Winter Soldier), Энтони Маки (Sam Wilson / Falcon), Дон Чидл (Lieutenant James Rhodes / War Machine), Джереми Реннер (Clint Barton / Hawkeye), Чедвик Боузман (T'Challa / Black Panther), Пол Беттани (Vision), Элизабет Олсен (Wanda Maximoff / Scarlet Witch), Пол Радд (Scott Lang / Ant-Man), Эмили ВанКэмп (Sharon Carter)

Описание:

Мстители под руководством Капитана Америки оказываются участниками разрушительного инцидента, имеющего международный масштаб. Эти события заставляют правительство задуматься над тем, чтобы начать регулировать действия всех людей с особыми способностями, введя «Акт о регистрации супергероев», вынуждая их подчиняться ООН.

Рейтинг: MPAA: PG-13 - Детям до 13 лет просмотр не желателен

Качество: BDRip 1080рФормат: MKVВидео кодек: AVCАудио кодек: АС3Формат 3D: Half OverUnder / Вертикальная анаморфная стереопараВидео: 1920x1040 23.976 fps ~14.9 MbpsАудио:1. Русский - AC3 / 5.1 Ch / 384 kbps (дубляж - iTunes)2. Английский - AC3 / 5.1 Ch / 640 kbps3. Английский - DTS / 5.1 Ch / 1536 kbps (отдельным файлом)

Субтитры (text):1. Русские - форсированные2. Русские - полные3. Английские - полные

• Фильм основан на комиксе «Гражданская война» («Civil War»).• Студия Marvel первоначально хотела, чтобы Роберт Дауни мл. сыграл Тони Старка в этом фильме, но при этом студия планировала, что его роль будет небольшой, и всю работу над ней можно будет сделать за три недели. Однако Дауни захотел, чтобы его роль была больше, что соответственно вело бы к увеличению гонорара актера. Исполнительный директор Marvel Entertainment, Айк Перлмуттер (Ike Perlmutter), был взбешен его запросами, в результате он сказал сценаристам полностью убрать персонажа Тони Старка из сюжета. Однако когда казалось, что вопрос уже закрыт, президент студии Marvel, Кевин Файги, все же принял решение вернуть Дауни в проект, поскольку его появление в фильме открывает возможность для создания сиквелов, новых франшиз, а также для различных вариаций развития сюжетных линий в рамках вселенной Marvel.• Съемки фильма начались 7 мая 2015 года в Атланте, штат Джорджия, США.• Студия Marvel заявила, что в фильме у Человека-паука будет оригинальный костюм из комиксов.• Чад Л. Коулмэн рассматривался на роль Чёрной пантеры.• В фильме состоялось первое появление супергероя Черная пантера в исполнении актера Чедвика Боузмана, который получит отдельную экранизацию своей истории в 2018 году.• Когти Черной пантеры сделаны из вибраниума — вымышленного материала, из которого вылит щит Капитана Америки.• Формально это первый фильм о супергероях, где в качестве антагониста заявлен другой супергерой - Железный Человек в исполнении Роберта Дауни мл., при этом антагонистом он является не ввиду некоего злого умысла или обмана, а исключительно по той причине, что персонаж расходится во мнении о положении супергероев в обществе. Полноценными суперзлодеями фильма являются Барон Земо и Кроссбоунс.• Уильям Хёрт повторил роль генерала Росса из фильма Невероятный Халк (2008).• Когда Железный Человек приказывает Капитану Америка не вставать, Кэп ему отвечает: «Да я только начал». Такой же ответ он дал хулигану, который избивал его в начале фильма Первый Мститель (2011).• В одном интервью Даниэль Брюль заверил, будто бюджет проекта настолько велик, что «на него можно было бы снять двадцать фильмов».• Финалисты, претендующие на роль Человека-паука, должны были пройти отдельные кинопробы вместе с Крисом Эвансом и Робертом Дауни мл., чтобы продюсеры могли уловить эту особую химию, возникающую между претендентом и главными героями.• В фильме Сокол использует дрона под названием «Краснокрылый». Во вселенной комиксов Marvel «Краснокрылый» был настоящим соколом — напарником Сэма Уилсона.• Режиссер Джо Руссо сказал, что «самым мощным кадром в фильме» стал момент, когда Стив Роджерс голыми руками держит вертолет и не дает ему взлететь. Этот кадр даже попал в первый трейлер фильма. Руссо сказал, что Крис Эванс усиленно тренировался в зале, чтобы физически воплотиться в своего героя, потому что создатели хотели проверить предел физической силы Стива. О самом кадре он отметил: «На съемочной площадке Крис висел в воздухе, одной рукой держась за здание, а другой — за вертолет, чтобы мы могли получить этот фантастический кадр рельефа напряженных мышц, который заставлял бы вас прочувствовать всю силу и решимость, с которой он пытается остановить вертолет».• В конце последнего съемочного дня Себастьян Стэн и Энтони Маки рванули друг с другом наперегонки, будучи еще в своих супергеройских костюмах.• Роберт Дауни мл. и Крис Эванс описывают динамику отношений между их героями как брак: «Мы любим друг друга, но в любой момент у кого-то может подорвать. У нас одна цель, но разные пути ее достижения. Здесь нет верного пути, и в этом-то и вся прелесть: тут нет правых и виноватых. А это только и усложняет наш путь к согласию».• Крис Эванс заявил, что этот фильм положит начало Мстители: Война бесконечности. Часть 1 (2018) и Мстители: Война бесконечности. Часть 2 (2019).• Джереми Реннер сказал, что фильм можно считать очередной частью Мстителей из-за огромного количества участников этой команды, а Энтони Маки вообще назвал фильм «Мстители. Часть 2.5».• В одной из сцен Человек-Муравей оседлал стрелу Соколиного Глаза. Это взято непосредственно из комиксов, в частности, из комикса «Мстители» Выпуск №224.• Трейлер фильма побил рекорд фильма Звёздные войны: Пробуждение силы (2015) по самому большому количеству просмотров на YouTube за первые сутки, собрав 64 миллиона просмотров.

ОбщееУникальный идентификатор : 232955933731049265872556331669991952755 (0xAF41AE4C27A7DA80A3DCF569F86B9173)Полное имя : 3D - Первый мститель Противостояние.mkvФормат : MatroskaВерсия формата : Version 4 / Version 2Размер файла : 16,8 ГбайтПродолжительность : 2 ч. 27 м.Режим общего битрейта : ПеременныйОбщий поток : 16,2 Мбит/секНазвание фильма : CA_CIVIL_WAR_3D.Title0Дата кодирования : UTC 2016-09-02 21:10:34Программа кодирования : mkvmerge v8.3.0 ('Over the Horizon') 64bitБиблиотека кодирования : libebml v1.3.1 + libmatroska v1.4.2 / Lavf57.41.100ENCODING_INFO : MATROSKA,WEBM > MKV / h364 > COPY / AC3 > COPY / DTS > AC3 CBR 640kbps

ВидеоИдентификатор : 1Формат : AVCФормат/Информация : Advanced Video CodecПрофиль формата : [email protected]Параметр CABAC формата : ДаПараметр ReFrames формата : 2 кадраПараметр GOP формата : M=3, N=24Идентификатор кодека : V_MPEG4/ISO/AVCПродолжительность : 2 ч. 27 м.Вид битрейта : ПеременныйБитрейт : 15,2 Мбит/секМаксимальный битрейт : 5985 Кбит/секШирина : 1920 пикселейВысота : 1040 пикселейСоотношение сторон : 1,85:1Режим частоты кадров : ПостоянныйЧастота кадров : 23,976 (24000/1001) кадра/секЦветовое пространство : YUVСубдискретизация насыщенности : 4:2:0Битовая глубина : 8 битТип развёртки : ПрогрессивнаяБит/(Пиксели*Кадры) : 0.318Размер потока : 15,7 Гбайт (94%)Default : ДаForced : НетЦветовой диапазон : LimitedОсновные цвета : BT.709Характеристики трансфера : BT.709Коэффициенты матрицы : BT.709

Аудио #1Идентификатор : 2Формат : AC-3Формат/Информация : Audio Coding 3Расширение режима : CM (complete main)Параметр Endianness формата : BigИдентификатор кодека : A_AC3Продолжительность : 2 ч. 27 м.Вид битрейта : ПостоянныйБитрейт : 384 Кбит/секКаналы : 6 каналовРасположение каналов : Front: L C R, Side: L R, LFEЧастота : 48,0 КГцЧастота кадров : 31,250 кадров/сек (1536 spf)Метод сжатия : С потерямиЗадержка видео : 42 мс.Размер потока : 406 Мбайт (2%)Язык : RussianDefault : ДаForced : Нет

Аудио #2Идентификатор : 3Формат : AC-3Формат/Информация : Audio Coding 3Расширение режима : CM (complete main)Параметр Endianness формата : BigИдентификатор кодека : A_AC3Продолжительность : 2 ч. 27 м.Вид битрейта : ПостоянныйБитрейт : 640 Кбит/секКаналы : 6 каналовРасположение каналов : Front: L C R, Side: L R, LFEЧастота : 48,0 КГцЧастота кадров : 31,250 кадров/сек (1536 spf)Метод сжатия : С потерямиЗадержка видео : 37 мс.Размер потока : 676 Мбайт (4%)Язык : EnglishDefault : НетForced : Нет

Текст #1Идентификатор : 4Формат : UTF-8Идентификатор кодека : S_TEXT/UTF8Идентификатор кодека/Информация : UTF-8 Plain TextПродолжительность : 1 ч. 44 м.Битрейт : 2 бит/секCount of elements : 59Размер потока : 1,91 Кбайт (0%)Заголовок : ForcedЯзык : RussianDefault : ДаForced : Нет

Текст #2Идентификатор : 5Формат : UTF-8Идентификатор кодека : S_TEXT/UTF8Идентификатор кодека/Информация : UTF-8 Plain TextПродолжительность : 2 ч. 25 м.Битрейт : 75 бит/секCount of elements : 1728Размер потока : 80,5 Кбайт (0%)Заголовок : FullЯзык : RussianDefault : НетForced : Нет

Текст #3Идентификатор : 6Формат : UTF-8Идентификатор кодека : S_TEXT/UTF8Идентификатор кодека/Информация : UTF-8 Plain TextПродолжительность : 2 ч. 26 м.Битрейт : 55 бит/секCount of elements : 2105Размер потока : 59,1 Кбайт (0%)Заголовок : SDHЯзык : EnglishDefault : НетForced : Нет

Меню00:00:00.000 : :(01)00:00:00:00000:09:01.957 : :(02)00:09:01:95700:13:04.991 : :(03)00:13:04:99100:21:03.345 : :(04)00:21:03:34500:27:53.380 : :(05)00:27:53:38000:31:57.289 : :(06)00:31:57:28900:35:08.396 : :(07)00:35:08:39600:42:58.449 : :(08)00:42:58:44900:52:04.621 : :(09)00:52:04:62101:05:39.101 : :(10)01:05:39:10101:16:41.637 : :(11)01:16:41:63701:22:28.777 : :(12)01:22:28:77701:29:29.488 : :(13)01:29:29:48801:34:09.769 : :(14)01:34:09:76901:45:38.582 : :(15)01:45:38:58201:55:54.322 : :(16)01:55:54:32202:02:35.055 : :(17)02:02:35:05502:12:14.176 : :(18)02:12:14:17602:18:29.384 : :(19)02:18:29:38402:27:41.685 : :(20)02:27:41:685

                  Скачать Первый мститель: Противостояние в 3D через торрент http://i80.fastpic.ru/big/2016/0829/39/ea5aeb869bd58b1cd500960c2f0e2239.png Скачать фильм Первый мститель: Противостояние в 3D через торрент бесплантно в хорошем качестве Описание: Мстители под руководством Капитана Америки оказываются участниками разрушительного инцидента, имеющего международный масштаб. Эти ... 2016-09-03 04:48 9.9 10 8

Loading...

Loading...

Рекламный пират

03-09-2016 07:33 Первый мститель: Противостояние в 3D Скачать торрент  

норм фильм мне понравился)

03-09-2016 08:00 Первый мститель: Противостояние в 3D Скачать торрент  

держи за труды 5000

03-09-2016 08:10 Первый мститель: Противостояние в 3D Скачать торрент  

....думаю этот паук не подкачает в сольнике!!

03-09-2016 08:17 Первый мститель: Противостояние в 3D Скачать торрент  

...не подскажите че за черные полосы четвертом скрине???

03-09-2016 08:39 Первый мститель: Противостояние в 3D Скачать торрент  

Ну вот и дождался

05-01-2017 07:25 Первый мститель: Противостояние в 3D Скачать торрент  

Спасибо!!!!

Дорогой пользователь! Огромная просьба, поблагодарите релизера, оцените раздачу и оставьте свои комментарий, если Вы скачали Первый мститель: Противостояние в 3D через торрент бесплатно! Внесите свою лепту в развитие PiratBit!

Комментировать посты могут только пользователи прошедшие не сложную регистрацию

Первый мститель: Противостояние в 3D через торрент Скачать бесплатно Первый мститель: Противостояние в 3D Первый мститель: Противостояние в 3D скачать торрент Первый мститель: Противостояние в 3D смотреть онлайн Cкачать фильм Первый мститель: Противостояние в 3D бесплатно Первый мститель: Противостояние в 3D скачать торрент в хорошем качестве Первый мститель: Противостояние в 3D смотреть онлайн бесплатно в хорошем качестве

Вы не можете начинать темыВы не можете отвечать на сообщенияВы не можете редактировать свои сообщенияВы не можете удалять свои сообщенияВы не можете голосовать в опросахВы не можете прикреплять файлы к сообщениямВы можете скачивать файлы

piratbit.ru

Скачать Первый мститель через торрент

Категория: Фильмы 2307 0 Торрент добавлен: 15-04-2015 Рейтинг:

Продолжительность: 02:04:11 Жанр: триллер, драма, приключения Режиссер: Джо Джонстон / Joe Johnston В ролях: Крис Эванс, Хейли Этвелл, Томми Ли Джонс, Хьюго Уивинг, Доминик Купер, Нил МакДонаф, Дерек Люк, Стэнли Туччи, Себастиан Стэн, Тоби Джонс

Первый мститель – так называли Стива Роджерса. Поддавшись влиянию, Стив соглашается на участие в одном, весьма странном, эксперименте. По его завершению, он удивительным образом, превращается в супер-воина. После этого превращения, Роджерс поступает на службу в американскую армию. Рядом с ним, в одном строю, стоят его боевые соратники – Картер и Барнс. Их основная цель и ближайшая задача – борьба и полная ликвидация преступной организации ГИДРА, руководимая Красным Черепом.

Трейлер к фильму Первый мститель

Первый мститель скачать торрент

Формат: BDMVВидео кодек: AVCАудио кодек: AC3Видео: 28788 Кбит/с, 1920x1080, 23.976 кадр/с Аудио: Audio1: Russian (AC3, 6 ch, 640 Кбит/c) 31,65 Gb

скачать

Качество: BDRip 1080p Видео: AVC / [email protected] / 2 pass / 23,976 fps / 1920x816p / 18,2 Mbps / 0.485 Аудио: AC3 / 5.1 ch / 640 kbps / Русский дубляжПрофессиональный (дублированный)

17,28 Gb

скачать

3D

Формат: MKVВидео кодек: H.26xАудио кодек: AC3Видео: 1920х1616 , 23,976 кадр/сек, 26,2 Мбит/сек Аудио: Audio1: Russian: (AC3, 6 каналов, 640 Кбит/сек, 48,0 КГц)

скачать

Формат: AVIВидео кодек: XviDАудио кодек: AC3Видео: 720x304, 1908 кб/с Проф. (полное дублирование)

2,05 Gb

Вы находитесь на странице, где можете совершенно бесплатно скачать фильм Первый мститель в хорошем качестве через торрент, в любом формате, который больше всего вам на данный момент подходит. Скачивание осуществляется через торрент, что означает максимально высокую скорость загрузки. Желаем Вам приятного просмотра!. Не забудь поделиться своими впечатлениями после того как посмотришь фильм Первый мститель.

Информация Посетители, находящиеся в группе Гости, не могут оставлять комментарии к данной публикации.

psp-gu.ru


Смотрите также