Скачать фильм поймай толстуху если сможешь в хорошем качестве через торрент


Скачать Поймай толстуху, если сможешь через торрент

Категория: Фильмы 2374 0 Торрент добавлен: 15-04-2015 Рейтинг:

Жанр: комедия, криминал Выпущено: США Продолжительность: 01:51:23 Режиссер: Сет Гордон В ролях: Джейсон Бейтман, Мелисса МакКарти, Джон Фавро, Аманда Пит, Ти-Ай, Генезис Родригез, Моррис Честнат, Джон Чо, Роберт Патрик, Эрик Стоунстрит Примечание: Присутствуют вшитые корейские субтитры.

Один гражданин работает день и ночь, чтобы заработать себе денег, но однажды при попытке снять очередную сумму со своего счета, он обнаруживает что денег нет. Наверное какой-то глюк в банковской системе, однако походив по банкам, консультанты ему объяснили, что ошибки никакой нет, просто его счетом пользуется одна дамочка, которая любит тратить деньги. Он бросается на ее поиски.

Трейлер к фильму Поймай толстуху, если сможешь

Поймай толстуху, если сможешь скачать торрент

Качество: Blu-Ray Remux (1080p)Видео: MPEG-4 AVC, 28.9 Мбит/с, 1920x1080, 23.976 кадр/сАудио: Русский (DTS, 6 ch, 768 Кбит/с), английский (DTS-HD МА, 6 ch, 3611 Кбит/с) Дублированный [лицензия]

25,75 Gb

скачать

Кодек: x264Качество: BDRip (источник: Blu-ray Disc)Видео: 1920x816 (2,35:1), 23.976 fps, 8692 kbpsАудио #1: AC-3, 6 ch, 640 kbps (Rus)Дублированный + Оригинал

7,76 Gb

Качество видео: HDRipФормат видео: AVIВидео: 720x304 (2.37:1), 23.976 fps, XviD build 50 ~1483 kbps avg, 0.28 bit/pixelАудио: 48 kHz, AC3 Dolby Digital, 3/2 (L,C,R,l,r) + LFE ch, ~384 kbpsПрофессиональный (дублированный) 1,46 Gb

Вы находитесь на странице, где можете совершенно бесплатно скачать фильм Поймай толстуху, если сможешь в хорошем качестве через торрент, в любом формате, который больше всего вам на данный момент подходит. Скачивание осуществляется через торрент, что означает максимально высокую скорость загрузки. Желаем Вам приятного просмотра!. Не забудь поделиться своими впечатлениями после того как посмотришь фильм Поймай толстуху, если сможешь.

Информация Посетители, находящиеся в группе Гости, не могут оставлять комментарии к данной публикации.

psp-gu.ru

Поймай толстуху, если сможешь 2013

Название: Поймай толстуху, если сможешь / Identity Thief (2013) DVD9 от New-Team | D | Лицензия | Театральная версия
Качество видео: DVD9
Перевод: Профессиональный (полное дублирование)
Видео: MPEG2 PAL 16:9 (720x576) VBR ~ 9198.12 kbps avg
Аудио: Русский, английский, немецкий, турецкий DD 5.1 (384Kbps)
Скачать

Загрузка начнется в течение 5 сек.

7.17 GB

Название: Поймай толстуху, если сможешь / Identity Thief (2013) BDRip 720p от Leonardo and Scarabey | Theatrical Cut | Лицензия
Качество видео: BDRip 720p Исходник: Blu-ray
Перевод: Профессиональный (полное дублирование) | Лицензия
Формат видео: MKV Видео кодек: MPEG-4 AVC Аудио кодек: AC3
Видео: AVC, 1280x544 (2.35:1) at 23.976 fps, AVC at 3279 kbps avg, 0.196 bit/pixel
Аудио: AC3, 6ch 384 kbps
Скачать

Загрузка начнется в течение 5 сек.

3.11 GB

Название: Поймай толстуху, если сможешь / Identity Thief (2013) BDRip-AVC | iPhone | A | Unrated Edition
Качество видео: BDRip-AVC 480p iPhone
Перевод: Русский авторский (Д.Есарев)
Видео: H.264 [email protected] (2.35:1) at 23.976 fps, AVC at 1650 kbps
Аудио: 1: 48 kHz, AAC 2.0, 160 kbps - Русский авторский (Д.Есарев)
Скачать

Загрузка начнется в течение 5 сек.

1.65 GB

Название: Поймай толстуху, если сможешь / Identity Thief (2013) HDRip от Youtracker | Театральная версия
Качество видео: HDRip
Перевод: Профессиональный (дублированный)
Видео: XviD 688x288 (2.39:1), 23.976 fps, XviD build 50 ~799 kbps avg, 0.17 bit/pixel
Аудио: AC3 48 kHz, MPEG Layer 3, 2 ch, ~128.00 kbps avg
Скачать

Загрузка начнется в течение 5 сек.

746.88 MB

Название: Поймай толстуху, если сможешь / Identity Thief (2013) HDRip от Youtracker | Театральная версия
Качество видео: HDRip
Перевод: Профессиональный (дублированный)
Видео: XviD 720x304 (2.37:1), 23.976 fps, XviD build 50 ~1483 kbps avg, 0.28 bit/pixel
Аудио: AC3 48 kHz, AC3 Dolby Digital, 3/2 (L,C,R,l,r) + LFE ch, ~384 kbps
Скачать

Загрузка начнется в течение 5 сек.

1.46 GB

Название: Поймай толстуху, если сможешь / Identity Thief (2013) BDRip от HELLYWOOD | Театральная версия / Theatrical Cut
Качество видео: BDRip (Исходник: HDClub/Blu-ray CEE/1080p)
Перевод: Профессиональный (полное дублирование) Blu-ray CEE + Оригинальная звуковая дорожка
Формат видео: AVI
Видео: 720x304 (2.37:1), 23.976 fps, XviD build 65 ~1904 kbps avg, 0.36 bit/pixel
Аудио: 48 kHz, AC3 Dolby Digital, 3/2 (L,C,R,l,r) + LFE ch, ~448 kbps |DUB, Blu-ray CEE|48 kHz, AC3 Dolby Digital, 3/2 (L,C,R,l,r) + LFE ch, ~448 kbps |ENG|
Скачать

Загрузка начнется в течение 5 сек.

2.18 GB

Название: Поймай толстуху, если сможешь / Identity Thief (2013) BDRip-AVC от potroks | Лицензия | Theatrical Cut
Перевод: Профессиональный (полное дублирование) лицензия
Формат видео: MKV
Видео: H.264, 1040x442 (2,35:1), 23.976 fps, 2039 Кbps, 0.185 bit/pixel
Аудио: 48 kHz, AC3 Dolby Digital, 3/2 (L,C,R,l,r) + LFE ch, 384.00 kbps | RUS48 kHz, AC3 Dolby Digital, 3/2 (L,C,R,l,r) + LFE ch, 384.00 kbps | ENG
Скачать

Загрузка начнется в течение 5 сек.

2.19 GB

Название: Поймай толстуху, если сможешь / Identity Thief (2013) HDRip-AVC | D | Театральная версия | Лицензия
Качество видео: HDRip-AVC - [BDRip 720p]
Перевод: Профессиональный (полное дублирование) Лицензия
Видео: H.264 800x336 (2.40:1), 23.976 кадр/сек, Advanced Video Codec ([email protected]) ~862 кбит/сек, 0.134 bit/pixel
Аудио: 48 kHz, AAC-HE, 2/0 (L,R) канала, ~76.00 кбит/сек
Скачать

Загрузка начнется в течение 5 сек.

745.51 MB

Название: Поймай толстуху, если сможешь / Identity Thief (2013) HDRip от Scarabey | D | Театральная версия | Лицензия
Качество видео: HDRip
Перевод: Профессиональный (дублированный)
Видео: 688x288 (2.39:1), 23.976 fps, XviD build 73 ~799 kbps avg, 0.17 bit/pixel
Аудио: 48 kHz, MPEG Layer 3, 2 ch, ~128.00 kbps avg
Скачать

Загрузка начнется в течение 5 сек.

747.20 MB

Название: Поймай толстуху, если сможешь / Identity Thief (2013) HDRip от Scarabey | D | Театральная версия | Лицензия
Качество видео: HDRip
Перевод: Профессиональный (дублированный)
Видео: 720x304 (2.37:1), 23.976 fps, XviD build 73 ~1402 kbps avg, 0.27 bit/pixel
Аудио: 48 kHz, AC3 Dolby Digital, 3/2 (L,C,R,l,r) + LFE ch, ~448 kbps
Скачать

Загрузка начнется в течение 5 сек.

1.45 GB

Название: Поймай толстуху, если сможешь / Identity Thief (2013) HDRip от Torrent-Xzona | КПК | Theatrical Cut | Лицензия
Скачать

Загрузка начнется в течение 5 сек.

419.66 MB

Название: Поймай толстуху, если сможешь / Identity Thief (2013) BDRip от HQCLUB | Лицензия
Качество видео: BDRip (источник: Kinozal-TV / BD-Remux / 1080p)
Перевод: Профессиональный (полное дублирование) BD CEE + Оригинальная звуковая дорожка
Формат видео: AVI
Видео: 720x304 (2.37:1), 23,976 fps, XviD build 65 ~1901 kbps avg, 0.36 bit/pixel
Аудио: 48 kHz, AC3 Dolby Digital, 3/2 (L,C,R,l,r) + LFE ch, ~448.00 kbps avg48 kHz, AC3 Dolby Digital, 3/2 (L,C,R,l,r) + LFE ch, ~448.00 kbps avg
Скачать

Загрузка начнется в течение 5 сек.

2.18 GB

Название: Поймай толстуху, если сможешь / Identity Thief (2013) BDRip 1080p от Youtracker | Лицензия | Theatrical Cut
Перевод: русский профессиональный (полное дублирование) [Лицензия, BD CEE]
Видео: x264 AVC / [email protected] / 2 pass / 23,976 fps / 1920x816p (2,35:1) / 12,5 Mbps / 0.333
Аудио: AC3 английскаяAC3AC3 / 5.1 ch / 640 kbps / Русский дубляж, BD CEEAC3 / 5.1 ch / 640 kbps / Английский original, BD CEE
Скачать

Загрузка начнется в течение 5 сек.

10.73 GB

Название: Поймай толстуху, если сможешь / Identity Thief (2013) BDRip 1080p | Theatrical Cut
Качество видео: BDRip (источник: Blu-ray Disc)
Перевод: Дублированный + Оригинал
Видео: x264 1920x816 (2,35:1), 23.976 fps, 8692 kbps
Аудио: AC-3, 6 ch, 640 kbps (Rus)AC-3, 6 ch, 640 kbps (Eng)
Скачать

Загрузка начнется в течение 5 сек.

7.76 GB

Название: Поймай толстуху, если сможешь / Identity Thief (2013) BDRip 720p | Theatrical Cut | Лицензия
Качество видео: BDRip (720p)
Перевод: Дублированный [лицензия]
Видео: MPEG-4 AVC, 6666 Кбит/с, 1280x544
Аудио: Русский (DTS, 6 ch, 768 Кбит/с), английский (DTS, 6 ch, 1510 Кбит/с)
Скачать

Загрузка начнется в течение 5 сек.

6.96 GB

Название: Поймай толстуху, если сможешь / Identity Thief (2013) BDRemux | Theatrical Cut | Лицензия
Качество видео: Blu-Ray Remux (1080p)
Перевод: Дублированный [лицензия]
Видео: MPEG-4 AVC, 28.9 Мбит/с, 1920x1080, 23.976 кадр/с
Аудио: Русский (DTS, 6 ch, 768 Кбит/с), английский (DTS-HD МА, 6 ch, 3611 Кбит/с)
Скачать

Загрузка начнется в течение 5 сек.

25.75 GB

Название: Поймай толстуху, если сможешь / Identity Thief (2013) HDRip | Theatrical Cut | Лицензия
Качество видео: HDRip
Перевод: Дублированное [Лицензия]
Формат видео: AVI (XviD)
Видео: 720x304 (2.37:1), 23.976 fps, XviD build 50 ~1477 kbps avg, 0.28 bit/pixel
Аудио: 48 kHz, AC3 Dolby Digital, 3/2 (L,C,R,l,r) + LFE ch, ~384 kbps
Скачать

Загрузка начнется в течение 5 сек.

1.46 GB

Название: Поймай толстуху, если сможешь / Identity Thief (2013) HDRip | Theatrical Cut | Лицензия
Качество видео: HDRip
Перевод: Дублированное [Лицензия]
Формат видео: AVI (XviD)
Видео: 720x304 (2.37:1), 23.976 fps, XviD build 50 ~1854 kbps avg, 0.35 bit/pixel
Скачать

Загрузка начнется в течение 5 сек.

2.05 GB

Название: Поймай толстуху, если сможешь / Identity Thief (2013) HDRip-AVC от R.G. RustorRipper's | UNRATED | Звук с TS
Качество видео: HDRip-AVC
Перевод: Профессиональный (полное дублирование)[звук с TS]
Видео: AVC AVC, 1024x432 (2.35:1), 2200 kbps, 23,976 fps, 0,207 bpp
Аудио: AC3 / AC3 / 2.0 / 48 kHz / 160 kbps / 16 bit
Скачать

Загрузка начнется в течение 5 сек.

1.99 GB

Название: Поймай толстуху, если сможешь / Identity Thief (2013) HDRip | UNRATED | Звук с TS
Качество видео: HDRip
Перевод: Дублированное [звук с TS]
Формат видео: AVI (XviD)
Видео: 1884 kb/s, 720x304
Аудио: Russian: AC3, 160 kb/s (2 ch) / English: AC3, 384 kb/s (6 ch)
Скачать

Загрузка начнется в течение 5 сек.

2.05 GB

Название: Поймай толстуху, если сможешь / Identity Thief (2013) WEB-DLRip | Звук с TS
Качество видео: WEB-DLRip
Перевод: Дублированное [звук с TS]
Формат видео: AVI (XviD)
Видео: 1595 kb/s, 720x304
Аудио: AC3, 160 Kb/s (2 ch)
Скачать

Загрузка начнется в течение 5 сек.

1.37 GB

Название: Поймай толстуху, если сможешь / Identity Thief (2013) WEBRip | L1
Качество видео: WEBRip
Перевод: Любительский (одноголосый)
Видео: XviD 1621 Kb/s, 720x304
Аудио: MP3, 2 ch, 128 Кбит/с
Скачать

Загрузка начнется в течение 5 сек.

1.37 GB

Название: Поймай толстуху, если сможешь / Identity Thief (2013) WEBRip | Звук с TS
Качество видео: WEBRip
Перевод: Дублированный [Звук с TS]
Видео: XviD 2207 Kb/s, 720x304
Аудио: Russian: AC3, 192 Kb/s, (2 ch)English: AC3, 192 Kb/s, (2 ch)
Скачать

Загрузка начнется в течение 5 сек.

2.02 GB

Название: Поймай толстуху, если сможешь / Identity Thief (2013) WebRip | Звук с TS
Качество видео: WebRip
Перевод: Дубляж
Видео: XVID 672x280, ~680 kbps, 23,976 fps, 0.15 битпиксели
Аудио: MP3 VBR ~128kbps
Скачать

Загрузка начнется в течение 5 сек.

707.91 MB

Название: Поймай толстуху, если сможешь / Identity Thief (2013) WEBRip | Звук с TS
Качество видео: WEBRip
Перевод: Дублированное [звук с TS]
Формат видео: AVI (XviD)
Видео: 1621 Kb/s, 720x304
Аудио: MP3, 128 Kb/s (2 ch)
Скачать

Загрузка начнется в течение 5 сек.

1.37 GB

www.kinovit.net

Скачать фильм Поймай толстуху, если сможешь (2013) через торрент

1 февраля 2016 07:37 Поймай толстуху, если сможешь / Identity Thief (2013) DVD9 от New-Team | D | Лицензия | Театральная версия .torrent   [Информация о файле (нажмите для просмотра)] Перевод: Профессиональный (полное дублирование)Кодек: MPEG2Качество: DVD9Видео: PAL 16:9 (720x576) VBR ~ 9198.12 kbps avgЗвук: Русский, английский, немецкий, турецкий DD 5.1 (384Kbps)Субтитры: Русские, английские, немецкие, турецкие, латышские, литовские, эстонские, болгарские, греческие 7,17 Gb 4 4 1 февраля 2016 07:37 Поймай толстуху, если сможешь / Identity Thief (2013) BDRip 720p от Leonardo and Scarabey | Theatrical Cut | Лицензия .torrent   [Информация о файле (нажмите для просмотра)] Перевод: Профессиональный (полное дублирование) ЛицензияФормат: MKVВидео кодек: MPEG-4 AVC Аудио кодек: AC3Видео: AVC, 1280x544 (2.35:1) at 23.976 fps, AVC at 3274 kbps avg, 0.196 bit/pixelАудио: Russian; AC3; 640 Kbps; CBR; 6 ch; 16 bitСубтитры: Русские, английские 3,11 Gb 118 5 1 февраля 2016 07:37 Поймай толстуху, если сможешь / Identity Thief (2013) BDRip-AVC от HELLYWOOD | Расширенная версия .torrent   [Информация о файле (нажмите для просмотра)] Перевод: Авторский (одноголосый) [Д.Есарев]Субтитры: Английские (Full + SDH + SDH-Colored)Качество: BDRip-AVCФормат: MKVВидео: x.264, 1080x460 (2,35:1), 23.976 fps, 2561 Кbps, 0.215 bit/pixelАудио#1: 48 kHz, AC3 Dolby Digital, 3/2 (L,C,R,l,r) + LFE ch, 448.00 kbps |RUSАудио#2: 48 kHz, AC3 Dolby Digital, 3/2 (L,C,R,l,r) + LFE ch, 448.00 kbps |ENG 2,91 Gb 41 4 1 февраля 2016 07:37 Поймай толстуху, если сможешь / Identity Thief (2013) BDRip 1080p | Theatrical Cut .torrent   [Информация о файле (нажмите для просмотра)] Перевод: Дублированный + ОригиналКодек: x264Качество: BDRip (источник: Blu-ray Disc)Видео: 1920x816 (2,35:1), 23.976 fps, 8692 kbpsАудио #1: AC-3, 6 ch, 640 kbps (Rus)Аудио #2: AC-3, 6 ch, 640 kbps (Eng)Субтитры: Русские (Forced), Русские, АнглийскиеВидео: Идентификатор : 1 Формат : AVC Формат/Информация : Advanced Video Codec Профиль формата : [email protected] Параметр CABAC формата : Да Параметр ReFrames формата : 5 кадров Идентификатор кодека : V_MPEG4/ISO/AVC Продолжительность : 1 ч. 51 м. Битрейт : 8692 Кбит/сек Ширина : 1920 пикселей Высота : 816 пикселей Соотношение сторон : 2,35:1 Режим частоты кадров : Постоянный Частота кадров : 23,976 кадра/сек Цветовое пространство : YUV Субдискретизация насыщенности : 4:2:0 Битовая глубина : 8 бит Тип развёртки : Прогрессивная Бит/(Пиксели*Кадры) : 0.231 Размер потока : 6,61 Гбайт (85%) Заголовок : Release by N1NT3NDO Библиотека кодирования : x264 core 133 r2334 a3ac64b Настройки программы : cabac=1 / ref=5 / deblock=1:-3:-3 / analyse=0x3:0x113 / me=umh / subme=11 / psy=1 / psy_rd=1.00:0.00 / mixed_ref=1 / me_range=32 / chroma_me=1 / trellis=2 / 8x8dct=1 / cqm=0 / deadzone=21,11 / fast_pskip=0 / chroma_qp_offset=-2 / threads=12 / lookahead_threads=1 / sliced_threads=0 / nr=0 / decimate=0 / interlaced=0 / bluray_compat=0 / constrained_intra=0 / bframes=5 / b_pyramid=2 / b_adapt=2 / b_bias=0 / direct=2 / weightb=1 / open_gop=0 / weightp=2 / keyint=240 / keyint_min=23 / scenecut=40 / intra_refresh=0 / rc_lookahead=80 / rc=2pass / mbtree=1 / bitrate=8692 / ratetol=1.0 / qcomp=0.60 / qpmin=0 / qpmax=69 / qpstep=4 / cplxblur=20.0 / qblur=0.5 / ip_ratio=1.40 / aq=1:0.70 Язык : English Default : Да Forced : НетАудио #1: Идентификатор : 2 Формат : AC-3 Формат/Информация : Audio Coding 3 Расширение режима : CM (complete main) Параметр Endianness формата : Big Идентификатор кодека : A_AC3 Продолжительность : 1 ч. 51 м. Вид битрейта : Постоянный Битрейт : 640 Кбит/сек Каналы : 6 каналов Расположение каналов : Front: L C R, Side: L R, LFE Частота : 48,0 КГц Битовая глубина : 16 бит Метод сжатия : С потерями Размер потока : 510 Мбайт (6%) Заголовок : Rus Язык : Russian Default : Да Forced : НетАудио #2: Идентификатор : 3 Формат : AC-3 Формат/Информация : Audio Coding 3 Расширение режима : CM (complete main) Параметр Endianness формата : Big Идентификатор кодека : A_AC3 Продолжительность : 1 ч. 51 м. Вид битрейта : Постоянный Битрейт : 640 Кбит/сек Каналы : 6 каналов Расположение каналов : Front: L C R, Side: L R, LFE Частота : 48,0 КГц Битовая глубина : 16 бит Метод сжатия : С потерями Размер потока : 510 Мбайт (6%) Заголовок : Eng Язык : English Default : Нет Forced : Нет 7,76 Gb 72 1 1 февраля 2016 07:36 Поймай толстуху, если сможешь / Identity Thief (2013) BDRip-AVC | iPhone | A | Unrated Edition .torrent   [Информация о файле (нажмите для просмотра)] Перевод: Русский авторский (Д.Есарев)Кодек: H.264Качество: BDRip-AVC 480p iPhoneВидео: [email protected] (2.35:1) at 23.976 fps, AVC at 1650 kbpsЗвук: 1: 48 kHz, AAC 2.0, 160 kbps - Русский авторский (Д.Есарев) 2: 48 kHz, AAC 2.0, 160 kbps - АнглийскийСубтитры: Английские, Французские 1,65 Gb 8 5 1 февраля 2016 07:36 Поймай толстуху, если сможешь / Identity Thief (2013) HDRip от New-team | Театральная версия .torrent   [Информация о файле (нажмите для просмотра)] Перевод: Профессиональный (дублированный)Видео: 688x288 (2.39:1), 23.976 fps, XviD build 50 ~799 kbps avg, 0.17 bit/pixelАудио: 48 kHz, MPEG Layer 3, 2 ch, ~128.00 kbps avg 746,88 Mb 56 11 1 февраля 2016 07:36 Поймай толстуху, если сможешь / Identity Thief (2013) HDRip от New-team | Театральная версия .torrent   [Информация о файле (нажмите для просмотра)] Перевод: Профессиональный (дублированный)Видео: 720x304 (2.37:1), 23.976 fps, XviD build 50 ~1483 kbps avg, 0.28 bit/pixelАудио: 48 kHz, AC3 Dolby Digital, 3/2 (L,C,R,l,r) + LFE ch, ~384 kbps 1,46 Gb 130 4 1 февраля 2016 07:36 Поймай толстуху, если сможешь / Identity Thief (2013) BDRip от HELLYWOOD | Театральная версия / Theatrical Cut .torrent   [Информация о файле (нажмите для просмотра)] Перевод: Профессиональный (полное дублирование) Blu-ray CEE + Оригинальная звуковая дорожкаСубтитры: Русские[Full, Forced], Английские [SDH]Формат: AVIКачество: BDRip (Исходник: HDClub/Blu-ray CEE/1080p)Видео: 720x304 (2.37:1), 23.976 fps, XviD build 65 ~1904 kbps avg, 0.36 bit/pixelАудио #1: 48 kHz, AC3 Dolby Digital, 3/2 (L,C,R,l,r) + LFE ch, ~448 kbps|DUB, Blu-ray CEE|Аудио #2: 48 kHz, AC3 Dolby Digital, 3/2 (L,C,R,l,r) + LFE ch, ~448 kbps|ENG| 2,18 Gb 21 4 1 февраля 2016 07:36 Поймай толстуху, если сможешь / Identity Thief (2013) BDRip-AVC от potroks | Лицензия | Theatrical Cut .torrent   [Информация о файле (нажмите для просмотра)] Перевод: Профессиональный (полное дублирование)Субтитры: Русские (полные + форс.), английские (SDH)Качество: BDRip-AVC [BluRay-Remux]Формат: MKVВидео: H.264, 1040x442 (2,35:1), 23.976 fps, 2039 Кbps, 0.185 bit/pixelАудио#1: 48 kHz, AC3 Dolby Digital, 3/2 (L,C,R,l,r) + LFE ch, 384.00 kbps |RUSАудио#2: 48 kHz, AC3 Dolby Digital, 3/2 (L,C,R,l,r) + LFE ch, 384.00 kbps |ENGВидео: Идентификатор : 1 Формат : AVC Формат/Информация : Advanced Video Codec Профиль формата : [email protected] Параметр CABAC формата : Да Параметр ReFrames формата : 10 кадров Идентификатор кодека : V_MPEG4/ISO/AVC Продолжительность : 1 ч. 51 м. Битрейт : 2039 Кбит/сек Ширина : 1040 пикселей Высота : 442 пикселя Соотношение сторон : 2,35:1 Режим частоты кадров : Постоянный Частота кадров : 23,976 кадра/сек Цветовое пространство : YUV Субдискретизация насыщенности : 4:2:0 Битовая глубина : 8 бит Тип развёртки : Прогрессивная Бит/(Пиксели*Кадры) : 0.185 Размер потока : 1,54 Гбайт (71%) Заголовок : Identity Thief Библиотека кодирования : x264 core 130 r2273 b3065e6 Настройки программы : cabac=1 / ref=10 / deblock=1:-2:-1 / analyse=0x3:0x133 / me=umh / subme=11 / psy=1 / psy_rd=1.00:0.00 / mixed_ref=1 / me_range=32 / chroma_me=1 / trellis=2 / 8x8dct=1 / cqm=0 / deadzone=21,11 / fast_pskip=0 / chroma_qp_offset=-2 / threads=9 / lookahead_threads=2 / sliced_threads=0 / nr=0 / decimate=1 / interlaced=0 / bluray_compat=0 / constrained_intra=0 / bframes=11 / b_pyramid=2 / b_adapt=2 / b_bias=0 / direct=3 / weightb=1 / open_gop=0 / weightp=2 / keyint=240 / keyint_min=23 / scenecut=40 / intra_refresh=0 / rc_lookahead=150 / rc=2pass / mbtree=1 / bitrate=2039 / ratetol=1.0 / qcomp=0.70 / qpmin=0 / qpmax=69 / qpstep=4 / cplxblur=20.0 / qblur=0.5 / vbv_maxrate=20000 / vbv_bufsize=20000 / nal_hrd=none / ip_ratio=1.35 / aq=1:0.90 Язык : English Default : Да Forced : НетАудио #1: Идентификатор : 2 Формат : AC-3 Формат/Информация : Audio Coding 3 Расширение режима : CM (complete main) Параметр Endianness формата : Big Идентификатор кодека : A_AC3 Продолжительность : 1 ч. 51 м. Вид битрейта : Постоянный Битрейт : 384 Кбит/сек Каналы : 6 каналов Расположение каналов : Front: L C R, Side: L R, LFE Частота : 48,0 КГц Битовая глубина : 16 бит Метод сжатия : С потерями Размер потока : 306 Мбайт (14%) Заголовок : Dub | DD 5.1 @ 384 kbps Язык : Russian Default : Да Forced : ДаАудио #2: Идентификатор : 3 Формат : AC-3 Формат/Информация : Audio Coding 3 Расширение режима : CM (complete main) Параметр Endianness формата : Big Идентификатор кодека : A_AC3 Продолжительность : 1 ч. 51 м. Вид битрейта : Постоянный Битрейт : 384 Кбит/сек Каналы : 6 каналов Расположение каналов : Front: L C R, Side: L R, LFE Частота : 48,0 КГц Битовая глубина : 16 бит Метод сжатия : С потерями Размер потока : 306 Мбайт (14%) Заголовок : Original | DD 5.1 @ 384 kbps Язык : English Default : Нет Forced : Нет 2,19 Gb 111 3 1 февраля 2016 07:36 Поймай толстуху, если сможешь / Identity Thief (2013) HDRip-AVC | D | Театральная версия | Лицензия .torrent   [Информация о файле (нажмите для просмотра)] Перевод: Профессиональный (полное дублирование)ЛицензияКодек: H.264Качество: HDRip-AVC -[BDRip 720p]Видео: 800x336 (2.40:1), 23.976 кадр/сек, Advanced Video Codec ([email protected]) ~862 кбит/сек, 0.134 bit/pixelЗвук: 48 kHz, AAC-HE, 2/0 (L,R) канала, ~76.00 кбит/сек 745,51 Mb 19 3 1 февраля 2016 07:36 Поймай толстуху, если сможешь / Identity Thief (2013) HDRip от Scarabey | D | Театральная версия | Лицензия .torrent   [Информация о файле (нажмите для просмотра)] Перевод: Профессиональный (дублированный)Видео: 720x304 (2.37:1), 23.976 fps, XviD build 73 ~1402 kbps avg, 0.27 bit/pixelАудио: 48 kHz, AC3 Dolby Digital, 3/2 (L,C,R,l,r) + LFE ch, ~448 kbps 1,45 Gb 966 18 1 февраля 2016 07:36 Поймай толстуху, если сможешь / Identity Thief (2013) HDRip от Scarabey | D | Театральная версия | Лицензия .torrent   [Информация о файле (нажмите для просмотра)] Перевод: Профессиональный (дублированный)Видео: 688x288 (2.39:1), 23.976 fps, XviD build 73 ~799 kbps avg, 0.17 bit/pixelАудио: 48 kHz, MPEG Layer 3, 2 ch, ~128.00 kbps avg 747,2 Mb 29 3 1 февраля 2016 07:36 Поймай толстуху, если сможешь / Identity Thief (2013) HDRip от Torrent-Xzona | КПК | Theatrical Cut | Лицензия .torrent   [Информация о файле (нажмите для просмотра)] Перевод: Профессиональный (полное дублирование) | ЛицензияКодек: x264Качество: HDRip | КПКВидео: MPEG-4, 480х200, 23,976 fps, 396 Кбит/сЗвук: ААС LC, 2 ch, 128 Кбит/с 419,66 Mb 41 1 1 февраля 2016 07:36 Поймай толстуху, если сможешь / Identity Thief (2013) BDRip от HQCLUB | Лицензия .torrent   [Информация о файле (нажмите для просмотра)] Перевод: Профессиональный (полное дублирование) BD CEE + Оригинальная звуковая дорожкаСубтитры: Русские (полные, форсированные), Английские (внешние srt*)Формат: AVIКачество: BDRip (источник: Kinozal-TV /BD-Remux / 1080p)Видео: 720x304 (2.37:1), 23,976 fps, XviD build 65 ~1901 kbps avg, 0.36 bit/pixelАудио #1: 48 kHz, AC3 Dolby Digital, 3/2 (L,C,R,l,r) + LFE ch, ~448.00 kbps avgАудио #2: 48 kHz, AC3 Dolby Digital, 3/2 (L,C,R,l,r) + LFE ch, ~448.00 kbps avg 2,18 Gb 19 3 1 февраля 2016 07:36 Поймай толстуху, если сможешь / Identity Thief (2013) BDRip 1080p | Лицензия | Theatrical Cut .torrent   [Информация о файле (нажмите для просмотра)] Перевод: русский профессиональный (полное дублирование)[Лицензия, BD CEE]Контейнер: MKVВидео: AVC / [email protected] /2 pass / 23,976 fps / 1920x816p (2,35:1) / 12,5 Mbps / 0.333Аудио 1: AC3 / 5.1 ch / 640 kbps / Русский дубляж, BD CEEАудио 2: AC3 / 5.1 ch / 640 kbps / Английский original, BD CEEСубтитры: [softsub SRT]Видео: Идентификатор : 1 Формат : AVC Формат/Информация : Advanced Video Codec Профиль формата : [email protected] Параметр CABAC формата : Да Параметр ReFrames формата : 5 кадров Идентификатор кодека : V_MPEG4/ISO/AVC Продолжительность : 1 ч. 51 м. Битрейт : 12,5 Мбит/сек Ширина : 1920 пикселей Высота : 816 пикселей Соотношение сторон : 2,35:1 Режим частоты кадров : Постоянный Частота кадров : 23,976 кадра/сек Цветовое пространство : YUV Субдискретизация насыщенности : 4:2:0 Битовая глубина : 8 бит Тип развёртки : Прогрессивная Бит/(Пиксели*Кадры) : 0.333 Размер потока : 9,52 Гбайт (89%) Заголовок : Identity Thief (2013) Theatrical.Cut Библиотека кодирования : x264 core 133 r2334 a3ac64b Настройки программы : cabac=1 / ref=5 / deblock=1:-3:-3 / analyse=0x3:0x133 / me=tesa / subme=11 / psy=1 / psy_rd=1.10:0.00 / mixed_ref=1 / me_range=24 / chroma_me=1 / trellis=2 / 8x8dct=1 / cqm=0 / deadzone=21,11 / fast_pskip=1 / chroma_qp_offset=-2 / threads=12 / lookahead_threads=2 / sliced_threads=0 / nr=0 / decimate=1 / interlaced=0 / bluray_compat=0 / constrained_intra=0 / bframes=8 / b_pyramid=2 / b_adapt=2 / b_bias=0 / direct=3 / weightb=1 / open_gop=0 / weightp=2 / keyint=240 / keyint_min=23 / scenecut=40 / intra_refresh=0 / rc_lookahead=60 / rc=2pass / mbtree=0 / bitrate=12500 / ratetol=1.0 / qcomp=0.60 / qpmin=0 / qpmax=69 / qpstep=4 / cplxblur=20.0 / qblur=0.5 / vbv_maxrate=60000 / vbv_bufsize=60000 / nal_hrd=none / ip_ratio=1.40 / pb_ratio=1.30 / aq=2:0.60 Язык : English Default : Да Forced : НетАудио #1: Идентификатор : 2 Формат : AC-3 Формат/Информация : Audio Coding 3 Расширение режима : CM (complete main) Параметр Endianness формата : Big Идентификатор кодека : A_AC3 Продолжительность : 1 ч. 51 м. Вид битрейта : Постоянный Битрейт : 640 Кбит/сек Каналы : 6 каналов Расположение каналов : Front: L C R, Side: L R, LFE Частота : 48,0 КГц Битовая глубина : 16 бит Метод сжатия : С потерями Размер потока : 510 Мбайт (5%) Заголовок : AC3 / 5.1 ch / 640 kbps / Русский дубляж, BD CEE Язык : Russian Default : Да Forced : НетАудио #2: Идентификатор : 3 Формат : AC-3 Формат/Информация : Audio Coding 3 Расширение режима : CM (complete main) Параметр Endianness формата : Big Идентификатор кодека : A_AC3 Продолжительность : 1 ч. 51 м. Вид битрейта : Постоянный Битрейт : 640 Кбит/сек Каналы : 6 каналов Расположение каналов : Front: L C R, Side: L R, LFE Частота : 48,0 КГц Битовая глубина : 16 бит Метод сжатия : С потерями Размер потока : 510 Мбайт (5%) Заголовок : AC3 / 5.1 ch / 640 kbps / Украинский дубляж, BD CEE Язык : English Default : Нет Forced : Нет 10,73 Gb 5 4 1 февраля 2016 07:36 Поймай толстуху, если сможешь / Identity Thief (2013) BDRip от ELmusic | Лицензия .torrent   [Информация о файле (нажмите для просмотра)] Перевод: Профессиональный (дублированный) лицензия CEE + ОригиналСубтитры: Русские (полные) + Русские (форсированые) + Английские (SHD)Качество: BDRipФормат: AVIВидео: 720x304 (2.37:1), 23.976 fps, XviD build 73 ~1901 kbps avg, 0.36 bit/pixelАудио: Аудио #1: 48 kHz, AC3 Dolby Digital, 3/2 (L,C,R,l,r) + LFE ch, ~448 kbpsАудио #2: 48 kHz, AC3 Dolby Digital, 3/2 (L,C,R,l,r) + LFE ch, ~448 kbps 2,18 Gb 17 2 1 февраля 2016 07:36 Поймай толстуху, если сможешь / Identity Thief (2013) BDRip 720p от Hot-Film | Theatrical Cut | Лицензия .torrent   [Информация о файле (нажмите для просмотра)] Перевод: Профессиональный (полное дублирование) | ЛицензияКачество: BDRip 720p [BD Remux]Формат: MKVВидео: AVC, 1280x544 (2.35:1) at 23.976 fps, AVC at 5160 kbps avg, 0.309 bit/pixelАудио: Russian AC3, 6ch 448 kbps 4,36 Gb 33 5 1 февраля 2016 07:36 Поймай толстуху, если сможешь / Identity Thief (2013) BDRip-AVC | Theatrical Cut | от Rulya74 .torrent   [Информация о файле (нажмите для просмотра)] Перевод: Дублированный (Лицензия)Кодек: x.264Качество: BDRip-AVCВидео: 1024x432 (2,40:1), 23,976 fps, 1482 kbps, 0.140 bit/pixelЗвук: 48 kHz, AC3 Dolby Digital, 6 ch, ~384.00 kbpsСубтитры: Русские, Английские (отключаемые)Видео: Идентификатор : 1 Формат : AVC Формат/Информация : Advanced Video Codec Профиль формата : [email protected] Параметр CABAC формата : Да Параметр ReFrames формата : 10 кадров Идентификатор кодека : V_MPEG4/ISO/AVC Продолжительность : 1 ч. 51 м. Битрейт : 1482 Кбит/сек Ширина : 1024 пикселя Высота : 432 пикселя Соотношение сторон : 2,40:1 Режим частоты кадров : Постоянный Частота кадров : 23,976 кадра/сек Цветовое пространство : YUV Субдискретизация насыщенности : 4:2:0 Битовая глубина : 8 бит Тип развёртки : Прогрессивная Бит/(Пиксели*Кадры) : 0.140 Размер потока : 1,12 Гбайт (77%) Библиотека кодирования : x264 core 133 r2334 a3ac64b Настройки программы : cabac=1 / ref=10 / deblock=1:-2:-1 / analyse=0x3:0x113 / me=umh / subme=10 / psy=1 / psy_rd=1.22:0.06 / mixed_ref=1 / me_range=32 / chroma_me=1 / trellis=2 / 8x8dct=1 / cqm=0 / deadzone=21,11 / fast_pskip=0 / chroma_qp_offset=-3 / threads=6 / lookahead_threads=1 / sliced_threads=0 / nr=0 / decimate=1 / interlaced=0 / bluray_compat=0 / constrained_intra=0 / bframes=8 / b_pyramid=2 / b_adapt=1 / b_bias=0 / direct=3 / weightb=1 / open_gop=0 / weightp=2 / keyint=240 / keyint_min=23 / scenecut=40 / intra_refresh=0 / rc_lookahead=40 / rc=2pass / mbtree=1 / bitrate=1482 / ratetol=1.0 / qcomp=0.60 / qpmin=0 / qpmax=69 / qpstep=4 / cplxblur=20.0 / qblur=0.5 / vbv_maxrate=62500 / vbv_bufsize=78125 / nal_hrd=none / ip_ratio=1.40 / aq=1:1.00 Default : Да Forced : Нет Аудио: Идентификатор : 2 Формат : AC-3 Формат/Информация : Audio Coding 3 Расширение режима : CM (complete main) Параметр Endianness формата : Big Идентификатор кодека : A_AC3 Продолжительность : 1 ч. 51 м. Вид битрейта : Постоянный Битрейт : 384 Кбит/сек Каналы : 6 каналов Расположение каналов : Front: L C R, Side: L R, LFE Частота : 48,0 КГц Битовая глубина : 16 бит Метод сжатия : С потерями Размер потока : 306 Мбайт (21%) Заголовок : Дублированный Язык : Russian Default : Да Forced : Нет 1,45 Gb 24 4 1 февраля 2016 07:36 Поймай толстуху, если сможешь / Identity Thief (2013) BDRip 1080p | Theatrical Cut | Лицензия .torrent   [Информация о файле (нажмите для просмотра)] Качество: BDRip (1080p)Видео: MPEG-4 AVC, 13.2 Мбит/с, 1920x816Аудио: Русский (DTS, 6 ch, 768 Кбит/с), английский (DTS, 6 ch, 1510 Кбит/с)Перевод: Дублированный [лицензия]Субтитры: Русские, английские, испанские, португальскиеВидео: Идентификатор : 1 Формат : AVC Формат/Информация : Advanced Video Codec Профиль формата : [email protected] Параметр CABAC формата : Да Параметр ReFrames формата : 5 кадров Идентификатор кодека : V_MPEG4/ISO/AVC Продолжительность : 1 ч. 51 м. Битрейт : 13,2 Мбит/сек Ширина : 1920 пикселей Высота : 816 пикселей Соотношение сторон : 2,35:1 Режим частоты кадров : Постоянный Частота кадров : 23,976 кадра/сек Цветовое пространство : YUV Субдискретизация насыщенности : 4:2:0 Битовая глубина : 8 бит Тип развёртки : Прогрессивная Бит/(Пиксели*Кадры) : 0.351 Размер потока : 10,0 Гбайт (83%) Заголовок : -=Rip by GIU=- Библиотека кодирования : x264 core 133 r2334 a3ac64b Настройки программы : cabac=1 / ref=5 / deblock=1:-3:-3 / analyse=0x3:0x3 / me=umh / subme=11 / psy=1 / psy_rd=1.00:0.00 / mixed_ref=0 / me_range=32 / chroma_me=1 / trellis=2 / 8x8dct=1 / cqm=0 / deadzone=21,11 / fast_pskip=1 / chroma_qp_offset=-2 / threads=12 / lookahead_threads=2 / sliced_threads=0 / nr=0 / decimate=1 / interlaced=0 / bluray_compat=0 / constrained_intra=0 / bframes=8 / b_pyramid=2 / b_adapt=2 / b_bias=0 / direct=3 / weightb=1 / open_gop=0 / weightp=1 / keyint=240 / keyint_min=23 / scenecut=40 / intra_refresh=0 / rc_lookahead=0 / rc=2pass / mbtree=0 / bitrate=13200 / ratetol=1.0 / qcomp=0.80 / qpmin=5 / qpmax=51 / qpstep=4 / cplxblur=20.0 / qblur=0.5 / vbv_maxrate=62500 / vbv_bufsize=78125 / nal_hrd=none / ip_ratio=1.40 / pb_ratio=1.30 / aq=1:1.00 Язык : English Default : Нет Forced : НетАудио #1: Идентификатор : 2 Формат : DTS Формат/Информация : Digital Theater Systems Режим : 16 Параметр Endianness формата : Big Идентификатор кодека : A_DTS Продолжительность : 1 ч. 51 м. Вид битрейта : Постоянный Битрейт : 768 Кбит/сек Каналы : 6 каналов Расположение каналов : Front: L C R, Side: L R, LFE Частота : 48,0 КГц Битовая глубина : 24 бит Метод сжатия : С потерями Размер потока : 612 Мбайт (5%) Заголовок : DTS.768.Kbps (6ch) Russian Язык : Russian Default : Да Forced : НетАудио #2: Идентификатор : 3 Формат : DTS Формат/Информация : Digital Theater Systems Режим : 16 Параметр Endianness формата : Big Идентификатор кодека : A_DTS Продолжительность : 1 ч. 51 м. Вид битрейта : Постоянный Битрейт : 1509 Кбит/сек Каналы : 6 каналов Расположение каналов : Front: L C R, Side: L R, LFE Частота : 48,0 КГц Битовая глубина : 24 бит Метод сжатия : С потерями Размер потока : 1,17 Гбайт (10%) Заголовок : DTS.1509.Kbps (6ch) English Язык : English Default : Нет Forced : Нет 12,05 Gb 7 1 1 февраля 2016 07:36 Поймай толстуху, если сможешь / Identity Thief (2013) BDRemux | Theatrical Cut | Лицензия .torrent   [Информация о файле (нажмите для просмотра)] Качество: Blu-Ray Remux (1080p)Видео: MPEG-4 AVC, 28.9 Мбит/с, 1920x1080, 23.976 кадр/сАудио: Русский (DTS, 6 ch, 768 Кбит/с), английский (DTS-HD МА, 6 ch, 3611 Кбит/с)Перевод: Дублированный [лицензия] 25,75 Gb 2 1

gig-torrent.net

Поймай толстуху, если сможешь через торрент

Уникальный идентификатор : 178942776219787882757146635627157334321 (0x869F2006E76F7EADA4FE61E8DD152931)Полное имя : H:Поймай толстуху, если сможешь Identity Thief (2013) BDRip 720-1080pPojmaj.tolstuhu.esli.smozhesh(Teatralnaja.versija).2013.D.BDRip.1080p.NNM-CLUB.mkvФормат : MatroskaВерсия формата : Version 2Размер файла : 12,0 ГбайтПродолжительность : 1 ч. 51 м.Общий поток : 15,5 Мбит/секНазвание фильма : Pojmaj.tolstuhu.esli.smozhesh(Teatralnaja.versija).2013.D.BDRip.1080p.NNM-CLUB.GIUДата кодирования : UTC 2013-07-05 20:15:10Программа кодирования : mkvmerge v2.9.9 ('Tutu') built on Nov 25 2009 21:13:32Библиотека кодирования : libebml v0.7.9 + libmatroska v0.8.1

ВидеоИдентификатор : 1Формат : AVCФормат/Информация : Advanced Video CodecПрофиль формата : [email protected]Параметр CABAC формата : ДаПараметр ReFrames формата : 5 кадровИдентификатор кодека : V_MPEG4/ISO/AVCПродолжительность : 1 ч. 51 м.Битрейт : 13,2 Мбит/секШирина : 1920 пикселейВысота : 816 пикселейСоотношение сторон : 2,35:1Режим частоты кадров : ПостоянныйЧастота кадров : 23,976 кадра/секЦветовое пространство : YUVСубдискретизация насыщенности : 4:2:0Битовая глубина : 8 битТип развёртки : ПрогрессивнаяБит/(Пиксели*Кадры) : 0.351Размер потока : 10,0 Гбайт (83%)Заголовок : -=Rip by GIU=-Библиотека кодирования : x264 core 133 r2334 a3ac64bНастройки программы : cabac=1 / ref=5 / deblock=1:-3:-3 / analyse=0x3:0x3 / me=umh / subme=11 / psy=1 / psy_rd=1.00:0.00 / mixed_ref=0 / me_range=32 / chroma_me=1 / trellis=2 / 8x8dct=1 / cqm=0 / deadzone=21,11 / fast_pskip=1 / chroma_qp_offset=-2 / threads=12 / lookahead_threads=2 / sliced_threads=0 / nr=0 / decimate=1 / interlaced=0 / bluray_compat=0 / constrained_intra=0 / bframes=8 / b_pyramid=2 / b_adapt=2 / b_bias=0 / direct=3 / weightb=1 / open_gop=0 / weightp=1 / keyint=240 / keyint_min=23 / scenecut=40 / intra_refresh=0 / rc_lookahead=0 / rc=2pass / mbtree=0 / bitrate=13200 / ratetol=1.0 / qcomp=0.80 / qpmin=5 / qpmax=51 / qpstep=4 / cplxblur=20.0 / qblur=0.5 / vbv_maxrate=62500 / vbv_bufsize=78125 / nal_hrd=none / ip_ratio=1.40 / pb_ratio=1.30 / aq=1:1.00Язык : EnglishDefault : НетForced : Нет

Аудио #1Идентификатор : 2Формат : DTSФормат/Информация : Digital Theater SystemsРежим : 16Параметр Endianness формата : BigИдентификатор кодека : A_DTSПродолжительность : 1 ч. 51 м.Вид битрейта : ПостоянныйБитрейт : 768 Кбит/секКаналы : 6 каналовРасположение каналов : Front: L C R, Side: L R, LFEЧастота : 48,0 КГцБитовая глубина : 24 битМетод сжатия : С потерямиРазмер потока : 612 Мбайт (5%)Заголовок : DTS.768.Kbps (6ch) RussianЯзык : RussianDefault : ДаForced : Нет

Аудио #2Идентификатор : 3Формат : DTSФормат/Информация : Digital Theater SystemsРежим : 16Параметр Endianness формата : BigИдентификатор кодека : A_DTSПродолжительность : 1 ч. 51 м.Вид битрейта : ПостоянныйБитрейт : 1509 Кбит/секКаналы : 6 каналовРасположение каналов : Front: L C R, Side: L R, LFEЧастота : 48,0 КГцБитовая глубина : 24 битМетод сжатия : С потерямиРазмер потока : 1,17 Гбайт (10%)Заголовок : DTS.1509.Kbps (6ch) EnglishЯзык : EnglishDefault : НетForced : Нет

Текст #1Идентификатор : 4Формат : UTF-8Идентификатор кодека : S_TEXT/UTF8Идентификатор кодека/Информация : UTF-8 Plain TextЗаголовок : Russian (Full)Язык : RussianDefault : НетForced : Нет

Текст #2Идентификатор : 5Формат : UTF-8Идентификатор кодека : S_TEXT/UTF8Идентификатор кодека/Информация : UTF-8 Plain TextЗаголовок : Russian (Forced)Язык : RussianDefault : НетForced : Нет

Текст #3Идентификатор : 6Формат : UTF-8Идентификатор кодека : S_TEXT/UTF8Идентификатор кодека/Информация : UTF-8 Plain TextЗаголовок : English (SDH)Язык : EnglishDefault : НетForced : Нет

Текст #4Идентификатор : 7Формат : UTF-8Идентификатор кодека : S_TEXT/UTF8Идентификатор кодека/Информация : UTF-8 Plain TextЗаголовок : Spanish (Full)Язык : SpanishDefault : НетForced : Нет

Текст #5Идентификатор : 8Формат : UTF-8Идентификатор кодека : S_TEXT/UTF8Идентификатор кодека/Информация : UTF-8 Plain TextЗаголовок : Portuguese (Full - Brazilian)Язык : PortugueseDefault : НетForced : Нет

Меню00:00:00.000 : en:Chapter 0000:06:30.973 : en:Chapter 0100:11:12.672 : en:Chapter 0200:15:40.648 : en:Chapter 0300:24:00.188 : en:Chapter 0400:27:59.469 : en:Chapter 0500:34:22.685 : en:Chapter 0600:40:19.917 : en:Chapter 0700:44:22.534 : en:Chapter 0800:49:59.413 : en:Chapter 0900:54:34.813 : en:Chapter 1001:01:07.455 : en:Chapter 1101:05:34.013 : en:Chapter 1201:09:20.114 : en:Chapter 1301:14:46.773 : en:Chapter 1401:21:15.412 : en:Chapter 1501:28:15.999 : en:Chapter 1601:34:34.585 : en:Chapter 1701:40:49.835 : en:Chapter 1801:47:19.015 : en:Chapter 1

piratbit.ru

Поймай толстуху, если сможешь через торрент

Раздают: 1 [ 0 KB/s ]
Размер: 2.05 GB | Добавлен: 4 года 3 мес. назад | Торрент скачан:9276 раз
Реклама Дарим 3000 рублей за регистрацию, не упусти свой шанс получить шикарный бонус!!!

04-07-2013 16:41 Поймай толстуху, если сможешь Скачать торрент  

Поймай толстуху

если сможешь / Identity Thief

Год выпуска: 2013 Страна: США / Aggregate Films, DumbDumb, Stuber ProductionsЖанр: комедия, криминал,Продолжительность: 01:51:21Перевод: Дубляж, Лицензия

Режиссер: Сет Гордон

В ролях: Джейсон Бейтман, Мелисса МакКарти, Джон Фавро, Аманда Пит, Ти-Ай, Генезис Родригез, Моррис Честнат, Джон Чо, Роберт Патрик, Эрик Стоунстрит,

Описание: Клерк лишается своей «юридической» личности, потеряв вместе с документами и смысл дальнейшего существования в городе. Но злоумышленники не дремлют, они обнаружили и кредитные карточки, и наличность, и воспользовались паспортом, а нашему герою то и дело приходят счета о том, где он якобы побывал. Отели, дорогие рестораны, покупки… Но самое интересное, что чаще всего он приобретает одежду огромных женских размеров! После того, как бухгалтер из Денвера получает очередной счет о том, что он ел на завтрак лобстеров, он становится более решительным в своих действиях и отправляется на поиски вора. Его удивлению нету предела, когда воришкой размера ХХХL оказывается очень привлекательная женщина…

Качество: HDRipФормат: AVIВидео кодек: XviDАудио кодек: AC3Видео: 720x304 (2.37:1), 23.976 fps, XviD build 50 ~1856 kbps avg, 0.28 bit/pixelАудио#1: 48 kHz, AC3 Dolby Digital, 3/2 (L,C,R,l,r) + LFE ch, ~384 kbps (rus)

  • Аудио#2:48 kHz, AC3 Dolby Digital, 3/2 (L,C,R,l,r) + LFE ch, ~384 kbps (eng)
  • Скачать Поймай толстуху, если сможешь через торрент http://pic.pb.wtf/images/3/s5pbs56zw1.jpg Скачать фильм Поймай толстуху, если сможешь через торрент бесплантно в хорошем качестве Описание: Клерк лишается своей «юридической» личности, потеряв вместе с документами и смысл дальнейшего существования в городе. Но ... 2013-07-04 17:02 9.5 10 202

    Loading...

    Loading...

    Последний раз редактировалось: coc900 (2013-07-05 16:07), всего редактировалось 1 раз

    Рекламный пират

    04-07-2013 19:46 Поймай толстуху, если сможешь Скачать торрент  

    04-07-2013 20:22 Поймай толстуху, если сможешь Скачать торрент  

    Тех. данные указаны неверно. Битрейт 1854 kbps, а не 1481 kbps.Будьте внимательней

    04-07-2013 21:04 Поймай толстуху, если сможешь Скачать торрент  

    ДЕЛАЙТЕ ЗОЛОТУЮ СКОРОСТИ НЕТ))

    05-07-2013 02:34 Поймай толстуху, если сможешь Скачать торрент  

    потому что правильно чувствуешь - фильм авно!!!!

    05-07-2013 04:37 Поймай толстуху, если сможешь Скачать торрент  

    Заинтересовался фильмом, посмотрим)) Может даже удачная комедия будет...

    05-07-2013 05:05 Поймай толстуху, если сможешь Скачать торрент  

    глядя на вас мне смешно.. не попробовав уже судят ахаха

    05-07-2013 11:28 Поймай толстуху, если сможешь Скачать торрент  

    Трейлер смешной,КАЧАЮ :good2:

    05-07-2013 19:19 Поймай толстуху, если сможешь Скачать торрент  

    ТаможеНик писал(а):

    потому что правильно чувствуешь - фильм авно!!!! Фильм просто супер!!!! КАЧАЙТЕ не пожелеете... ( для семейного просмотра, для просмотра с девушкой , просто для поднятия настроения! )ставлю : 10 из 10

    Pекламный агент PB

    05-07-2013 19:33 Поймай толстуху, если сможешь Скачать торрент  

    Фильм норм)) Поржал)))

    05-07-2013 19:59 Поймай толстуху, если сможешь Скачать торрент  

    Кредитки ЗЛО!!!Пользуйтесь налом, сберегайте в золотых или серебряных инвестиционных монетах.Совсем недавно в США принят закон о налогообложении операций в национальной валюте за рубежом. Будьте бдительны при открытие счета в долларах не важно в какой стране по приезду в США вас вполне могут арестовать за неуплату налогов в Американскую казну.

    06-07-2013 07:13 Поймай толстуху, если сможешь Скачать торрент  

    svift83 писал(а):

    ТаможеНик писал(а):

    потому что правильно чувствуешь - фильм авно!!!! АВНО - это ты!!!!!!!!!!!!!! Фильм просто супер!!!! КАЧАЙТЕ не пожелеете... ( для семейного просмотра, для просмотра с девушкой , просто для поднятия настроения! )ставлю : 10 из 10нет, авто это ты!!! и фильм тоже авно!!! в этом я уверен!!если тебе по нутру это дешевая ширпотребщина и юмор на уровне затасканного дебилизма!!! поэтому моя оценка этому фильму - авняшка!!! если же ты полагаешь, что это фильм веселит твой авняшный мозг, значит, па-бам!!!! ты что развиваешься, только не подумай что в строну прогресса, нет, к сожалению. поверь, мне тебя искренне жаль, бедолагаю

    06-07-2013 08:06 Поймай толстуху, если сможешь Скачать торрент  

    хрень! зря скачал.

    06-07-2013 08:56 Поймай толстуху, если сможешь Скачать торрент  

    народ встаньте на раздачу

    06-07-2013 12:01 Поймай толстуху, если сможешь Скачать торрент  

    по отзывам фильм-супер,посмотрел-что то не очень,пару смеш-моментов было и все :cansored: короче шлаккк

    06-07-2013 15:23 Поймай толстуху, если сможешь Скачать торрент  

    Давно я так не смеялся). Зачётный фильм.

    06-07-2013 19:22 Поймай толстуху, если сможешь Скачать торрент  

    ТаможеНик писал(а):

    svift83 писал(а):

    ТаможеНик писал(а):

    потому что правильно чувствуешь - фильм авно!!!! АВНО - это ты!!!!!!!!!!!!!! Фильм просто супер!!!! КАЧАЙТЕ не пожелеете... ( для семейного просмотра, для просмотра с девушкой , просто для поднятия настроения! )ставлю : 10 из 10нет, авто это ты!!! и фильм тоже авно!!! в этом я уверен!!если тебе по нутру это дешевая ширпотребщина и юмор на уровне затасканного дебилизма!!! поэтому моя оценка этому фильму - авняшка!!! если же ты полагаешь, что это фильм веселит твой авняшный мозг, значит, па-бам!!!! ты что развиваешься, только не подумай что в строну прогресса, нет, к сожалению. поверь, мне тебя искренне жаль, бедолагаю Ууууу, вот это наезд Авно не авно, но думаю из-за какого то фильма не стоит опускать друг друга ниже плинтуса

    Pекламный агент PB

    06-07-2013 19:25 Поймай толстуху, если сможешь Скачать торрент  

    К стати фильм вполне интересный, не шедевр, но всё же интересный. Коммедии тут конечно мало, но и драмой тут не пахнет. Легко перевариваемая картина так сказть....

    07-07-2013 06:44 Поймай толстуху, если сможешь Скачать торрент  

    Так фильму же сто лет в обед, вы чего, никто не видел?Фильм мне с женой не пошёл, так, на один разок с натяжкой.

    07-07-2013 13:39 Поймай толстуху, если сможешь Скачать торрент  

    Никого не слушайте!Фильм класс! :good:

    07-07-2013 16:50 Поймай толстуху, если сможешь Скачать торрент  

    Героиня сериала Майк и Молли пошла в гору. Уже следующий фильм с ней "Копы в юбках / The Heat" в прокате идет.Хорошее кино на вечер пятницы с девушкой. Обаяние МакКарти как всегда на высоте. Спасибо за раздачу!

    08-07-2013 14:19 Поймай толстуху, если сможешь Скачать торрент  

    Последний раз редактировалось: mak9824- (2013-07-08 14:59), всего редактировалось 1 раз

    08-07-2013 14:19 Поймай толстуху, если сможешь Скачать торрент  

    Последний раз редактировалось: mak9824- (2013-07-08 14:59), всего редактировалось 1 раз

    08-07-2013 14:19 Поймай толстуху, если сможешь Скачать торрент  

    Последний раз редактировалось: mak9824- (2013-07-08 14:59), всего редактировалось 1 раз

    08-07-2013 14:20 Поймай толстуху, если сможешь Скачать торрент  

    Butuz писал(а):

    ДЕЛАЙТЕ ЗОЛОТУЮ СКОРОСТИ НЕТ))

    Ты идиот,золотая или нет на скорость не влияет,и поддать те никто не может

    Pекламный агент PB

    Дорогой пользователь! Огромная просьба, поблагодарите релизера, оцените раздачу и оставьте свои комментарий, если Вы скачали Поймай толстуху, если сможешь через торрент бесплатно! Внесите свою лепту в развитие PiratBit!

    Комментировать посты могут только пользователи прошедшие не сложную регистрацию

    Поймай толстуху, если сможешь через торрент Скачать бесплатно Поймай толстуху, если сможешь Поймай толстуху, если сможешь скачать торрент Поймай толстуху, если сможешь смотреть онлайн Cкачать фильм Поймай толстуху, если сможешь бесплатно Поймай толстуху, если сможешь скачать торрент в хорошем качестве Поймай толстуху, если сможешь смотреть онлайн бесплатно в хорошем качестве

    Вы не можете начинать темыВы не можете отвечать на сообщенияВы не можете редактировать свои сообщенияВы не можете удалять свои сообщенияВы не можете голосовать в опросахВы не можете прикреплять файлы к сообщениямВы можете скачивать файлы

    piratbit.ru

    Поймай толстуху, если сможешь через торрент

    Размер: 1.45 GB | Добавлен: 4 года 3 мес. назад | Торрент скачан:762 раза
    Реклама Дарим 3000 рублей за регистрацию, не упусти свой шанс получить шикарный бонус!!!

    06-07-2013 22:57 Поймай толстуху, если сможешь Скачать торрент  

    Поймай толстуху

    если сможешь / Identity Thief

  • Год выпуска: 2013
  • Страна: США
  • Жанр: комедия, криминал
  • Продолжительность: 01:51:21
  • Перевод: Дубляж, Лицензия
  • Субтитры: Русские, Английские (отключаемые)
  • Режиссер: Сет Гордон
  • Продюссер: Памела Эбди, Джейсон Бейтман, Скотт Стубер
  • Сценарий: Крэйг Мазин, Джерри Итен
  • Бюджет: $35 000 000
  • Премьера в мире: 7 февраля 2013
  • В ролях: Джейсон Бейтман, Мелисса МакКарти, Аманда Пит, Роберт Патрик, Генезис Родригез, Ти-Ай, Джон Фавро, Моррис Честнат, Джон Чо, Эрик Стоунстрит
  • Описание: История о человеке, у которого украли документы, удостоверяющие его личность, и к чему это привело.
  • Качество: BDRip-AVC
  • Формат: MKV
  • Видео кодек: H.264
  • Аудио кодек: AC3
  • Видео: 1024x432 (2,40:1), 23,976 fps, 1482 kbps, 0.140 bit/pixel
  • Аудио#1: 48 kHz, AC3 Dolby Digital, 6 ch, ~384.00 kbps

    D:Identity Thief.2013.BDRip-AVC.mkvGeneralUnique ID : 240595198085652619060450401185241366668 (0xB500F31C0F0F2A32B73A60E4F90A008C)Complete name : D:Identity Thief.2013.BDRip-AVC.mkvFormat : MatroskaFormat version : Version 4 / Version 2File size : 1.45 GiBDuration : 1h 51mnOverall bit rate : 1 867 KbpsMovie name : Поймай толстуху, если сможешь / Identity Thief (2013) BDRip-AVC Encoded date : UTC 2013-07-06 05:26:06Writing application : mkvmerge v6.2.0 ('Promised Land') built on Apr 28 2013 12:22:01Writing library : libebml v1.3.0 + libmatroska v1.4.0Video #1ID : 1Format : AVCFormat/Info : Advanced Video CodecFormat profile : [email protected] settings, CABAC : YesFormat settings, ReFrames : 10 framesCodec ID : V_MPEG4/ISO/AVCDuration : 1h 51mnBit rate : 1 482 KbpsWidth : 1 024 pixelsHeight : 432 pixelsDisplay aspect ratio : 2.40:1Frame rate : 23.976 fpsColor space : YUVChroma subsampling : 4:2:0Bit depth : 8 bitsScan type : ProgressiveBits/(Pixel*Frame) : 0.140Stream size : 1.12 GiB (77%)Writing library : x264 core 133 r2334 a3ac64bEncoding settings : cabac=1 / ref=10 / deblock=1:-2:-1 / analyse=0x3:0x113 / me=umh / subme=10 / psy=1 / psy_rd=1.22:0.06 / mixed_ref=1 / me_range=32 / chroma_me=1 / trellis=2 / 8x8dct=1 / cqm=0 / deadzone=21,11 / fast_pskip=0 / chroma_qp_offset=-3 / threads=6 / lookahead_threads=1 / sliced_threads=0 / nr=0 / decimate=1 / interlaced=0 / bluray_compat=0 / constrained_intra=0 / bframes=8 / b_pyramid=2 / b_adapt=1 / b_bias=0 / direct=3 / weightb=1 / open_gop=0 / weightp=2 / keyint=240 / keyint_min=23 / scenecut=40 / intra_refresh=0 / rc_lookahead=40 / rc=2pass / mbtree=1 / bitrate=1482 / ratetol=1.0 / qcomp=0.60 / qpmin=0 / qpmax=69 / qpstep=4 / cplxblur=20.0 / qblur=0.5 / vbv_maxrate=62500 / vbv_bufsize=78125 / nal_hrd=none / ip_ratio=1.40 / aq=1:1.00Default : YesForced : NoAudio #2ID : 2Format : AC-3Format/Info : Audio Coding 3Mode extension : CM (complete main)Format settings, Endianness : BigCodec ID : A_AC3Duration : 1h 51mnBit rate mode : ConstantBit rate : 384 KbpsChannel(s) : 6 channelsChannel positions : Front: L C R, Side: L R, LFESampling rate : 48.0 KHzBit depth : 16 bitsCompression mode : LossyStream size : 306 MiB (21%)Title : ДублированныйLanguage : RussianDefault : YesForced : NoText #3ID : 3Format : UTF-8Codec ID : S_TEXT/UTF8Codec ID/Info : UTF-8 Plain TextLanguage : RussianDefault : YesForced : NoText #4ID : 4Format : UTF-8Codec ID : S_TEXT/UTF8Codec ID/Info : UTF-8 Plain TextLanguage : EnglishDefault : NoForced : No

    Поймай толстуху, если сможешь скачать торрент

  • Скачать Поймай толстуху, если сможешь через торрент http://pic.pb.wtf/images/3/wxpzma4ose.png Скачать фильм Поймай толстуху, если сможешь через торрент бесплантно в хорошем качестве Описание: История о человеке, у которого украли документы, удостоверяющие его личность, и к чему это ... 2013-07-06 22:57 9.8 10 19

    Loading...

    Loading...

    % Раздел Тема Автор DL S | L
    Фильмы с авторской озвучкой [ 2.91 GB ] Поймай толстуху если сможешь / Identity Thief [2013 BDRip-AVC] [Расширенная версия] AVO potroks Скачать
    Фильмы [HD 720p, 1080p] (Хороший звук DUB, MVO) [ 12.05 GB ] Поймай толстуху если сможешь / Identity Thief [2013 BDRip 1080p лицензия] Ворон Скачать
    Фильмы (DVD фильмы) [ 7.17 GB ] Поймай толстуху если сможешь / Identity Thief [2013 DVD9] R5 voovaz Скачать
    Фильмы [HD 720p, 1080p] (Хороший звук DUB, MVO) [ 5.82 GB ] Поймай толстуху если сможешь / Identity Thief [2013 BDRip 720p лицензия] [email protected] Скачать
    Фильмы 2013 [DVDrip, WEB-DLRip, HDrip] [ 2.05 GB ] Поймай толстуху если сможешь / Identity Thief [2013 HDRip лицензия]2.05GB coc900 Скачать
    Фильмы 2013 [DVDrip, WEB-DLRip, HDrip] [ 1.46 GB ] Поймай толстуху если сможешь / Identity Thief [2013 HDRip лицензия] Seedtank Скачать
    Фильмы (Blu-ray, BD-Remux, HDDVD) [ 37.87 GB ] Поймай толстуху если сможешь / Identity Thief [2013 Blu-ray CEE лицензия] Pavlin Скачать

    Рекламный пират

    Дорогой пользователь! Огромная просьба, поблагодарите релизера, оцените раздачу и оставьте свои комментарий, если Вы скачали Поймай толстуху, если сможешь через торрент бесплатно! Внесите свою лепту в развитие PiratBit!

    Комментировать посты могут только пользователи прошедшие не сложную регистрацию

    Поймай толстуху, если сможешь через торрент Скачать бесплатно Поймай толстуху, если сможешь Поймай толстуху, если сможешь скачать торрент Поймай толстуху, если сможешь смотреть онлайн Cкачать фильм Поймай толстуху, если сможешь бесплатно Поймай толстуху, если сможешь скачать торрент в хорошем качестве Поймай толстуху, если сможешь смотреть онлайн бесплатно в хорошем качестве

    Вы не можете начинать темыВы не можете отвечать на сообщенияВы не можете редактировать свои сообщенияВы не можете удалять свои сообщенияВы не можете голосовать в опросахВы не можете прикреплять файлы к сообщениямВы можете скачивать файлы

    piratbit.ru

    Поймай толстуху, если сможешь через торрент

    Размер: 1.46 GB | Добавлен: 4 года 3 мес. назад | Торрент скачан:2912 раз
    Реклама Дарим 3000 рублей за регистрацию, не упусти свой шанс получить шикарный бонус!!!

    04-07-2013 16:16 Поймай толстуху, если сможешь Скачать торрент  

    Поймай толстуху, если сможешь / Identity Thief«Is this the face of a thief?» Год выпуска: 2013Страна: СШАЖанр: комедия, криминалПродолжительность: 01:51:27Перевод: Дублированный [лицензия]Режиссер:В ролях:
    • Джейсон Бейтман, Мелисса МакКарти, Джон Фавро, Аманда Пит, Ти-Ай, Генезис Родригез, Моррис Честнат, Джон Чо, Роберт Патрик, Эрик Стоунстрит
    Описание: Клерк лишается своей «юридической» личности, потеряв вместе с документами и смысл дальнейшего существования в городе. Но злоумышленники не дремлют, они обнаружили и кредитные карточки, и наличность, и воспользовались паспортом, а нашему герою то и дело приходят счета о том, где он якобы побывал. Отели, дорогие рестораны, покупки… Но самое интересное, что чаще всего он приобретает одежду огромных женских размеров! После того, как бухгалтер из Денвера получает очередной счет о том, что он ел на завтрак лобстеров, он становится более решительным в своих действиях и отправляется на поиски вора. Его удивлению нету предела, когда воришкой размера ХХХL оказывается очень привлекательная женщина… Качество: HDRipФормат: AVIВидео кодек: XviDАудио кодек: AC3Видео: 720x304 (2.37:1), 23.976 fps, XviD build 50 ~1481 kbps avg, 0.28 bit/pixelАудио: 48 kHz, AC3 Dolby Digital, 3/2 (L,C,R,l,r) + LFE ch, ~384 kbps [ [/url]          Скачать Поймай толстуху, если сможешь через торрент http://i47.fastpic.ru/big/2013/0704/0d/4097eadef1283c614dc9a4f8977fc10d.jpg Скачать фильм Поймай толстуху, если сможешь через торрент бесплантно в хорошем качестве Описание: Клерк лишается своей «юридической» личности, потеряв вместе с документами и смысл дальнейшего существования в городе. Но ... 2013-07-04 16:16 9.7 10 60

    Loading...

    Loading...

    % Раздел Тема Автор DL S | L
    Фильмы с авторской озвучкой [ 2.91 GB ] Поймай толстуху если сможешь / Identity Thief [2013 BDRip-AVC] [Расширенная версия] AVO potroks Скачать
    Фильмы [HD 720p, 1080p] (Хороший звук DUB, MVO) [ 12.05 GB ] Поймай толстуху если сможешь / Identity Thief [2013 BDRip 1080p лицензия] Ворон Скачать
    Фильмы (DVD фильмы) [ 7.17 GB ] Поймай толстуху если сможешь / Identity Thief [2013 DVD9] R5 voovaz Скачать
    Фильмы [HD 720p, 1080p] (Хороший звук DUB, MVO) [ 5.82 GB ] Поймай толстуху если сможешь / Identity Thief [2013 BDRip 720p лицензия] [email protected] Скачать
    Фильмы 2013 [DVDrip, WEB-DLRip, HDrip] [ 2.05 GB ] Поймай толстуху если сможешь / Identity Thief [2013 HDRip лицензия]2.05GB coc900 Скачать
    Фильмы 2013 [DVDrip, WEB-DLRip, HDrip] [ 1.45 GB ] Поймай толстуху если сможешь / Identity Thief [2013 BDRip-AVC лицензия] МАКС1 Скачать
    Фильмы (Blu-ray, BD-Remux, HDDVD) [ 37.87 GB ] Поймай толстуху если сможешь / Identity Thief [2013 Blu-ray CEE лицензия] Pavlin Скачать

    Рекламный пират

    04-07-2013 16:50 Поймай толстуху, если сможешь Скачать торрент  

    Офигенный фильм!

    04-07-2013 16:59 Поймай толстуху, если сможешь Скачать торрент  

    04-07-2013 19:11 Поймай толстуху, если сможешь Скачать торрент  

    Говорят прикольный фильм)

    04-07-2013 19:21 Поймай толстуху, если сможешь Скачать торрент  

    Глянем, надеюсь не зря.

    06-07-2013 19:45 Поймай толстуху, если сможешь Скачать торрент  

    Спасибо за раздачу!! :girl_dance: Фильм отличный!!! Рекомендую всем!!

    07-07-2013 17:45 Поймай толстуху, если сможешь Скачать торрент  

    посмотрим спс

    Дорогой пользователь! Огромная просьба, поблагодарите релизера, оцените раздачу и оставьте свои комментарий, если Вы скачали Поймай толстуху, если сможешь через торрент бесплатно! Внесите свою лепту в развитие PiratBit!

    Комментировать посты могут только пользователи прошедшие не сложную регистрацию

    Поймай толстуху, если сможешь через торрент Скачать бесплатно Поймай толстуху, если сможешь Поймай толстуху, если сможешь скачать торрент Поймай толстуху, если сможешь смотреть онлайн Cкачать фильм Поймай толстуху, если сможешь бесплатно Поймай толстуху, если сможешь скачать торрент в хорошем качестве Поймай толстуху, если сможешь смотреть онлайн бесплатно в хорошем качестве

    Вы не можете начинать темыВы не можете отвечать на сообщенияВы не можете редактировать свои сообщенияВы не можете удалять свои сообщенияВы не можете голосовать в опросахВы не можете прикреплять файлы к сообщениямВы можете скачивать файлы

    piratbit.ru


    Смотрите также