Скачать фильм покровские ворота через торрент в хорошем качестве


rutor.org :: Покровские ворота (1982) BDRip ::: Скачать торрент

Информация о фильмеНазвание: Покровские воротаГод выхода: 1982Жанр: Драма, мелодрама, комедияРежиссёр: Михаил КозаковВ ролях: Олег Меньшиков, Леонид Броневой, Инна Ульянова, Софья Пилявская, Анатолий Равикович, Виктор Борцов, Елена Коренева, Татьяна Догилева, Елизавета Никищихина, Игорь Дмитриев, Евгений Моргунов, Наталья Крачковская, Валентина Воилкова, Эммануил Геллер, Михаил Козаков, Алексей Коняшин, Леонид Машков, Владимир Пицек

О фильме: Если вы развелись, и ваша бывшая жена снова вышла замуж - это еще не значит, что вы свободны. Если вы пригласили девушку на свидание, и она пришла, это еще не значит, что она будет вашей. Но если при этом ваш сосед по коммуналке - студент Костик, то можете быть уверены - все будет хорошо...

Страна: СССРСтудия: МосфильмПродолжительность: 02:19:43Перевод: Не требуется (оригинальный)

ФайлФормат: aviКачество: BDRip (Blu-ray)Видео: XviD, 640х464, 23.976fps, 1355kbpsАудио: MPEG Layer 3, 2ch, 48000Hz, 128kbps

MediaInfo

General Complete name : Pokrovskie.Vorota.1982.O.BDRip.1400.CurHaJI.avi Format : AVI Format/Info : Audio Video Interleave File size : 1.46 GiB Duration : 2h 19mn Overall bit rate : 1 493 Kbps Movie name : Pokrovskie.Vorota.1982.O.BDRip.1400.CurHaJI Writing application : Lavf53.13.0 Writing library : VirtualDub build 35491/release

Video ID : 0 Format : MPEG-4 Visual Format profile : Advanced [email protected] Format settings, BVOP : 2 Format settings, QPel : No Format settings, GMC : No warppoints Format settings, Matrix : Custom Codec ID : XVID Codec ID/Hint : XviD Duration : 2h 19mn Bit rate : 1 355 Kbps Width : 640 pixels Height : 464 pixels Display aspect ratio : 1.379 Frame rate : 23.976 fps Color space : YUV Chroma subsampling : 4:2:0 Bit depth : 8 bits Scan type : Progressive Compression mode : Lossy Bits/(Pixel*Frame) : 0.190 Stream size : 1.32 GiB (91%) Writing library : XviD 64

Audio ID : 1 Format : MPEG Audio Format version : Version 1 Format profile : Layer 3 Codec ID : 55 Codec ID/Hint : MP3 Duration : 2h 19mn Bit rate mode : Constant Bit rate : 128 Kbps Channel(s) : 2 channels Sampling rate : 48.0 KHz Compression mode : Lossy Delay relative to video : 8ms Stream size : 128 MiB (9%) Alignment : Split accross interleaves Interleave, duration : 42 ms (1.00 video frame) Interleave, preload duration : 500 ms Writing library : LAME3.99.1

Релиз от:

main-rutor.org

Покровские ворота 1982 - скачать бесплатно через торрент в хорошем качестве. Без регистрации

Название: Покровские ворота (1982) BDRip
Качество видео: BDRip (Blu-ray)
Перевод: Не требуется (оригинальный)
Формат видео: avi
Видео: XviD, 640х464, 23.976fps, 1355kbps
Аудио: MPEG Layer 3, 2ch, 48000Hz, 128kbps
Скачать

Загрузка начнется в течение 5 сек.

1.46 GB

Название: Покровские ворота (2 серии из 2) (1982) BDRip от MediaClub | КПК
Качество видео: BDRip
Видео: MPEG-4 AVC, 500 Кбит/с, 480x350, 23.976 кадр/с
Аудио: Русский (AAC, 2 ch, 128 Кбит/с)
Скачать

Загрузка начнется в течение 5 сек.

630.39 MB

Название: Покровские ворота (1982) BDRip 720p от leonardo 59 & Scarabey
Качество видео: BDRip 720p Исходник: Blu-ray
Перевод: не требуется
Формат видео: MKV Видео кодек: MPEG-4 AVC Аудио кодек: AC3
Видео: AVC, 992x720 (1.378) at 23.976 fps, AVC at 5112 kbps avg, 0.292 bit/pixel
Аудио: 48 kHz, AC3 Dolby Digital, 3/2 (L,C,R,l,r) + LFE ch, 448.00 kbps - Russian
Скачать

Загрузка начнется в течение 5 сек.

5.43 GB

Название: Покровские ворота (1982) DVDRip-AVC от R.G.MEGA.BEST
Качество видео: DVDRip-AVC
Перевод: Оригинал
Видео: h.264 h.264, 720x536, 2143 Кб/с
Аудио: ААс, 6 ch, 384 Кб/с
Скачать

Загрузка начнется в течение 5 сек.

2.31 GB

www.kinovit.net

Скачать фильм Покровские ворота через торрент в хорошем качестве бесплатно DVDRip

Размер: 2.05 GB | Добавлен: 6 лет 5 мес. назад | Торрент скачан:337 раз
Реклама Дарим 3000 рублей за регистрацию, не упусти свой шанс получить шикарный бонус!!!

24-04-2011 09:46 Покровские ворота Скачать торрент  

Покровские ворота / Pokrovskiye vorota

Год выпуска: 1982Страна: СССРЖанр: мюзикл, драма, мелодрама, комедияПродолжительность: 140 мин.

Режиссер: Михаил КозаковСценарий: Леонид Зорин

Мировой рейтинг IMDB 8.50 (782)

В ролях: Олег Меньшиков, Софья Пилявская, Леонид Броневой, Инна Ульянова, Анатолий Равикович, Виктор Борцов, Елена Коренева, Татьяна Догилева, Елизавета Никищихина, Игорь Дмитри

Описание: Если вы развелись, и ваша бывшая жена снова вышла замуж — это еще не значит, что вы свободны. Если вы пригласили девушку на свидание, и она пришла, это еще не значит, что она будет вашей. Но если при этом ваш сосед по коммуналке — студент Костик, то можете быть уверены — все будет хорошо.

Качество: DVDRipФормат: AVIВидео кодек: XviDАудио кодек: AC3Видео: 720x544 (1.32:1), 25 fps, XviD build 47 ~1846 kbps avg, 0.19 bit/pixelАудио: 48 kHz, AC3 Dolby Digital, 3/2 (L,C,R,l,r) + LFE ch, ~384.00 kbps avgРелиз от: NNM-Club

Скачать Покровские ворота через торрент http://i20.fastpic.ru/big/2011/0424/f2/9cc42a6b01ae3f6db096e23e089ac6f2.jpg Скачать фильм Покровские ворота через торрент бесплантно в хорошем качестве Описание: Если вы развелись, и ваша бывшая жена снова вышла замуж — это еще не значит, что вы свободны. Если вы пригласили девушку ... 2011-05-13 09:51 9.4 10 5

Loading...

Loading...

Рекламный пират

Дорогой пользователь! Огромная просьба, поблагодарите релизера, оцените раздачу и оставьте свои комментарий, если Вы скачали Покровские ворота через торрент бесплатно! Внесите свою лепту в развитие PiratBit!

Комментировать посты могут только пользователи прошедшие не сложную регистрацию

Покровские ворота через торрент Скачать бесплатно Покровские ворота Покровские ворота скачать торрент Покровские ворота смотреть онлайн Cкачать фильм Покровские ворота бесплатно Покровские ворота скачать торрент в хорошем качестве Покровские ворота смотреть онлайн бесплатно в хорошем качестве

Вы не можете начинать темыВы не можете отвечать на сообщенияВы не можете редактировать свои сообщенияВы не можете удалять свои сообщенияВы не можете голосовать в опросахВы не можете прикреплять файлы к сообщениямВы можете скачивать файлы

piratbit.ru

Покровские ворота торрент скачать | Скачать торренты в BDRip и HDRip качестве

Покровские ворота (Михаил Козаков) [1982, комедия, DVDRip]1.45 GBПокровские ворота (2 серии из 2) / 1982 / РУ / BDRip / 2.18 ГБ2.18 GBПокровские ворота (2 серии из 2) / 1982 / РУ / DVDRip / 2.05 ГБ2.05 GBПокровские ворота (Михаил Козаков) [1982, комедия, BDRip-AVC]2.88 GBПокровские ворота (1982) BDRip1.46 GBПокровские ворота (2 серии) (Михаил Козаков) [1982 г., мюзикл, драма, мелодрама, комедия, BDRip 720p]6.67 GBПокровские ворота (1982) BDRip 720p от Leonardo and Scarabey | Лицензия5.43 GBПокровские ворота (Михаил Козаков) [1982, СССР, мюзикл, драма, мелодрама, комедия, BDRip 720p]6.67 GBПокровские ворота (Михаил Козаков) [1982, СССР, Комедия, BDRip 1080p]12.97 GBПокровские ворота (1982) [H.264] BDRip2.26 GBПокровские ворота (1982) DVDRip (Реставрация КП)2.19 GBПокровские ворота (2 серии) (Михаил Козаков) [1982 г., мюзикл, драма, мелодрама, комедия, BDRip-AVC]2.88 GBПокровские ворота (Михаил Козаков) [1982, комедия, мюзикл, HDRip-AVC]2.15 GBПокровские ворота (Михаил Козаков) [1982 г., мюзикл, драма, мелодрама, комедия, BDRip 1080p]12.97 GBПокровские ворота (1982) BDRip [720p]7.46 GBПокровские ворота (Михаил Козаков) [1982, лирическая ретро-комедия, BDRip]2.79 GBПокровские ворота (2 серии из 2) / 1982 / РУ / BDRip (1080p) / 8.74 ГБ8.74 GBПокровские ворота (1982) BDRip от HQCLUB2.18 GBПокровские ворота (Михаил Козаков) [1982, СССР, комедия, Blu-ray disc 1080p]29.84 GBПокровские ворота (2 серии из 2) / 1982 / РУ / HEVC / BDRip (1080p) / 5.31 ГБ5.31 GBРождение легенды (Ирония судьбы, Служебный роман, Покровские ворота... всего 6) [документальный]2.18 GBЦикл "Неизвестная версия" СТБ: Покровские ворота (Алексей Гладушевский) [2009, Документальный фильм, DVB] Полностью на русском языке. (Телеканал R1) фильм о фильме957.7 MBПокровские ворота (Михаил Козаков) [1982, Лирическая комедия, DVD9] ("Крупный план", полная реставрация)7.68 GBПокровские ворота (1982) BDRip [1080p] [hand made 60fps]25 GBПокровские ворота (2 серии из 2) / 1982 / РУ / BDRip (AVC) / 2.98 ГБ2.98 GBПокровские ворота (2 серии из 2) (1982) BDRip от MediaClub | КПК630.39 MBПокровские ворота (2 серии из 2) / 1982 / РУ / BDRip (1080p) / 12.97 ГБ12.97 GBТайны советского кино. Покровские ворота (Максим Володин) [2012, Документальный цикл, познавательный, DVB]690.3 MBПокровские ворота (1982) BDRemux [1080p]23.1 GBПокровские ворота (2 серии из 2) / 1982 / РУ / Blu-Ray (1080p) / 29.84 ГБ29.84 GBПокровские ворота (1982) BDRip 1080p от HDClub12.97 GBТайны кино (Покровские ворота) / 2017 / РУ / WEBRip / 579 МБ579 MBПокровские ворота (1982) DVDRip2.19 GBПокровские ворота (1982) DVDRip2.19 GBТайны советского кино. "Покровские ворота" (2012) SATRip690 MBПокровские ворота (2 серии из 2) / 1982 / РУ / BDRip (720p) / 9.08 ГБ9.08 GBПокровские ворота (1982) Blu-ray 1080p от HDClub29.84 GBПокровские ворота (2 серии из 2) / 1982 / РУ / BDRip (720p) / 7.2 ГБ7.2 GB[iPad] Покровские ворота (Михаил Козаков) [1982, СССР, Комедия, мелодрама, драма, мюзикл, BDRip, 576p] + Original2.27 GBПокровские ворота (2 серии из 2) / 1982 / РУ / Blu-Ray Remux (1080p) / 23.13 ГБ23.13 GBПокровские ворота (Михаил Козаков) [1982, лирическая комедия, BDRip]2.18 GBПокровские ворота (2 серии из 2) / 1982 / РУ / DVD-9 / 7.68 ГБ7.68 GBПокровские ворота (Михаил Козаков) [1982, Лирическая комедия, DVD9]7.87 GBПокровские ворота (2 серии) (1982) BDRip [1080p] ATV15.1 GBПокровские ворота (Михаил Козаков) [1982, Комедия, DVD5 (сжатый)]4.2 GBПестрая лента. Дети Покровских ворот (Мария Визитей) [2002, Документальный, TVRip]618.8 MBПокровские ворота / Покровские ворота (Михаил Козаков) [1982, Комедия, DVDRip]277.4 MBРождение легенды: Ирония судьбы, Служебный роман, Покровские ворота, Москва слезам не верит, Мимино, Иван Васильевич меняет профессию (2006) SATRip2.18 GBТайны нашего кино (Покровские ворота) / 2012 / РУ / IPTVRip / 370 МБ370 MBПокровские ворота (1982) BDRip-AVC от MediaClub2.98 GB tparser.org – торрент поисковик по популярным торрент трекерам. Находить и скачивать новинки кино в HDRip и BDRip качестве через tparser намного проще! Добро пожаловать на крупный торрент архив фильмов и игр tparser.org. Вам больше не придется искать торренты на основных торрент трекерах в поисках нужной раздачи – мы предлагаем найти и скачать фильмы в хорошем качестве прямо на нашем сайте. Наш сервис поиска торрентов в реальном времени собирает информацию с крупных торрент трекеров и сортирует полученные результаты в удобную таблицу. Скачивайте торренты без ограничений и без всяких регистраций на трекерах. Начните скачивать торрент Покровские ворота прямо сейчас!

tparser.org

Скачать фильм Покровские ворота через торрент в хорошем качестве бесплатно 720p

Размер: 6.67 GB | Добавлен: 1 год 2 мес. назад | Торрент скачан:32 раза
Реклама Дарим 3000 рублей за регистрацию, не упусти свой шанс получить шикарный бонус!!!

26-07-2016 17:09 Покровские ворота Скачать торрент  

Покровские ворота Год выпуска: 1982Страна: СССРЖанры: мюзикл, драма, мелодрама, комедияПродолжительность: 02:19:43Cубтитры: нетНавигация по главам: нетРежиссер: Михаил КозаковСценарий: Леонид ЗоринВ ролях: Олег Меньшиков, Леонид Броневой, Инна Ульянова, Софья Пилявская, Анатолий Равикович, Виктор Борцов, Елена Коренева, Татьяна Догилева, Елизавета Никищихина, Игорь ДмитриевОписание: Если вы развелись, и ваша бывшая жена снова вышла замуж - это еще не значит, что вы свободны. Если вы пригласили девушку на свидание, и она пришла, это еще не значит, что она будет вашей. Но если при этом ваш сосед по коммуналке - студент Костик, то можете быть уверены - все будет хорошо.Доп. информация: Полная реставрация изображения и звука. Исходные киноматериалы подготовлены Госфильмофондом России. Покадровая цифровая реставрация изображения, ремастеринг звука и авторинг проведены объединением «Крупный план».Релиз от Качество: BDRip (manofgod)

Формат: MKV

Видео кодек: x264Аудио кодек: DTS, FLAC

Видео 1: ~ 4 575 Kbps, 986x720, 23.976 fpsВидео 2: ~ 4 575 Kbps, 986x720, 23.976 fps

Аудио 1: Russian - DTS, ~1 509 Kbps, 48KHz, 6chАудио 2: Russian - FLAC, ~747 Kbps, 48KHz, 1ch

Эммануил Геллер сыграл в фильме дедушку Савельича, при том, что у самого Геллера отчество тоже было «Савельевич»..Этот фильм, вообще мог не появиться. Дело в том, что Козаков неоднократно отказывался от роли Дзержинского в фильме «Государственная граница» (куда, кстати сказать, его утверждали без кинопроб). Руководство Госкино поставило Козакова перед выбором: либо он соглашается на роль Дзержинского, либо ему не позволят снимать Покровские ворота.Перед сдачей фильма в прокат, у Козакова так же появилась большая проблема: почти сразу же после окончания производства фильма, актриса Елена Коренева (исполнившая роль Людочки) эмигрировала за рубеж. Естественно, этот факт бросил тень на всю съемочную группу. По словам Козакова, он сделал так, что на закрытом просмотре худсоветом «случайно» оказался один из представителей партийной элиты, и фильм ему понравился. Это и спасло фильм от того, что его не «положили на полку».В начале второй серии фильма есть эпизод, в котором во время свидания Костика с Ритой показываются простые москвичи на улицах города. У одного из детей, играющих в парке на курточке видна эмблема олимпиады «Москва-80».В фильме есть эпизод, в котором героиня Инны Ульяновой Маргарита Павловна стоит у входа в кинотеатр под афишей фильма «Карнавальная ночь», в котором актриса была задействована в массовке — ее лицо видно среди других гостей новогоднего праздника.

raw [info]: 986x720p 1:1 @ 24000/1001 fps (cfr)x264 [info]: using SAR=1/1x264 [info]: using cpu capabilities: MMX2 SSE2Fast SSSE3 SSE4.2 AVXx264 [info]: profile High, level 4.1x264 [info]: frame I:509 Avg QP:16.29 size:100303x264 [info]: frame P:22861 Avg QP:19.08 size: 47336x264 [info]: frame B:71514 Avg QP:21.16 size: 15793x264 [info]: consecutive B-frames: 3.3% 4.3% 13.4% 15.2% 8.9% 54.6% 0.3% 0.0% 0.0% 0.0%x264 [info]: mb I I16..4: 1.3% 88.6% 10.1%x264 [info]: mb P I16..4: 0.1% 10.2% 0.8% P16..4: 29.7% 43.7% 15.4% 0.0% 0.0% skip: 0.1%x264 [info]: mb B I16..4: 0.0% 0.7% 0.1% B16..8: 42.6% 27.6% 5.3% direct: 5.9% skip:17.7% L0:42.0% L1:46.4% BI:11.6%x264 [info]: 8x8 transform intra:91.2% inter:62.0%x264 [info]: direct mvs spatial:99.5% temporal:0.5%x264 [info]: coded y,uvDC,uvAC intra: 98.6% 79.3% 42.1% inter: 43.0% 23.5% 5.4%x264 [info]: i16 v,h,dc,p: 9% 11% 2% 78%x264 [info]: i8 v,h,dc,ddl,ddr,vr,hd,vl,hu: 8% 6% 4% 11% 16% 15% 15% 12% 12%x264 [info]: i4 v,h,dc,ddl,ddr,vr,hd,vl,hu: 7% 6% 1% 9% 19% 18% 17% 12% 12%x264 [info]: i8c dc,h,v,p: 38% 24% 20% 19%x264 [info]: Weighted P-Frames: Y:7.2% UV:1.3%x264 [info]: ref P L0: 45.0% 14.1% 17.0% 6.5% 5.3% 3.8% 3.4% 2.1% 2.2% 0.6% 0.0%x264 [info]: ref B L0: 84.4% 7.6% 3.1% 1.7% 1.2% 1.0% 0.6% 0.3%x264 [info]: ref B L1: 97.5% 2.5%x264 [info]: kb/s:4573.83encoded 94884 frames, 7.93 fps, 4573.83 kb/s

GeneralUnique ID : 228613900729614485050577531962939914219 (0xABFD6F8ACF8B91FAB9277953EE1FB7EB)Complete name : D:\Фильмы\Наши\Pokrovskie.Vorota.1982.720p.BluRay.Rus.HDCLUB\Pokrovskie.Vorota.p.1.1982.720p.BluRay.Rus.HDCLUB.mkvFormat : MatroskaFormat version : Version 2File size : 3.15 GiBDuration : 1h 5mnOverall bit rate mode : VariableOverall bit rate : 6 833 KbpsEncoded date : UTC 2013-04-23 17:39:14Writing application : mkvmerge v5.8.0 ('No Sleep / Pillow') built on Sep 2 2012 15:37:04Writing library : libebml v1.2.3 + libmatroska v1.3.0

VideoID : 1Format : AVCFormat/Info : Advanced Video CodecFormat profile : [email protected] settings, CABAC : YesFormat settings, ReFrames : 9 framesCodec ID : V_MPEG4/ISO/AVCDuration : 1h 5mnNominal bit rate : 4 575 KbpsWidth : 986 pixelsHeight : 720 pixelsDisplay aspect ratio : 4:3Frame rate mode : ConstantFrame rate : 23.976 fpsColor space : YUVChroma subsampling : 4:2:0Bit depth : 8 bitsScan type : ProgressiveBits/(Pixel*Frame) : 0.269Title : Покровские ворота / Pokrovsky Gates (1982) - Release for HDClubWriting library : x264 core 130 r2273 b3065e6Encoding settings : cabac=1 / ref=9 / deblock=1:-3:-3 / analyse=0x3:0x113 / me=umh / subme=11 / psy=1 / psy_rd=1.10:0.00 / mixed_ref=1 / me_range=32 / chroma_me=1 / trellis=2 / 8x8dct=1 / cqm=0 / deadzone=21,11 / fast_pskip=0 / chroma_qp_offset=-2 / threads=12 / lookahead_threads=2 / sliced_threads=0 / nr=0 / decimate=0 / interlaced=0 / bluray_compat=0 / constrained_intra=0 / bframes=9 / b_pyramid=2 / b_adapt=2 / b_bias=0 / direct=3 / weightb=1 / open_gop=0 / weightp=2 / keyint=240 / keyint_min=23 / scenecut=40 / intra_refresh=0 / rc_lookahead=120 / rc=2pass / mbtree=0 / bitrate=4575 / ratetol=1.0 / qcomp=0.70 / qpmin=0 / qpmax=69 / qpstep=4 / cplxblur=20.0 / qblur=0.5 / vbv_maxrate=50000 / vbv_bufsize=62500 / nal_hrd=none / ip_ratio=1.40 / pb_ratio=1.30 / aq=2:0.80Language : RussianDefault : YesForced : NoColor primaries : BT.709Transfer characteristics : BT.709Matrix coefficients : BT.709

Audio #1ID : 2Format : DTSFormat/Info : Digital Theater SystemsMode : 16Format settings, Endianness : BigCodec ID : A_DTSDuration : 1h 5mnBit rate mode : ConstantBit rate : 1 509 KbpsChannel(s) : 6 channelsChannel positions : Front: L C R, Side: L R, LFESampling rate : 48.0 KHzBit depth : 24 bitsCompression mode : LossyStream size : 712 MiB (22%)Title : Оригинал, DTS 48/24 1509 Kbps 5/1Language : RussianDefault : YesForced : No

Audio #2ID : 3Format : FLACFormat/Info : Free Lossless Audio CodecCodec ID : A_FLACDuration : 1h 5mnBit rate mode : VariableChannel(s) : 1 channelSampling rate : 48.0 KHzBit depth : 24 bitsTitle : Оригинал, FLAC 747 Kbps 1/0Writing library : libFLAC 1.2.1 (UTC 2007-09-17)Language : RussianDefault : NoForced : No

GeneralUnique ID : 180060225615308969356825684970793937285 (0x877656892BCBA3439E4B2898F33D2985)Complete name : D:\Фильмы\Наши\Pokrovskie.Vorota.1982.720p.BluRay.Rus.HDCLUB\Pokrovskie.Vorota.p.2.1982.720p.BluRay.Rus.HDCLUB.mkvFormat : MatroskaFormat version : Version 2File size : 3.52 GiBDuration : 1h 13mnOverall bit rate mode : VariableOverall bit rate : 6 835 KbpsEncoded date : UTC 2013-04-23 17:50:00Writing application : mkvmerge v5.8.0 ('No Sleep / Pillow') built on Sep 2 2012 15:37:04Writing library : libebml v1.2.3 + libmatroska v1.3.0

VideoID : 1Format : AVCFormat/Info : Advanced Video CodecFormat profile : [email protected] settings, CABAC : YesFormat settings, ReFrames : 9 framesCodec ID : V_MPEG4/ISO/AVCDuration : 1h 13mnNominal bit rate : 4 575 KbpsWidth : 986 pixelsHeight : 720 pixelsDisplay aspect ratio : 4:3Frame rate mode : ConstantFrame rate : 23.976 fpsColor space : YUVChroma subsampling : 4:2:0Bit depth : 8 bitsScan type : ProgressiveBits/(Pixel*Frame) : 0.269Title : Покровские ворота / Pokrovsky Gates (1982) - Release for HDClubWriting library : x264 core 130 r2273 b3065e6Encoding settings : cabac=1 / ref=9 / deblock=1:-3:-3 / analyse=0x3:0x113 / me=umh / subme=11 / psy=1 / psy_rd=1.10:0.00 / mixed_ref=1 / me_range=32 / chroma_me=1 / trellis=2 / 8x8dct=1 / cqm=0 / deadzone=21,11 / fast_pskip=0 / chroma_qp_offset=-2 / threads=12 / lookahead_threads=2 / sliced_threads=0 / nr=0 / decimate=0 / interlaced=0 / bluray_compat=0 / constrained_intra=0 / bframes=9 / b_pyramid=2 / b_adapt=2 / b_bias=0 / direct=3 / weightb=1 / open_gop=0 / weightp=2 / keyint=240 / keyint_min=23 / scenecut=40 / intra_refresh=0 / rc_lookahead=120 / rc=2pass / mbtree=0 / bitrate=4575 / ratetol=1.0 / qcomp=0.70 / qpmin=0 / qpmax=69 / qpstep=4 / cplxblur=20.0 / qblur=0.5 / vbv_maxrate=50000 / vbv_bufsize=62500 / nal_hrd=none / ip_ratio=1.40 / pb_ratio=1.30 / aq=2:0.80Language : RussianDefault : YesForced : NoColor primaries : BT.709Transfer characteristics : BT.709Matrix coefficients : BT.709

Audio #1ID : 2Format : DTSFormat/Info : Digital Theater SystemsMode : 16Format settings, Endianness : BigCodec ID : A_DTSDuration : 1h 13mnBit rate mode : ConstantBit rate : 1 509 KbpsChannel(s) : 6 channelsChannel positions : Front: L C R, Side: L R, LFESampling rate : 48.0 KHzBit depth : 24 bitsCompression mode : LossyStream size : 796 MiB (22%)Title : Оригинал, DTS 48/24 1509 Kbps 5/1Language : RussianDefault : YesForced : No

Audio #2ID : 3Format : FLACFormat/Info : Free Lossless Audio CodecCodec ID : A_FLACDuration : 1h 13mnBit rate mode : VariableChannel(s) : 1 channelSampling rate : 48.0 KHzBit depth : 24 bitsTitle : Оригинал, FLAC 749 Kbps 1/0Writing library : libFLAC 1.2.1 (UTC 2007-09-17)Language : RussianDefault : NoForced : No

Скачать Покровские ворота через торрент http://i48.fastpic.ru/big/2013/0425/6b/ba95696eae247d82c842f1be0b87fd6b.jpg Скачать фильм Покровские ворота через торрент бесплантно в хорошем качестве Описание: Если вы развелись, и ваша бывшая жена снова вышла замуж - это еще не значит, что вы свободны. Если вы пригласили девушку на ... 2016-07-26 17:09 10 10 2

Loading...

Loading...

Рекламный пират

26-07-2016 18:59 Покровские ворота Скачать торрент  

Один из лучших фильмов эпохи СССР.

27-07-2016 05:15 Покровские ворота Скачать торрент  

Спасибо." А не хлопнуть ли нам по рюмашки......"

27-07-2016 05:47 Покровские ворота Скачать торрент  

Сколько раз его смотрел)

Дорогой пользователь! Огромная просьба, поблагодарите релизера, оцените раздачу и оставьте свои комментарий, если Вы скачали Покровские ворота через торрент бесплатно! Внесите свою лепту в развитие PiratBit!

Комментировать посты могут только пользователи прошедшие не сложную регистрацию

Покровские ворота через торрент Скачать бесплатно Покровские ворота Покровские ворота скачать торрент Покровские ворота смотреть онлайн Cкачать фильм Покровские ворота бесплатно Покровские ворота скачать торрент в хорошем качестве Покровские ворота смотреть онлайн бесплатно в хорошем качестве

Вы не можете начинать темыВы не можете отвечать на сообщенияВы не можете редактировать свои сообщенияВы не можете удалять свои сообщенияВы не можете голосовать в опросахВы не можете прикреплять файлы к сообщениямВы можете скачивать файлы

piratbit.ru


Смотрите также