Скачать фильм после заката скачать торрент в хорошем качестве


Скачать фильм После заката через торрент в хорошем качестве бесплатно 720p

Размер: 7.51 GB | Добавлен: 3 года 4 мес. назад | Торрент скачан:88 раз
Реклама Дарим 3000 рублей за регистрацию, не упусти свой шанс получить шикарный бонус!!!

19-06-2014 08:08 После заката Скачать торрент  

После заката / After the Sunset

Год выпуска: 2004Страна: СШАЖанр: боевик, драма, комедия, криминалПродолжительность: 01:37:20Перевод: Дубляж [Премьер Видео]; Профессиональный многоголосый, закадровый [Юниверсал Пикчерс Рус]; Двухголосый закадровый [Tycoon]; Авторский одноголосый, закадровый [А. Гаврилов]Субтитры: русские , английские

Режиссер: Бретт РэтнерПродюссер: Бо Флинн, Джей Штерн, Трип ВинсонСценарий: Пол Збышевски, Крэйг Розенберг

Бюджет: $60 000 000Премьера в мире: 10 ноября 2004

В ролях: Пирс Броснан, Сальма Хайек, Вуди Харрельсон, Дон Чидл, Наоми Харрис, Крис Пенн, Трой Гарити, Микелти Уильямсон, Лиза Торнхилл, Джефф Гарлин и др.

Описание: После успешного последнего "дела" профессиональный вор (Пирс Броснан) "завязывает" с криминалом и поселяется на райском островке. Его злейший враг, хитроумный агент ФБР, решает проверить, верен ли тот своему обещанию. Вскоре оба оказываются втянутыми в игру "кошки-мышки"...

Доп. информация: за рип спасибо Delia 80

Качество: BDRip 720pФормат: MKVВидео кодек: H.264Аудио кодек: AC3 + DTSВидео: МPEG-4 AVC, 1280х534 (2,40:1) , 23,976fps, ~ 5464 Кбит/сек , [email protected]Аудио#1: Русский, AC3, 5.1 (L,R,C,Ls,Rs LFE), 48 кГц, 448kbps avg | DUB "Премьер Видео"Аудио#2: Русский , AC3, 5.1 (L,R,C,Ls,Rs LFE), 48 кГц, 384 kbps avg | MVO "Юниверсал Пикчерс Рус"Аудио#3: Русский , DTS, 5.1 (L,R,C,Ls,Rs LFE), 48 кГц, 24 бит, 1510 kbps avg | DVO "Tycoon "Аудио#4: Русский, DTS, 5.1 (L,R,C,Ls,Rs LFE), 48 кГц, 24 бит, 1510 kbps avg | AVO "А. Гаврилов "Аудио#5: Английский, DTS, 5.1 (L,R,C,Ls,Rs LFE), 48 кГц, 24 бит, 1510 kbps avg

ОбщееУникальный идентификатор : 234825101364711418827641998249550747961 (0xB0A9AB607FB8CE72BF55ED4E33311939)Полное имя : E:\торрент\After the Sunset(2004)BDRip 720p.mkvФормат : MatroskaВерсия формата : Version 2Размер файла : 7,51 ГбайтПродолжительность : 1 ч. 37 м.Общий поток : 11,0 Мбит/секДата кодирования : UTC 2011-12-22 06:41:04Программа кодирования : mkvmerge v5.1.0 ('And so it goes') built on Nov 28 2011 23:58:28Библиотека кодирования : libebml v1.2.3 libmatroska v1.3.0ВидеоИдентификатор : 1Формат : AVCФормат/Информация : Advanced Video CodecПрофиль формата : [email protected]Параметр CABAC формата : ДаПараметр ReFrames формата : 9 кадровИдентификатор кодека : V_MPEG4/ISO/AVCПродолжительность : 1 ч. 37 м.Битрейт : 5464 Кбит/секШирина : 1280 пикселейВысота : 534 пикселяСоотношение сторон : 2,40:1Частота кадров : 23,976 кадра/секЦветовое пространство : YUVСубдискретизация насыщенности : 4:2:0Битовая глубина : 8 битТип развёртки : ПрогрессивнаяБит/(Пиксели*Кадры) : 0.333Размер потока : 3,71 Гбайт (49%)Библиотека кодирования : x264 core 120 r2120 0c7dab9Настройки программы : cabac=1 / ref=9 / deblock=1:-3:-2 / analyse=0x3:0x113 / me=esa / subme=10 / psy=1 / psy_rd=1.00:0.15 / mixed_ref=1 / me_range=32 / chroma_me=1 / trellis=2 / 8x8dct=1 / cqm=0 / deadzone=21,11 / fast_pskip=0 / chroma_qp_offset=-3 / threads=6 / sliced_threads=0 / nr=0 / decimate=0 / interlaced=0 / bluray_compat=0 / constrained_intra=0 / bframes=7 / b_pyramid=2 / b_adapt=2 / b_bias=0 / direct=1 / weightb=1 / open_gop=0 / weightp=2 / keyint=240 / keyint_min=23 / scenecut=40 / intra_refresh=0 / rc_lookahead=60 / rc=crf / mbtree=1 / crf=18.0 / qcomp=0.70 / qpmin=0 / qpmax=69 / qpstep=4 / vbv_maxrate=50000 / vbv_bufsize=62500 / crf_max=0.0 / nal_hrd=none / ip_ratio=1.40 / aq=2:0.90Язык : EnglishАудио #1Идентификатор : 2Формат : AC-3Формат/Информация : Audio Coding 3Расширение режима : CM (complete main)Идентификатор кодека : A_AC3Продолжительность : 1 ч. 37 м.Вид битрейта : ПостоянныйБитрейт : 448 Кбит/секКаналы : 6 каналовРасположение каналов : Front: L C R, Side: L R, LFEЧастота : 48,0 КГцБитовая глубина : 16 битМетод сжатия : С потерямиРазмер потока : 312 Мбайт (4%)Заголовок : DUB "Премьер Видео"Язык : RussianАудио #2Идентификатор : 3Формат : AC-3Формат/Информация : Audio Coding 3Расширение режима : CM (complete main)Идентификатор кодека : A_AC3Продолжительность : 1 ч. 37 м.Вид битрейта : ПостоянныйБитрейт : 384 Кбит/секКаналы : 6 каналовРасположение каналов : Front: L C R, Side: L R, LFEЧастота : 48,0 КГцБитовая глубина : 16 битМетод сжатия : С потерямиРазмер потока : 267 Мбайт (3%)Заголовок : MVO "Юниверсал Пикчерс Рус"Язык : RussianАудио #3Идентификатор : 4Формат : DTSФормат/Информация : Digital Theater SystemsИдентификатор кодека : A_DTSПродолжительность : 1 ч. 37 м.Вид битрейта : ПостоянныйБитрейт : 1510 Кбит/секКаналы : 6 каналовРасположение каналов : Front: L C R, Side: L R, LFEЧастота : 48,0 КГцБитовая глубина : 24 битМетод сжатия : С потерямиРазмер потока : 1,03 Гбайт (14%)Заголовок : TycoonЯзык : RussianАудио #4Идентификатор : 5Формат : DTSФормат/Информация : Digital Theater SystemsИдентификатор кодека : A_DTSПродолжительность : 1 ч. 37 м.Вид битрейта : ПостоянныйБитрейт : 1510 Кбит/секКаналы : 6 каналовРасположение каналов : Front: L C R, Side: L R, LFEЧастота : 48,0 КГцБитовая глубина : 24 битМетод сжатия : С потерямиРазмер потока : 1,03 Гбайт (14%)Заголовок : А.ГавриловЯзык : RussianАудио #5Идентификатор : 6Формат : DTSФормат/Информация : Digital Theater SystemsИдентификатор кодека : A_DTSПродолжительность : 1 ч. 37 м.Вид битрейта : ПостоянныйБитрейт : 1510 Кбит/секКаналы : 6 каналовРасположение каналов : Front: L C R, Side: L R, LFEЧастота : 48,0 КГцБитовая глубина : 24 битМетод сжатия : С потерямиРазмер потока : 1,03 Гбайт (14%)Язык : EnglishТекст #1Идентификатор : 7Формат : UTF-8Идентификатор кодека : S_TEXT/UTF8Идентификатор кодека/Информация : UTF-8 Plain TextЯзык : RussianТекст #2Идентификатор : 8Формат : UTF-8Идентификатор кодека : S_TEXT/UTF8Идентификатор кодека/Информация : UTF-8 Plain TextЯзык : English.....................................................................x264 [info]: frame I:1204 Avg QP:15.65 size:123481x264 [info]: frame P:29659 Avg QP:19.12 size: 46846x264 [info]: frame B:109118 Avg QP:20.91 size: 23905

Скачать После заката через торрент http://pic.pb.wtf/images/6/jxdi3.jpg Скачать фильм После заката через торрент бесплантно в хорошем качестве Описание: После успешного последнего "дела" вор (Пирс Броснан) "завязывает" с криминалом и поселяется на райском островке. ... 2014-06-19 08:08 9.4 10 8

Loading...

Loading...

Рекламный пират

Дорогой пользователь! Огромная просьба, поблагодарите релизера, оцените раздачу и оставьте свои комментарий, если Вы скачали После заката через торрент бесплатно! Внесите свою лепту в развитие PiratBit!

Комментировать посты могут только пользователи прошедшие не сложную регистрацию

После заката через торрент Скачать бесплатно После заката После заката скачать торрент После заката смотреть онлайн Cкачать фильм После заката бесплатно После заката скачать торрент в хорошем качестве После заката смотреть онлайн бесплатно в хорошем качестве

Вы не можете начинать темыВы не можете отвечать на сообщенияВы не можете редактировать свои сообщенияВы не можете удалять свои сообщенияВы не можете голосовать в опросахВы не можете прикреплять файлы к сообщениямВы можете скачивать файлы

piratbit.ru

После заката 2004 - скачать бесплатно через торрент в хорошем качестве. Без регистрации

Название: После заката / After the Sunset (2004) BDRip | P2
Качество видео: BDRip
Перевод: Профессиональный (двухголосый закадровый) Tycoon-Studio
Видео: XviD 720x304 (2.37:1), 23.976 fps, XviD build 50 ~1688 kbps avg, 0.32 bit/pixel
Аудио: 48 kHz, AC3 Dolby Digital, 3/2 (L,C,R,l,r) + LFE ch, ~448.00 kbps avg
Скачать

Загрузка начнется в течение 5 сек.

1.46 GB

Название: После заката / After The Sunset (2004) BDRip 1080p от HDReactor | D, P, P2, A
Качество видео: BDRip (1080p)
Перевод: Дублированный, профессиональный многоголосый, профессиональный двухголосый, авторский
Видео: MPEG-4 AVC, 14 Мбит/с, 1920x800
Аудио: Русский (AC3, 6 ch, 448 Кбит/с) ДублированныйРусский (AC3, 6 ch, 384 Кбит/с) Профессиональный многоголосый [Universal]Русский (AC3, 6 ch, 448 Кбит/с) Профессиональный многоголосыйРусский (АС3, 6 ch, 448 Кбит/с) Профессиональный двухголосый [Tycoon Studio]Русский (АС3, 6 ch, 448 Кбит/с) Авторский одноголосый [Андрей Гаврилов]Русский (AC3, 6 ch, 448 Кбит/с) Авторский одноголосый [Владимир Королев]Английский (AC3, 6 ch, 448 Кбит/с)
Скачать

Загрузка начнется в течение 5 сек.

11.64 GB

Название: После заката / After the Sunset (2004) HDRip от Scarabey | P
Качество видео: HDRip
Перевод: Профессиональный (многоголосый, закадровый)
Видео: 688x288 (2.39:1), 23.976 fps, XviD build 73 ~933 kbps avg, 0.20 bit/pixel
Аудио: 48 kHz, MPEG Layer 3, 2 ch, ~128.00 kbps avg
Скачать

Загрузка начнется в течение 5 сек.

745.59 MB

Название: После заката / After the Sunset (2004) HDRip от Scarabey | P
Качество видео: HDRip
Перевод: Профессиональный (многоголосый, закадровый)
Видео: 720x304 (2.37:1), 23.976 fps, XviD build 73 ~1673 kbps avg, 0.32 bit/pixel
Аудио: 48 kHz, AC3 Dolby Digital, 3/2 (L,C,R,l,r) + LFE ch, ~448 kbps
Скачать

Загрузка начнется в течение 5 сек.

1.45 GB

Название: После заката / After The Sunset (2004) BDRip 1080p от FREEISLAND
Формат видео: MKV
Видео: х264/AVC 1920x800 (2.40:1), 23.976 fps, AVC, 9712 Kbps
Аудио: AC3Русский, AC3, 5.1 (L,R,C,Ls,Rs+LFE), 48 кГц, 448kbps avg | DUB "Премьер Видео&quotРусский , AC3, 5.1 (L,R,C,Ls,Rs+LFE), 48 кГц, 384 kbps avg | MVO "Юниверсал Пикчерс Рус&quotРусский , AC3 , 5.1 (L,R,C,Ls,Rs+LFE), 48 кГц, 24 бит, 384 kbps avg | VO "Tycoon &quotРусский, AC3 , 5.1 (L,R,C,Ls,Rs+LFE), 48 кГц, 24 бит, 384 kbps avg | AV "А. Гаврилов &quotАнглийский, AC3 , 5.1 (L,R,C,Ls,Rs+LFE), 48 кГц, 24 бит, 384 kbps avg
Скачать

Загрузка начнется в течение 5 сек.

7.95 GB

Название: После заката / After the Sunset (2004) BDRip-AVC от 0ptimus | D, P, P2, A
Качество видео: BDRip-AVC
Перевод: Дублированный, профессиональный (многоголосый закадровый), профессиональный (двухголосый закадровый), авторский (одноголосый закадровый)
Видео: h.264 MPEG-4 AVC, 2775 Кбит/с, 1024x426, 23.976 кадр/с
Аудио: • №1: Русский (AC3, 6 ch, 384 Кбит/с) Дублированный [Мосфильм]
Скачать

Загрузка начнется в течение 5 сек.

3.59 GB

Название: После заката / After The Sunset (2004) BDRip 720p от Element team
Качество видео: BDRip 720p
Перевод: Дубляж
Видео: h.264 МPEG-4 AVC, 1280х532 (2,40:1) , 23,976fps, ~ 2 830 Кбит/сек ,0.173 Bits/(Pixel*Frame)
Аудио: AC-3,384 Kbps,6 channels,48.0 KHz
Скачать

Загрузка начнется в течение 5 сек.

2.19 GB

Название: После заката / After The Sunset (2004) BDRip 720p от FREEISLAND
Качество видео: BDRip 720p
Перевод: Профессиональный (дублированный)
Видео: H.264 МPEG-4 AVC, 1280х534 (2,40:1) , 23,976fps, ~ 5464 Кбит/сек , [email protected]
Аудио: Русский, AC3, 5.1 (L,R,C,Ls,Rs+LFE), 48 кГц, 448kbps avg | DUB "Премьер Видео&quot
Скачать

Загрузка начнется в течение 5 сек.

5.21 GB

www.kinovit.net

Скачать фильм После заката через торрент в хорошем качестве бесплатно BDRip

Размер: 2.15 GB | Добавлен: 4 года 1 мес. назад | Торрент скачан:191 раз
Реклама Дарим 3000 рублей за регистрацию, не упусти свой шанс получить шикарный бонус!!!

18-09-2013 16:29 После заката Скачать торрент  

После заката / After the Sunset«Кому удастся ускользнуть?»
  • Год выпуска:2004
  • Страна:США
  • Жанр:боевик, драма, комедия, криминал
  • Продолжительность: 01:37:18
  • Перевод:Профессиональный (полное дублирование)+ Оригинальная дорожка (отдельно) + Украинская дорожка (отдельно) (спасибо KalliostroV) + Авторский (одноголосый) (Гаврилов)
  • Субтитры: Нет
    • Режиссер:Бретт Рэтнер / Brett Ratner
    • Сценарий: Пол Збышевски / Paul Zbyszewski, Крэйг Розенберг / Craig Rosenberg
    • Продюсер: Трип Винсон / Tripp Vinson, Бо Флинн / Beau Flynn, Джей Штерн / Jay Stern, Кент Альтерман / Kent Alterman, Тоби Эммерик / Toby Emmerich
  • В ролях:Пирс Броснан (Max Burdett), Сальма Хайек (Lola Cirillo), Вуди Харрельсон (Stan Lloyd), Дон Чидл (Henri Mooré), Наоми Харрис (Sophie), Крис Пенн (Rowdy Fan), Трой Гэрити (Luc), Обба Бабатунде (Zacharias), Расселл Хорнсби (Jean-Paul), Майкелти Уильямсон (Agent Stafford), Рекс Линн (Agent Kowalski), Роберт Кертис-Браун (Lakers FBI Agent)
    • Описание:После успешного «последнего дела» профессиональный вор «завязывает» с криминалом и поселяется на райском островке. Его злейший враг, хитроумный агент ФБР, решает проверить, верен ли бывший преступник своему обещанию. Вскоре оба оказываются втянутыми в игру в «кошки-мышки»...
  • Рейтингkinopoisk.ru: 7.087 (4063)imdb.com: 6.20 (30 035)MPAA: PG-13 - Детям до 13 лет просмотр не желателен
      Автор рипа: : xxL
    • Качество:BDRip(источник: Kastor_NEW / Blu-ray Remux / 1080p)
    • Формат:AVI
    • Видео кодек: XviD
    • Аудио кодек:AC3
    • Видео: XviD, 720x304 (2.35:1), 1688 kbps, 23,976 fps, 0,322 bpp
    • Аудио: AC3 / 5.1 / 48 kHz / 448 kbps / 16 bit
    • Аудио #2 (Original): 48 kHz, AC3 Dolby Digital, 3/2 (L,C,R,l,r) + LFE ch, ~448.00 kbps avg (отдельно)
    • Аудио #3 (Ukr): 48 kHz, AC3 Dolby Digital, 2/0 (L,R) ch, ~192.00 kbps avg (отдельно)
    • Аудио #4 (AVO): 48 kHz, AC3 Dolby Digital, 3/2 (L,C,R,l,r) + LFE ch, ~384.00 kbps avg (отдельно)
    GeneralComplete name : D:ТорентыPosle.zakata.2004.RUS.BDRip.XviD.AC3.-HQCLUBPosle.zakata.2004.RUS.BDRip.XviD.AC3.-HQCLUB.aviFormat : AVIFormat/Info : Audio Video InterleaveFile size : 1.46 GiBDuration : 1h 37mnOverall bit rate : 2 146 KbpsMovie name : После заката / After the Sunset (2004) BDRipDirector : xxLWriting application : VirtualDubMod 1.5.10.2 (build 2542/release)

    Comment : 31.12.2009

    VideoID : 0Format : MPEG-4 VisualFormat profile : Advanced [email protected] settings, BVOP : 1Format settings, QPel : NoFormat settings, GMC : No warppointsFormat settings, Matrix : CustomCodec ID : XVIDCodec ID/Hint : XviDDuration : 1h 37mnBit rate : 1 689 KbpsWidth : 720 pixelsHeight : 304 pixelsDisplay aspect ratio : 2.35:1Frame rate : 23.976 fpsColor space : YUVChroma subsampling : 4:2:0Bit depth : 8 bitsScan type : ProgressiveCompression mode : LossyBits/(Pixel*Frame) : 0.322Stream size : 1.15 GiB (79%)Writing library : XviD 1.2.1 (UTC 2008-12-04)

    AudioID : 1Format : AC-3Format/Info : Audio Coding 3Mode extension : CM (complete main)Codec ID : 2000Duration : 1h 37mnBit rate mode : ConstantBit rate : 448 KbpsChannel(s) : 6 channelsChannel positions : Front: L C R, Side: L R, LFESampling rate : 48.0 KHzBit depth : 16 bitsCompression mode : LossyStream size : 312 MiB (21%)Alignment : Split accross interleavesInterleave, duration : 42 ms (1.00 video frame)Interleave, preload duration : 500 ms

    • Фильм снимался при не самой тёплой погоде и в некоторых сценах мастерам по спецэффектам приходилось убирать пар, идущий у актёров изо рта.
    © Оформление by Vetal
  • Скачать После заката через торрент http://i1.imageban.ru/out/2013/09/18/ac9689e9ab9d91154f38da54a4addd68.png Скачать фильм После заката через торрент бесплантно в хорошем качестве Описание:После успешного «последнего дела» вор «завязывает» с криминалом и поселяется на райском островке. Его злейший ... 2013-09-18 16:30 10 10 5

    Loading...

    Loading...

    Рекламный пират

    18-09-2013 20:37 После заката Скачать торрент  

    Vetаl, уматная комедия ))) спасибо что выложил ))))

    18-09-2013 21:14 После заката Скачать торрент  

    Серёжк@Рад что понравилось :ad:

    19-09-2013 04:32 После заката Скачать торрент  

    !!!!!!!!!!!!!!!!!

    Дорогой пользователь! Огромная просьба, поблагодарите релизера, оцените раздачу и оставьте свои комментарий, если Вы скачали После заката через торрент бесплатно! Внесите свою лепту в развитие PiratBit!

    Комментировать посты могут только пользователи прошедшие не сложную регистрацию

    После заката через торрент Скачать бесплатно После заката После заката скачать торрент После заката смотреть онлайн Cкачать фильм После заката бесплатно После заката скачать торрент в хорошем качестве После заката смотреть онлайн бесплатно в хорошем качестве

    Вы не можете начинать темыВы не можете отвечать на сообщенияВы не можете редактировать свои сообщенияВы не можете удалять свои сообщенияВы не можете голосовать в опросахВы не можете прикреплять файлы к сообщениямВы можете скачивать файлы

    piratbit.ru

    После заката скачать через торрент » Торрент Кино

    Расслабуха------------------------------------------Если не существовало такого жанра как курортное кино, то его наверняка изобрели в этом фильме.

    Главные герои на протяжении всего действия ленты загорают на пляже, занимаются любовью, опять загорают на пляже, пьют коктейли, разводят на бабло зажравшихся туристов, вновь занимаются любовью. Между этими интересными занятиями встречают ФБР-овца которому некогда наши герои сильно насолили, но вместо ожидаемой (некоторыми еще не закончившими просмотр сия творения зрителями) схватки двух противоположностей, все ограничивается взаимными подколками и играми в интеллектуальные игры с последующей пьянкой.

    Этих самых героев играют не кто иные как Пирс Броснан, Сальма Хайек и Вуди Харрельсон. Играют все трое вполсилы, первый еще не совсем отошел после Бонда, вторая так вообще откровенно халтурит, но видно, что определенный кайф от работы все они получают, ибо местами устраивая еще те перфомансы (главным образом Харрельсон).

    Режиссер Брэтт Рэтнер и раньше любил откровенно бить балду, умудряясь при этом снимать хорошее развлекательное кино, лишь однажды прыгнув выше своей головы и сняв более чем хорошего «Красного дракона». На сей раз наш герой еще раз переплюнул сам себя, но в несколько иной области.

    Кин настолько расслабленный что первые минут 30 - 40 от этого балдеешь а в остальное время сонно поглядываешь на часы в ожидании чтоб все это дело уже быстрее закончилось и можно было уже побыстрее лечь спать. И виновна в этом не только моя вечная сонливость, но и практически полное отсутствие драматургических конфликтов, смены ритма и вообще какого-либо развития. И что самое интересное, такое наплевательское отношение к драматургии одновременно является недостатком и главным достоинством картины. Это может как вызвать дикий кайф, так и настолько же дикое негодование, а скорее всего толком ни того ни другого. Как говорится: «есть отдых, который утомляет намного сильнее тяжелой работы».------------------------------------------------------------------------------------Тяжело наблюдать закат своей же карьеры. Что ещё нужно, когда у тебя почти всё есть: и деньги, и слава, и счастье, и Сальма Хайек? Да вот, оказывается ностальгия по минувшим временам сильнее стабильного, настоящего и безоблачного будущего. Пирс Броснан, сознательно отказавшись от сияющего и вечно популярного Джеймса Бонда, отошёл в тень. Будет ли он жалеть об этом? «После заката» можно воспринимать как своеобразный и оригинальный ответ.

    К сожалению, фильм не удался. Ни потрясающие виды морских курортов, ни восхитительные округлости Сальмы Хайек, ни острое, за гранью фола, противостояние Макса и Стэна не способны заставить зрителя ронять слезу и вскакивать от возбуждения со стула. Авантюрно-приключенческой ленте с бюджетом в 60 миллионов долларов, населённой звёздами первой величины, требуется для этого нечто большее. Ленте не хватает оригинальности, непредсказуемости. Большую часть картины приходится смотреть на сюси-пуси Броснана с Хайек (Она всё-таки невероятно красива, но ради неё смотреть весь фильм?), их препирательства и попытки агента Стэнли уличить строптивого вора во лжи.

    «После заката» - гробит имидж и режиссёру, (его «Час Пики» мне очень понравились) так и Броснану, которому не дали даже блеснуть своей знаменитой полуулыбкой, сражающей всех женщин, ни своей мужественностью, заставляющей мужчин его уважать. Да и вобще, он выглядит явно усталым и скучным. Дон Чидл - потерянный, как будто это его первая роль в кино. Сальме Хайек не хватает задора. Кто играет в ленте, так это Вуди Харельсон. Но его мало, роль не даёт ему развернутся во всю ширь своих способностей.

    Смотреть «После заката» не стоит. Ничего нового Вы в нём не откроете. Ставить его в один ряд с классными экшн-фильмами всё равно, что сравнивать звучание винила и компакт-диска. Типичное ни рыба, ни мясо.------------------------------------------------------------------------------------Дуэт Пирса Броснана и Вуди Харрельсона отличный и делает этот, в общем-то, средний фильм вполне смотрибельным и даже интригующим. Это как бы продолжение последнего римейка «Аферы Томаса Крауна», только Броснан становится «элитным грабителем», а вместо эффектной Рене Руссо мексиканская замарашка Салма Хаек - это единственный большой минус фильма, но блестящая игра Вуди Харрельсона все компенсирует.

    Тут есть даже Трой Гэрити! Жаль только, что в маленькой роли, хотя актер замечательный. Лично мне захотелось купить этот фильм на диске, а вы смотрите сами. :-)

    torrent-kino.org


    Смотрите также