Скачать фильм призрачный патруль в хорошем качестве через торрент


Скачать фильм Призрачный патруль через торрент в хорошем качестве бесплатно BDRip-AVC

ОбщееУникальный идентификатор : 175577100453425838750482886954542476785 (0x8416EB6665754227B9ABA66D67E4ADF1)Полное имя : Prizrachnyj.Patrul'.2013.DUAL.BDRip.x264.-HELLYWOOD.mkvФормат : MatroskaВерсия формата : Version 4 / Version 2Размер файла : 2,19 ГбайтПродолжительность : 1 ч. 35 м.Общий поток : 3264 Кбит/секНазвание фильма : HELLYWOOD - rip by potroksДата кодирования : UTC 2013-10-18 17:47:53Программа кодирования : mkvmerge v5.9.0 ('On The Loose') built on Dec 15 2012 16:39:58Библиотека кодирования : libebml v1.3.0 + libmatroska v1.4.0

ВидеоИдентификатор : 1Формат : AVCФормат/Информация : Advanced Video CodecПрофиль формата : [email protected]Параметр CABAC формата : ДаПараметр ReFrames формата : 10 кадровРежим смешивания : Header strippingИдентификатор кодека : V_MPEG4/ISO/AVCПродолжительность : 1 ч. 35 м.Битрейт : 2495 Кбит/секШирина : 1040 пикселейВысота : 442 пикселяСоотношение сторон : 2,35:1Режим частоты кадров : ПостоянныйЧастота кадров : 23,976 кадра/секЦветовое пространство : YUVСубдискретизация насыщенности : 4:2:0Битовая глубина : 8 битТип развёртки : ПрогрессивнаяБит/(Пиксели*Кадры) : 0.226Размер потока : 1,63 Гбайт (74%)Заголовок : R.I.P.D.Библиотека кодирования : x264 core 130 r2273 b3065e6Настройки программы : cabac=1 / ref=10 / deblock=1:-2:-2 / analyse=0x3:0x133 / me=umh / subme=11 / psy=1 / psy_rd=1.07:0.00 / mixed_ref=1 / me_range=32 / chroma_me=1 / trellis=2 / 8x8dct=1 / cqm=0 / deadzone=21,11 / fast_pskip=0 / chroma_qp_offset=-2 / threads=9 / lookahead_threads=2 / sliced_threads=0 / nr=0 / decimate=0 / interlaced=0 / bluray_compat=0 / constrained_intra=0 / bframes=11 / b_pyramid=2 / b_adapt=2 / b_bias=0 / direct=3 / weightb=1 / open_gop=0 / weightp=2 / keyint=250 / keyint_min=23 / scenecut=40 / intra_refresh=0 / rc_lookahead=160 / rc=2pass / mbtree=1 / bitrate=2495 / ratetol=1.0 / qcomp=0.70 / qpmin=0 / qpmax=69 / qpstep=4 / cplxblur=20.0 / qblur=0.5 / vbv_maxrate=20000 / vbv_bufsize=25000 / nal_hrd=none / ip_ratio=1.35 / aq=1:0.70Язык : EnglishDefault : ДаForced : Нет

Аудио #1Идентификатор : 2Формат : AC-3Формат/Информация : Audio Coding 3Расширение режима : CM (complete main)Параметр Endianness формата : BigРежим смешивания : Header strippingИдентификатор кодека : A_AC3Продолжительность : 1 ч. 35 м.Вид битрейта : ПостоянныйБитрейт : 384 Кбит/секКаналы : 6 каналовРасположение каналов : Front: L C R, Side: L R, LFEЧастота : 48,0 КГцБитовая глубина : 16 битМетод сжатия : С потерямиРазмер потока : 263 Мбайт (12%)Заголовок : Dub | DD 5.1 @ 384 kbps - iTunes RussiaЯзык : RussianDefault : ДаForced : Да

Аудио #2Идентификатор : 3Формат : AC-3Формат/Информация : Audio Coding 3Расширение режима : CM (complete main)Параметр Endianness формата : BigРежим смешивания : Header strippingИдентификатор кодека : A_AC3Продолжительность : 1 ч. 35 м.Вид битрейта : ПостоянныйБитрейт : 384 Кбит/секКаналы : 6 каналовРасположение каналов : Front: L C R, Side: L R, LFEЧастота : 48,0 КГцБитовая глубина : 16 битМетод сжатия : С потерямиРазмер потока : 263 Мбайт (12%)Заголовок : Original | DD 5.1 @ 384 kbpsЯзык : EnglishDefault : НетForced : Нет

Текст #1Идентификатор : 4Формат : UTF-8Идентификатор кодека : S_TEXT/UTF8Идентификатор кодека/Информация : UTF-8 Plain TextЯзык : RussianDefault : НетForced : Нет

Текст #2Идентификатор : 5Формат : UTF-8Идентификатор кодека : S_TEXT/UTF8Идентификатор кодека/Информация : UTF-8 Plain TextЯзык : EnglishDefault : НетForced : Нет

Меню00:00:00.000 : en:00:00:00.00000:11:16.968 : en:00:11:16.96800:20:01.450 : en:00:20:01.45000:30:09.474 : en:00:30:09.47400:39:21.609 : en:00:39:21.60900:48:57.643 : en:00:48:57.64300:59:03.415 : en:00:59:03.41501:08:57.884 : en:01:08:57.88401:17:35.109 : en:01:17:35.10901:28:36.186 : en:01:28:36.18601:40:47.792 : en:01:40:47.79201:50:55.858 : en:01:50:55.85802:00:53.580 : en:02:00:53.58002:10:13.556 : en:02:10:13.55602:12:49.920 : en:02:12:49.920

piratbit.ru

Скачать фильм Призрачный патруль через торрент в хорошем качестве бесплатно 720p от potroks

GeneralUnique ID                                : 192623175041126842677695480597553268682 (0x90E9DFC3ABFC5F9EAF9F7101390AC7CA)Complete name                            : N:\Фантастика\Prizrachnyi.Patrul.2013.DUB.AVO.ENG.BDRip.720p.-HELLYWOOD.mkvFormat                                   : MatroskaFormat version                           : Version 4 / Version 2File size                                : 5.77 GiBDuration                                 : 1h 35mnOverall bit rate                         : 8 605 KbpsMovie name                               : R.I.P.D. (2013) - HELLYWOODEncoded date                             : UTC 2010-02-22 21:41:31Writing application                      : mkvmerge v5.8.0 ('No Sleep / Pillow') built on Sep 30 2012 10:57:14Writing library                          : libebml v1.3.0 + libmatroska v1.4.0

VideoID                                       : 1Format                                   : AVCFormat/Info                              : Advanced Video CodecFormat profile                           : [email protected] settings, CABAC                   : YesFormat settings, ReFrames                : 9 framesCodec ID                                 : V_MPEG4/ISO/AVCDuration                                 : 1h 35mnBit rate                                 : 5 912 KbpsWidth                                    : 1 280 pixelsHeight                                   : 544 pixelsDisplay aspect ratio                     : 2.35:1Frame rate                               : 23.976 fpsColor space                              : YUVChroma subsampling                       : 4:2:0Bit depth                                : 8 bitsScan type                                : MBAFFBits/(Pixel*Frame)                       : 0.354Stream size                              : 3.86 GiB (67%)Title                                    : potroksWriting library                          : x264 core 148 r2665M a01e339Encoding settings                        : cabac=1 / ref=9 / deblock=1:-3:-3 / analyse=0x3:0x133 / me=umh / subme=11 / psy=1 / psy_rd=1.10:0.10 / mixed_ref=1 / me_range=48 / chroma_me=1 / trellis=2 / 8x8dct=1 / cqm=0 / deadzone=21,11 / fast_pskip=0 / chroma_qp_offset=-3 / threads=10 / lookahead_threads=2 / sliced_threads=0 / nr=0 / decimate=1 / interlaced=tff / bluray_compat=0 / constrained_intra=0 / bframes=10 / b_pyramid=2 / b_adapt=2 / b_bias=0 / direct=3 / weightb=1 / open_gop=0 / weightp=0 / keyint=240 / keyint_min=23 / scenecut=40 / intra_refresh=0 / rc=2pass / mbtree=0 / bitrate=5912 / ratetol=1.0 / qcomp=0.70 / qpmin=0 / qpmax=69 / qpstep=4 / cplxblur=20.0 / qblur=0.5 / ip_ratio=1.40 / pb_ratio=1.30 / aq=1:0.80Language                                 : EnglishDefault                                  : YesForced                                   : No

Audio #1ID                                       : 2Format                                   : DTSFormat/Info                              : Digital Theater SystemsCodec ID                                 : A_DTSDuration                                 : 1h 35mnBit rate mode                            : ConstantBit rate                                 : 755 KbpsChannel(s)                               : 6 channelsChannel positions                        : Front: L C R, Side: L R, LFESampling rate                            : 48.0 KHzBit depth                                : 24 bitsCompression mode                         : LossyStream size                              : 518 MiB (9%)Title                                    : Dub | DTS 5.1 @ 768 kbps - Blu-Ray CEELanguage                                 : RussianDefault                                  : YesForced                                   : No

Audio #2ID                                       : 3Format                                   : AC-3Format/Info                              : Audio Coding 3Mode extension                           : CM (complete main)Codec ID                                 : A_AC3Duration                                 : 1h 35mnBit rate mode                            : ConstantBit rate                                 : 640 KbpsChannel(s)                               : 6 channelsChannel positions                        : Front: L C R, Side: L R, LFESampling rate                            : 48.0 KHzBit depth                                : 16 bitsCompression mode                         : LossyStream size                              : 439 MiB (7%)Title                                    : AVO | DD 5.1 @ 640 kbps - A.GavrilovLanguage                                 : RussianDefault                                  : NoForced                                   : No

Audio #3ID                                       : 4Format                                   : AC-3Format/Info                              : Audio Coding 3Mode extension                           : CM (complete main)Codec ID                                 : A_AC3Duration                                 : 1h 35mnBit rate mode                            : ConstantBit rate                                 : 640 KbpsChannel(s)                               : 6 channelsChannel positions                        : Front: L C R, Side: L R, LFESampling rate                            : 48.0 KHzBit depth                                : 16 bitsCompression mode                         : LossyStream size                              : 439 MiB (7%)Title                                    : AVO | DD 5.1 @ 640 kbps - L.VolodarskiyLanguage                                 : RussianDefault                                  : NoForced                                   : No

Audio #4ID                                       : 5Format                                   : AC-3Format/Info                              : Audio Coding 3Mode extension                           : CM (complete main)Codec ID                                 : A_AC3Duration                                 : 1h 35mnBit rate mode                            : ConstantBit rate                                 : 640 KbpsChannel(s)                               : 6 channelsChannel positions                        : Front: L C R, Side: L R, LFESampling rate                            : 48.0 KHzBit depth                                : 16 bitsCompression mode                         : LossyStream size                              : 439 MiB (7%)Title                                    : Original | DD 5.1 @ 640 kbpsLanguage                                 : EnglishDefault                                  : NoForced                                   : No

Text #1ID                                       : 6Format                                   : UTF-8Codec ID                                 : S_TEXT/UTF8Codec ID/Info                            : UTF-8 Plain TextTitle                                    : ForcedLanguage                                 : RussianDefault                                  : YesForced                                   : No

Text #2ID                                       : 7Format                                   : UTF-8Codec ID                                 : S_TEXT/UTF8Codec ID/Info                            : UTF-8 Plain TextTitle                                    : Blu-RayLanguage                                 : RussianDefault                                  : NoForced                                   : No

Text #3ID                                       : 8Format                                   : UTF-8Codec ID                                 : S_TEXT/UTF8Codec ID/Info                            : UTF-8 Plain TextTitle                                    : NotabenoidLanguage                                 : RussianDefault                                  : NoForced                                   : No

Text #4ID                                       : 9Format                                   : UTF-8Codec ID                                 : S_TEXT/UTF8Codec ID/Info                            : UTF-8 Plain TextTitle                                    : ForcedLanguage                                 : UkrainianDefault                                  : NoForced                                   : No

Text #5ID                                       : 10Format                                   : UTF-8Codec ID                                 : S_TEXT/UTF8Codec ID/Info                            : UTF-8 Plain TextTitle                                    : Blu-RayLanguage                                 : UkrainianDefault                                  : NoForced                                   : No

Text #6ID                                       : 11Format                                   : UTF-8Codec ID                                 : S_TEXT/UTF8Codec ID/Info                            : UTF-8 Plain TextTitle                                    : FullLanguage                                 : EnglishDefault                                  : NoForced                                   : No

Text #7ID                                       : 12Format                                   : UTF-8Codec ID                                 : S_TEXT/UTF8Codec ID/Info                            : UTF-8 Plain TextTitle                                    : SDHLanguage                                 : EnglishDefault                                  : NoForced                                   : No

Text #8ID                                       : 13Format                                   : UTF-8Codec ID                                 : S_TEXT/UTF8Codec ID/Info                            : UTF-8 Plain TextTitle                                    : SDH-ColoredLanguage                                 : EnglishDefault                                  : NoForced                                   : No

Menu00:00:00.000                             : :00:00:00.00000:03:57.112                             : :00:03:57.11200:09:13.136                             : :00:09:13.13600:14:30.578                             : :00:14:30.57800:17:58.411                             : :00:17:58.41100:22:30.599                             : :00:22:30.59900:27:09.503                             : :00:27:09.50300:33:33.511                             : :00:33:33.51100:38:46.157                             : :00:38:46.15700:43:27.647                             : :00:43:27.64700:46:31.747                             : :00:46:31.74700:52:04.038                             : :00:52:04.03800:55:52.099                             : :00:55:52.09901:02:15.982                             : :01:02:15.98201:07:01.100                             : :01:07:01.10001:10:35.689                             : :01:10:35.69001:13:16.309                             : :01:13:16.30901:17:52.126                             : :01:17:52.12601:23:00.934                             : :01:23:00.93401:27:27.909                             : :01:27:27.909

piratbit.ru

Скачать фильм Призрачный патруль через торрент в хорошем качестве бесплатно BDRip-AVC-Hi10P] DUB

GeneralUnique ID : 198078805359400796209242535124581012947 (0x9504971B36F1177BAC8612113458D5D3)Complete name : R.I.P.D.2013.{am}.752.Hi10P.3xRus.Eng.Sub.mkvFormat : MatroskaFormat version : Version 2File size : 1.37 GiBDuration : 1h 35mnOverall bit rate : 2 039 KbpsMovie name : R.I.P.D. (2013) - Rip by -{am}-Encoded date : UTC 2014-09-14 21:59:10Writing application : mkvmerge v5.8.0 ('No Sleep / Pillow') built on Sep 2 2012 15:37:04Writing library : libebml v1.2.3 + libmatroska v1.3.0Attachements : poster.jpg

VideoID : 1Format : AVCFormat/Info : Advanced Video CodecFormat profile : High [email protected] settings, CABAC : YesFormat settings, ReFrames : 5 framesCodec ID : V_MPEG4/ISO/AVCDuration : 1h 35mnWidth : 752 pixelsHeight : 320 pixelsDisplay aspect ratio : 2.35:1Frame rate mode : ConstantFrame rate : 23.976 fpsColor space : YUVChroma subsampling : 4:2:0Bit depth : 10 bitsScan type : ProgressiveTitle : R.I.P.D.2013.{am}.752.Hi10P.3xRus.Eng.SubLanguage : EnglishDefault : YesForced : NoColor primaries : BT.709Transfer characteristics : BT.709Matrix coefficients : BT.709

Audio #1ID : 2Format : AACFormat/Info : Advanced Audio CodecFormat profile : HE-AAC / LCCodec ID : A_AACDuration : 1h 35mnChannel(s) : 6 channelsChannel positions : Front: L C R, Side: L R, LFESampling rate : 48.0 KHz / 24.0 KHzCompression mode : LossyDelay relative to video : -52msTitle : DUB, Blu-ray CEELanguage : RussianDefault : YesForced : No

Audio #2ID : 3Format : AACFormat/Info : Advanced Audio CodecFormat profile : HE-AAC / LCCodec ID : A_AACDuration : 1h 35mnChannel(s) : 6 channelsChannel positions : Front: L C R, Side: L R, LFESampling rate : 48.0 KHz / 24.0 KHzCompression mode : LossyDelay relative to video : 820msTitle : AVO, GavrilovLanguage : RussianDefault : NoForced : No

Audio #3ID : 4Format : AACFormat/Info : Advanced Audio CodecFormat profile : HE-AAC / LCCodec ID : A_AACDuration : 1h 35mnChannel(s) : 6 channelsChannel positions : Front: L C R, Side: L R, LFESampling rate : 48.0 KHz / 24.0 KHzCompression mode : LossyDelay relative to video : -52msTitle : AVO, VolodarskyLanguage : RussianDefault : NoForced : No

Audio #4ID : 5Format : AACFormat/Info : Advanced Audio CodecFormat profile : HE-AAC / LCCodec ID : A_AACDuration : 1h 35mnChannel(s) : 6 channelsChannel positions : Front: L C R, Side: L R, LFESampling rate : 48.0 KHz / 24.0 KHzCompression mode : LossyDelay relative to video : -52msTitle : OriginalLanguage : EnglishDefault : NoForced : No

Text #1ID : 6Format : UTF-8Codec ID : S_TEXT/UTF8Codec ID/Info : UTF-8 Plain TextTitle : Forced, Blu-ray CEELanguage : RussianDefault : YesForced : No

Text #2ID : 7Format : UTF-8Codec ID : S_TEXT/UTF8Codec ID/Info : UTF-8 Plain TextTitle : Blu-ray CEELanguage : RussianDefault : NoForced : No

Text #3ID : 8Format : UTF-8Codec ID : S_TEXT/UTF8Codec ID/Info : UTF-8 Plain TextTitle : Blu-ray CEELanguage : UkrainianDefault : NoForced : No

Text #4ID : 9Format : UTF-8Codec ID : S_TEXT/UTF8Codec ID/Info : UTF-8 Plain TextLanguage : EnglishDefault : NoForced : No

Text #5ID : 10Format : UTF-8Codec ID : S_TEXT/UTF8Codec ID/Info : UTF-8 Plain TextTitle : SDHLanguage : EnglishDefault : NoForced : No

Text #6ID : 11Format : UTF-8Codec ID : S_TEXT/UTF8Codec ID/Info : UTF-8 Plain TextTitle : SDH-ColoredLanguage : EnglishDefault : NoForced : No

Menu00:00:00.000 : en:00:00:00.00000:03:57.112 : en:00:03:57.11200:09:13.136 : en:00:09:13.13600:14:30.578 : en:00:14:30.57800:17:58.411 : en:00:17:58.41100:22:30.599 : en:00:22:30.59900:27:09.503 : en:00:27:09.50300:33:33.511 : en:00:33:33.51100:38:46.157 : en:00:38:46.15700:43:27.647 : en:00:43:27.64700:46:31.747 : en:00:46:31.74700:52:04.038 : en:00:52:04.03800:55:52.099 : en:00:55:52.09901:02:15.982 : en:01:02:15.98201:07:01.100 : en:01:07:01.10001:10:35.690 : en:01:10:35.69001:13:16.309 : en:01:13:16.30901:17:52.126 : en:01:17:52.12601:23:00.934 : en:01:23:00.93401:27:27.909 : en:01:27:27.909

piratbit.ru

Скачать фильм Призрачный патруль через торрент в хорошем качестве бесплатно 1080p 60fps от еnvy / NNNB

Format : MatroskaFormat version : Version 2File size : 8.14 GiBDuration : 1h 35mnOverall bit rate : 12.1 MbpsMovie name : Призрачный патруль.(2013).BDRip.1080p.[envy].[60fps]Encoded date : UTC 2015-08-21 05:47:53Writing application : mkvmerge v5.8.0 ('No Sleep / Pillow') built on Sep 2 2012 15:37:04Writing library : libebml v1.2.3 + libmatroska v1.3.0

VideoID : 1Format : AVCFormat/Info : Advanced Video CodecFormat profile : [email protected] settings, CABAC : YesFormat settings, ReFrames : 4 framesCodec ID : V_MPEG4/ISO/AVCDuration : 1h 35mnBit rate : 11.0 MbpsWidth : 1 920 pixelsHeight : 816 pixelsDisplay aspect ratio : 2.35:1Frame rate mode : ConstantFrame rate : 60.000 fpsColor space : YUVChroma subsampling : 4:2:0Bit depth : 8 bitsScan type : ProgressiveBits/(Pixel*Frame) : 0.117Stream size : 7.37 GiB (91%)Title : Призрачный патруль.(2013).BDRip.1080p.[envy].[60fps]Writing library : x264 core 146 r2538 121396cEncoding settings : cabac=1 / ref=4 / deblock=1:0:0 / analyse=0x3:0x113 / me=umh / subme=11 / psy=1 / psy_rd=1.00:0.00 / mixed_ref=1 / me_range=24 / chroma_me=1 / trellis=2 / 8x8dct=1 / cqm=0 / deadzone=21,11 / fast_pskip=1 / chroma_qp_offset=-2 / threads=12 / lookahead_threads=1 / sliced_threads=0 / nr=0 / decimate=1 / interlaced=0 / bluray_compat=0 / constrained_intra=0 / bframes=5 / b_pyramid=2 / b_adapt=2 / b_bias=0 / direct=3 / weightb=1 / open_gop=0 / weightp=2 / keyint=250 / keyint_min=25 / scenecut=40 / intra_refresh=0 / rc_lookahead=40 / rc=crf / mbtree=0 / crf=18.0 / qcomp=0.60 / qpmin=0 / qpmax=69 / qpstep=4 / vbv_maxrate=14000 / vbv_bufsize=14000 / crf_max=0.0 / nal_hrd=none / filler=0 / ip_ratio=1.40 / pb_ratio=1.30 / aq=3:1.00Language : EnglishDefault : YesForced : No

Audio #1ID : 2Format : AC-3Format/Info : Audio Coding 3Mode extension : CM (complete main)Format settings, Endianness : BigCodec ID : A_AC3Duration : 1h 35mnBit rate mode : ConstantBit rate : 448 KbpsChannel(s) : 6 channelsChannel positions : Front: L C R, Side: L R, LFESampling rate : 48.0 KHzCompression mode : LossyStream size : 307 MiB (4%)Title : DubLanguage : RussianDefault : YesForced : No

Audio #2ID : 3Format : AC-3Format/Info : Audio Coding 3Mode extension : CM (complete main)Format settings, Endianness : BigCodec ID : A_AC3Duration : 1h 35mnBit rate mode : ConstantBit rate : 448 KbpsChannel(s) : 6 channelsChannel positions : Front: L C R, Side: L R, LFESampling rate : 48.0 KHzCompression mode : LossyStream size : 307 MiB (4%)Title : EngLanguage : EnglishDefault : NoForced : No

Text #1ID : 4Format : UTF-8Codec ID : S_TEXT/UTF8Codec ID/Info : UTF-8 Plain TextTitle : Rus forcedLanguage : RussianDefault : YesForced : Yes

Text #2ID : 5Format : UTF-8Codec ID : S_TEXT/UTF8Codec ID/Info : UTF-8 Plain TextTitle : Rus fullLanguage : RussianDefault : NoForced : No

Text #3ID : 6Format : UTF-8Codec ID : S_TEXT/UTF8Codec ID/Info : UTF-8 Plain TextTitle : Eng fullLanguage : EnglishDefault : NoForced : No

Menu00:00:00.000 : en:00:00:00.00000:03:57.112 : en:00:03:57.11200:09:13.136 : en:00:09:13.13600:14:30.578 : en:00:14:30.57800:17:58.411 : en:00:17:58.41100:22:30.599 : en:00:22:30.59900:27:09.503 : en:00:27:09.50300:33:33.511 : en:00:33:33.51100:38:46.157 : en:00:38:46.15700:43:27.647 : en:00:43:27.64700:46:31.747 : en:00:46:31.74700:52:04.038 : en:00:52:04.03800:55:52.099 : en:00:55:52.09901:02:15.982 : en:01:02:15.98201:07:01.100 : en:01:07:01.10001:10:35.690 : en:01:10:35.69001:13:16.309 : en:01:13:16.30901:17:52.126 : en:01:17:52.12601:23:00.934 : en:01:23:00.93401:27:27.909 : en:01:27:27.909

piratbit.ru


Смотрите также