Скачать фильм прогулка среди могил в хорошем качестве через торрент


Скачать фильм Прогулка среди могил через торрент в хорошем качестве бесплатно 1080p

GeneralUnique ID : 250776626570127594419467489124688084999 (0xBCA9D24A4F6404E898F55C4B44504007)Complete name : D:\Торенты\5r0gUlKo.7rE2i.M0g1l.2014.D.BDRip.1080p.mkvFormat : MatroskaFormat version : Version 4 / Version 2File size : 12.5 GiBDuration : 1h 54mnOverall bit rate : 15.7 MbpsMovie name : KinoRay.TVEncoded date : UTC 2016-02-24 13:46:59Writing application : mkvmerge v8.9.0 ('Father Daughter') 64bitWriting library : libebml v1.3.3 + libmatroska v1.4.4

VideoID : 1Format : AVCFormat/Info : Advanced Video CodecFormat profile : [email protected] settings, CABAC : YesFormat settings, ReFrames : 5 framesCodec ID : V_MPEG4/ISO/AVCDuration : 1h 54mnBit rate : 14.5 MbpsWidth : 1 920 pixelsHeight : 804 pixelsDisplay aspect ratio : 2.40:1Frame rate : 23.976 fpsColor space : YUVChroma subsampling : 4:2:0Bit depth : 8 bitsScan type : ProgressiveBits/(Pixel*Frame) : 0.393Stream size : 11.6 GiB (93%)Title : momosas @ 14850.42 KbpsWriting library : x264 core 144 r2525kMod 40bb568Encoding settings : cabac=1 / ref=5 / deblock=1:-3:-3 / analyse=0x3:0x133 / me=umh / subme=11 / psy=1 / fade_compensate=0.00 / psy_rd=1.00:0.00 / mixed_ref=1 / me_range=32 / chroma_me=1 / trellis=2 / 8x8dct=1 / cqm=0 / deadzone=21,11 / fast_pskip=0 / chroma_qp_offset=-2 / threads=12 / lookahead_threads=2 / sliced_threads=0 / nr=0 / decimate=1 / interlaced=0 / bluray_compat=0 / constrained_intra=0 / fgo=0 / bframes=7 / b_pyramid=2 / b_adapt=2 / b_bias=0 / direct=3 / weightb=1 / open_gop=0 / weightp=2 / keyint=240 / keyint_min=22 / scenecut=40 / intra_refresh=0 / rc_lookahead=60 / rc=crf / mbtree=0 / crf=15.5000 / qcomp=0.80 / qpmin=0 / qpmax=69 / qpstep=4 / vbv_maxrate=50000 / vbv_bufsize=62500 / crf_max=0.0 / nal_hrd=none / filler=0 / ip_ratio=1.40 / pb_ratio=1.30 / aq=1:0.75Language : EnglishDefault : NoForced : NoColor primaries : BT.709-5, BT.1361, IEC 61966-2-4, SMPTE RP177Transfer characteristics : BT.709-5, BT.1361Matrix coefficients : BT.709-5, BT.1361, IEC 61966-2-4 709, SMPTE RP177

Audio #1ID : 2Format : AC-3Format/Info : Audio Coding 3Mode extension : CM (complete main)Codec ID : A_AC3Duration : 1h 54mnBit rate mode : ConstantBit rate : 192 KbpsChannel(s) : 2 channelsChannel positions : Front: L RSampling rate : 48.0 KHzBit depth : 16 bitsCompression mode : LossyStream size : 157 MiB (1%)Language : RussianDefault : YesForced : No

Audio #2ID : 3Format : AC-3Format/Info : Audio Coding 3Mode extension : CM (complete main)Codec ID : A_AC3Duration : 1h 54mnBit rate mode : ConstantBit rate : 640 KbpsChannel(s) : 6 channelsChannel positions : Front: L C R, Side: L R, LFESampling rate : 48.0 KHzBit depth : 16 bitsCompression mode : LossyStream size : 522 MiB (4%)Title : AC3 5.1 @ 640 kbpsLanguage : EnglishDefault : NoForced : No

Text #1ID : 4Format : UTF-8Codec ID : S_TEXT/UTF8Codec ID/Info : UTF-8 Plain TextLanguage : RussianDefault : YesForced : Yes

Text #2ID : 5Format : UTF-8Codec ID : S_TEXT/UTF8Codec ID/Info : UTF-8 Plain TextLanguage : EnglishDefault : NoForced : No

Text #3ID : 6Format : UTF-8Codec ID : S_TEXT/UTF8Codec ID/Info : UTF-8 Plain TextTitle : SDHLanguage : EnglishDefault : NoForced : No

Menu00:00:00.000 : en:Chapter 0100:06:05.490 : en:Chapter 0200:12:23.576 : en:Chapter 0300:19:49.730 : en:Chapter 0400:25:04.377 : en:Chapter 0500:31:19.377 : en:Chapter 0600:37:34.126 : en:Chapter 0700:42:39.682 : en:Chapter 0800:48:59.061 : en:Chapter 0900:55:30.452 : en:Chapter 1001:02:32.540 : en:Chapter 1101:07:45.019 : en:Chapter 1201:12:31.305 : en:Chapter 1301:16:49.980 : en:Chapter 1401:24:01.036 : en:Chapter 1501:28:31.055 : en:Chapter 1601:35:01.320 : en:Chapter 1701:39:32.049 : en:Chapter 1801:44:18.710 : en:Chapter 1901:50:10.729 : en:Chapter 20

piratbit.ru

Прогулка среди могил через торрент

GeneralUnique ID                                : 250462725238301465599292673255908761451 (0xBC6D5DC27D5EDEE8841F81A5D64EDF6B)Complete name                            : Progulka.Sredi.Mogil.2014.BDRip.720p.-HELLYWOOD.mkvFormat                                   : MatroskaFormat version                           : Version 4 / Version 2File size                                : 5.07 GiBDuration                                 : 1h 54mnOverall bit rate                         : 6 359 KbpsMovie name                               : A Walk Among the Tombstones (2014) - HELLYWOODEncoded date                             : UTC 2010-02-22 21:41:31Writing application                      : mkvmerge v5.8.0 ('No Sleep / Pillow') built on Sep 30 2012 10:57:14Writing library                          : libebml v1.3.0 + libmatroska v1.4.0

VideoID                                       : 1Format                                   : AVCFormat/Info                              : Advanced Video CodecFormat profile                           : [email protected] settings, CABAC                   : YesFormat settings, ReFrames                : 8 framesCodec ID                                 : V_MPEG4/ISO/AVCDuration                                 : 1h 54mnBit rate                                 : 4 255 KbpsWidth                                    : 1 280 pixelsHeight                                   : 536 pixelsDisplay aspect ratio                     : 2.40:1Frame rate mode                          : VariableFrame rate                               : 23.976 fpsColor space                              : YUVChroma subsampling                       : 4:2:0Bit depth                                : 8 bitsScan type                                : ProgressiveBits/(Pixel*Frame)                       : 0.259Stream size                              : 3.29 GiB (65%)Title                                    : potroksWriting library                          : x264 core 128 r2216M 198a7eaEncoding settings                        : cabac=1 / ref=9 / deblock=1:-3:-3 / analyse=0x3:0x133 / me=umh / subme=11 / psy=1 / psy_rd=1.00:0.00 / mixed_ref=1 / me_range=48 / chroma_me=1 / trellis=2 / 8x8dct=1 / cqm=0 / deadzone=21,11 / fast_pskip=0 / chroma_qp_offset=-2 / threads=10 / lookahead_threads=1 / sliced_threads=0 / nr=0 / decimate=1 / interlaced=0 / bluray_compat=0 / constrained_intra=0 / bframes=10 / b_pyramid=1 / b_adapt=2 / b_bias=0 / direct=3 / weightb=1 / open_gop=0 / weightp=2 / keyint=250 / keyint_min=23 / scenecut=40 / intra_refresh=0 / rc_lookahead=40 / rc=2pass / mbtree=0 / bitrate=4255 / ratetol=1.0 / qcomp=0.70 / qpmin=0 / qpmax=69 / qpstep=4 / cplxblur=20.0 / qblur=0.5 / vbv_maxrate=62500 / vbv_bufsize=62500 / nal_hrd=none / ip_ratio=1.40 / pb_ratio=1.30 / aq=1:0.85Language                                 : EnglishDefault                                  : YesForced                                   : No

Audio #1ID                                       : 2Format                                   : AC-3Format/Info                              : Audio Coding 3Mode extension                           : CM (complete main)Codec ID                                 : A_AC3Duration                                 : 1h 54mnBit rate mode                            : ConstantBit rate                                 : 192 KbpsChannel(s)                               : 2 channelsChannel positions                        : Front: L RSampling rate                            : 48.0 KHzBit depth                                : 16 bitsCompression mode                         : LossyStream size                              : 157 MiB (3%)Title                                    : MVO | DD 2.0 @ 192  kbpsLanguage                                 : RussianDefault                                  : YesForced                                   : No

Audio #2ID                                       : 3Format                                   : AC-3Format/Info                              : Audio Coding 3Mode extension                           : CM (complete main)Codec ID                                 : A_AC3Duration                                 : 1h 54mnBit rate mode                            : ConstantBit rate                                 : 640 KbpsChannel(s)                               : 6 channelsChannel positions                        : Front: L C R, Side: L R, LFESampling rate                            : 48.0 KHzBit depth                                : 16 bitsCompression mode                         : LossyStream size                              : 523 MiB (10%)Title                                    : AVO | DD 5.1 @ 640 kbps - D.Yesarev [Censored]Language                                 : RussianDefault                                  : NoForced                                   : No

Audio #3ID                                       : 4Format                                   : AC-3Format/Info                              : Audio Coding 3Mode extension                           : CM (complete main)Codec ID                                 : A_AC3Duration                                 : 1h 54mnBit rate mode                            : ConstantBit rate                                 : 640 KbpsChannel(s)                               : 6 channelsChannel positions                        : Front: L C R, Side: L R, LFESampling rate                            : 48.0 KHzBit depth                                : 16 bitsCompression mode                         : LossyStream size                              : 523 MiB (10%)Title                                    : AVO | DD 5.1 @ 640 kbps - D.Yesarev [Uncensored]Language                                 : RussianDefault                                  : NoForced                                   : No

Audio #4ID                                       : 5Format                                   : AC-3Format/Info                              : Audio Coding 3Mode extension                           : CM (complete main)Codec ID                                 : A_AC3Duration                                 : 1h 54mnBit rate mode                            : ConstantBit rate                                 : 640 KbpsChannel(s)                               : 6 channelsChannel positions                        : Front: L C R, Side: L R, LFESampling rate                            : 48.0 KHzBit depth                                : 16 bitsCompression mode                         : LossyStream size                              : 523 MiB (10%)Title                                    : Original | DD 5.1 @ 640 kbpsLanguage                                 : EnglishDefault                                  : NoForced                                   : No

Text #1ID                                       : 6Format                                   : UTF-8Codec ID                                 : S_TEXT/UTF8Codec ID/Info                            : UTF-8 Plain TextLanguage                                 : RussianDefault                                  : NoForced                                   : No

Text #2ID                                       : 7Format                                   : UTF-8Codec ID                                 : S_TEXT/UTF8Codec ID/Info                            : UTF-8 Plain TextTitle                                    : FullLanguage                                 : EnglishDefault                                  : NoForced                                   : No

Text #3ID                                       : 8Format                                   : UTF-8Codec ID                                 : S_TEXT/UTF8Codec ID/Info                            : UTF-8 Plain TextTitle                                    : SDHLanguage                                 : EnglishDefault                                  : NoForced                                   : No

Text #4ID                                       : 9Format                                   : UTF-8Codec ID                                 : S_TEXT/UTF8Codec ID/Info                            : UTF-8 Plain TextTitle                                    : SDH-ColoredLanguage                                 : EnglishDefault                                  : NoForced                                   : No

Menu00:00:00.000                             : en:00:00:00.00000:06:05.490                             : en:00:06:05.49000:12:23.576                             : en:00:12:23.57600:19:49.730                             : en:00:19:49.73000:25:04.378                             : en:00:25:04.37800:31:19.377                             : en:00:31:19.37700:37:34.127                             : en:00:37:34.12700:42:39.682                             : en:00:42:39.68200:48:59.061                             : en:00:48:59.06100:55:30.452                             : en:00:55:30.45201:02:32.540                             : en:01:02:32.54001:07:45.019                             : en:01:07:45.01901:12:31.305                             : en:01:12:31.30501:16:49.980                             : en:01:16:49.98001:24:01.036                             : en:01:24:01.03601:28:31.056                             : en:01:28:31.05601:35:01.321                             : en:01:35:01.32101:39:32.049                             : en:01:39:32.04901:44:18.711                             : en:01:44:18.71101:50:10.729                             : en:01:50:10.729

piratbit.ru

Скачать фильм Прогулка среди могил через торрент в хорошем качестве бесплатно HDRip

Размер: 1.36 GB | Добавлен: 1 год 8 мес. назад | Торрент скачан:202 раза
Реклама Дарим 3000 рублей за регистрацию, не упусти свой шанс получить шикарный бонус!!!

24-02-2016 14:45 Прогулка среди могил Скачать торрент  

Прогулка среди могил / A Walk Among the Tombstones Год выхода: 2014Премьера в РФ: 16 октября 2014страна: СШАЖанр: триллер, криминал, детективПродолжительность: 01:54:05Перевод: Дублированный [LINE]Субтитры: нетПримечание: Присутствуют голосовые и текстовые вставки рекламы!

Режиссер: Скотт Фрэнк

В ролях: Лиам Нисон, Морис Комт, Патрик МакДэйд, Лучиано Акуна мл., Ганс Марреро, Лаура Бирн, Дэвид Харбор, Адам Дэвид Томпсон, Ким Розен, Дэн Стивенс

Описание: Нью-Йорк охватывает волна странных и страшных убийств. Муж одной из жертв, наркобарон, нанимает бывшего полицейского, чтобы тот добрался до убийцы жены. Частный детектив Скаддер видит то, чего не замечает полиция, и проникает туда, куда копы боятся даже сунуть нос. Распутывая дьявольские преступления, он понимает, что люди боятся совсем не того.

СЭМПЛ

ФайлКачество: HDRip Формат: AVIВидео кодек: XvIDАудио кодек: AC3Видео: 720x304 (2.37:1), 23.976 fps, XviD build 50 ~1498 kbps avg, 0.25 bit/pixelАудио: 48.0 kHz, AC3, 2 ch, ~192.00 kbps avg

Скачать Прогулка среди могил через торрент http://i64.fastpic.ru/big/2014/1001/b4/5c3baa6c36dd172de8e9cde50e7f03b4.jpg Скачать фильм Прогулка среди могил через торрент бесплантно в хорошем качестве Описание: Нью-Йорк охватывает волна странных и страшных убийств. Муж одной из жертв, наркобарон, нанимает бывшего полицейского, чтобы тот ... 2016-02-24 14:45 8.2 10 10

Loading...

Loading...

Рекламный пират

24-02-2016 14:51 Прогулка среди могил Скачать торрент  

Дубляж?!Наконец-то!И года не..Хотя нет, прошло!Спасибо!

24-02-2016 14:56 Прогулка среди могил Скачать торрент  

dante218 писал(а):

И года не..Хотя нет, прошло

сам в шоке с этих пиратов

24-02-2016 15:19 Прогулка среди могил Скачать торрент  

dante218 писал(а):

Дубляж?!Наконец-то!И года не..Хотя нет, прошло!Спасибо!

Эх, я не дождался

24-02-2016 15:23 Прогулка среди могил Скачать торрент  

дочекався великий тобі респект а коли в hd?

24-02-2016 15:26 Прогулка среди могил Скачать торрент  

strannik18, в сети есть 1080 и 720

Дорогой пользователь! Огромная просьба, поблагодарите релизера, оцените раздачу и оставьте свои комментарий, если Вы скачали Прогулка среди могил через торрент бесплатно! Внесите свою лепту в развитие PiratBit!

Комментировать посты могут только пользователи прошедшие не сложную регистрацию

Прогулка среди могил через торрент Скачать бесплатно Прогулка среди могил Прогулка среди могил скачать торрент Прогулка среди могил смотреть онлайн Cкачать фильм Прогулка среди могил бесплатно Прогулка среди могил скачать торрент в хорошем качестве Прогулка среди могил смотреть онлайн бесплатно в хорошем качестве

Вы можете начинать темыВы можете отвечать на сообщенияВы не можете редактировать свои сообщенияВы не можете удалять свои сообщенияВы не можете голосовать в опросахВы не можете прикреплять файлы к сообщениямВы можете скачивать файлы

piratbit.ru

Прогулка среди могил через торрент

Общее Уникальный идентификатор : 234610666342156375590909509931864259028 (0xB0805EEA00BAE749B18F5166494D79D4) Полное имя : Progulka.Sredi.Mogil.2014.BDRip.720p.-HELLYWOOD.mkv Формат : Matroska Версия формата : Version 4 / Version 2 Размер файла : 5,74 Гбайт Продолжительность : 1 ч. 54 м. Общий поток : 7199 Кбит/сек Название фильма : A Walk Among the Tombstones (2014) - HELLYWOOD Дата кодирования : UTC 2016-03-13 02:44:23 Программа кодирования : mkvmerge v5.9.0 ('On The Loose') built on Dec 15 2012 16:39:58 Библиотека кодирования : libebml v1.3.0 + libmatroska v1.4.0

Видео Идентификатор : 1 Формат : AVC Формат/Информация : Advanced Video Codec Профиль формата : [email protected] Параметр CABAC формата : Да Параметр ReFrames формата : 8 кадров Идентификатор кодека : V_MPEG4/ISO/AVC Продолжительность : 1 ч. 54 м. Битрейт : 4255 Кбит/сек Ширина : 1280 пикселей Высота : 536 пикселей Соотношение сторон : 2,40:1 Режим частоты кадров : Постоянный Частота кадров : 23,976 кадра/сек Цветовое пространство : YUV Субдискретизация насыщенности : 4:2:0 Битовая глубина : 8 бит Тип развёртки : Прогрессивная Бит/(Пиксели*Кадры) : 0.259 Размер потока : 3,28 Гбайт (57%) Заголовок : potroks Библиотека кодирования : x264 core 128 r2216M 198a7ea Настройки программы : cabac=1 / ref=9 / deblock=1:-3:-3 / analyse=0x3:0x133 / me=umh / subme=11 / psy=1 / psy_rd=1.00:0.00 / mixed_ref=1 / me_range=48 / chroma_me=1 / trellis=2 / 8x8dct=1 / cqm=0 / deadzone=21,11 / fast_pskip=0 / chroma_qp_offset=-2 / threads=10 / lookahead_threads=1 / sliced_threads=0 / nr=0 / decimate=1 / interlaced=0 / bluray_compat=0 / constrained_intra=0 / bframes=10 / b_pyramid=1 / b_adapt=2 / b_bias=0 / direct=3 / weightb=1 / open_gop=0 / weightp=2 / keyint=250 / keyint_min=23 / scenecut=40 / intra_refresh=0 / rc_lookahead=40 / rc=2pass / mbtree=0 / bitrate=4255 / ratetol=1.0 / qcomp=0.70 / qpmin=0 / qpmax=69 / qpstep=4 / cplxblur=20.0 / qblur=0.5 / vbv_maxrate=62500 / vbv_bufsize=62500 / nal_hrd=none / ip_ratio=1.40 / pb_ratio=1.30 / aq=1:0.85 Язык : English Default : Да Forced : Нет

Аудио #1 Идентификатор : 2 Формат : AC-3 Формат/Информация : Audio Coding 3 Расширение режима : CM (complete main) Параметр Endianness формата : Big Идентификатор кодека : A_AC3 Продолжительность : 1 ч. 54 м. Вид битрейта : Постоянный Битрейт : 384 Кбит/сек Каналы : 6 каналов Расположение каналов : Front: L C R, Side: L R, LFE Частота : 48,0 КГц Метод сжатия : С потерями Размер потока : 313 Мбайт (5%) Заголовок : Dub | DD 5.1 @ 384 kbps - IPTV Язык : Russian Default : Да Forced : Нет

Аудио #2 Идентификатор : 3 Формат : AC-3 Формат/Информация : Audio Coding 3 Расширение режима : CM (complete main) Параметр Endianness формата : Big Идентификатор кодека : A_AC3 Продолжительность : 1 ч. 54 м. Вид битрейта : Постоянный Битрейт : 640 Кбит/сек Каналы : 6 каналов Расположение каналов : Front: L C R, Side: L R, LFE Частота : 48,0 КГц Метод сжатия : С потерями Размер потока : 522 Мбайт (9%) Заголовок : AVO | DD 5.1 @ 640 kbps - D.Yesarev [Censored] Язык : Russian Default : Нет Forced : Нет

Аудио #3 Идентификатор : 4 Формат : AC-3 Формат/Информация : Audio Coding 3 Расширение режима : CM (complete main) Параметр Endianness формата : Big Идентификатор кодека : A_AC3 Продолжительность : 1 ч. 54 м. Вид битрейта : Постоянный Битрейт : 640 Кбит/сек Каналы : 6 каналов Расположение каналов : Front: L C R, Side: L R, LFE Частота : 48,0 КГц Метод сжатия : С потерями Размер потока : 522 Мбайт (9%) Заголовок : AVO | DD 5.1 @ 640 kbps - D.Yesarev [Uncensored] Язык : Russian Default : Нет Forced : Нет

Аудио #4 Идентификатор : 5 Формат : AC-3 Формат/Информация : Audio Coding 3 Расширение режима : CM (complete main) Параметр Endianness формата : Big Идентификатор кодека : A_AC3 Продолжительность : 1 ч. 54 м. Вид битрейта : Постоянный Битрейт : 640 Кбит/сек Каналы : 6 каналов Расположение каналов : Front: L C R, Side: L R, LFE Частота : 48,0 КГц Метод сжатия : С потерями Размер потока : 522 Мбайт (9%) Заголовок : AVO | A.Gavrilov Язык : Russian Default : Нет Forced : Нет

Аудио #5 Идентификатор : 6 Формат : AC-3 Формат/Информация : Audio Coding 3 Расширение режима : CM (complete main) Параметр Endianness формата : Big Идентификатор кодека : A_AC3 Продолжительность : 1 ч. 54 м. Вид битрейта : Постоянный Битрейт : 640 Кбит/сек Каналы : 6 каналов Расположение каналов : Front: L C R, Side: L R, LFE Частота : 48,0 КГц Метод сжатия : С потерями Размер потока : 522 Мбайт (9%) Заголовок : Original | DD 5.1 @ 640 kbps Язык : English Default : Нет Forced : Нет

Текст #1 Идентификатор : 8 Формат : UTF-8 Идентификатор кодека : S_TEXT/UTF8 Идентификатор кодека/Информация : UTF-8 Plain Text Заголовок : Full Язык : English Default : Нет Forced : Нет

Текст #2 Идентификатор : 9 Формат : UTF-8 Идентификатор кодека : S_TEXT/UTF8 Идентификатор кодека/Информация : UTF-8 Plain Text Заголовок : SDH Язык : English Default : Нет Forced : Нет

Текст #3 Идентификатор : 10 Формат : UTF-8 Идентификатор кодека : S_TEXT/UTF8 Идентификатор кодека/Информация : UTF-8 Plain Text Заголовок : SDH-Colored Язык : English Default : Нет Forced : Нет

Меню 00:00:00.000 : en:00:00:00.000 00:06:05.490 : en:00:06:05.490 00:12:23.576 : en:00:12:23.576 00:19:49.730 : en:00:19:49.730 00:25:04.378 : en:00:25:04.378 00:31:19.377 : en:00:31:19.377 00:37:34.127 : en:00:37:34.127 00:42:39.682 : en:00:42:39.682 00:48:59.061 : en:00:48:59.061 00:55:30.452 : en:00:55:30.452 01:02:32.540 : en:01:02:32.540 01:07:45.019 : en:01:07:45.019 01:12:31.305 : en:01:12:31.305 01:16:49.980 : en:01:16:49.980 01:24:01.036 : en:01:24:01.036 01:28:31.056 : en:01:28:31.056 01:35:01.321 : en:01:35:01.321 01:39:32.049 : en:01:39:32.049 01:44:18.711 : en:01:44:18.711 01:50:10.729 : en:01:50:10.729

piratbit.ru


Смотрите также