Скачать фильм прометей скачать торрент в хорошем качестве hd 1080


Скачать фильм Прометей через торрент в хорошем качестве бесплатно 1080p

ОбщееИдентификатор : 0 (0x0)Полное имя : E:ПрометейBDMVSTREAM�0800.m2tsФормат : BDAVФормат/Информация : Blu-ray VideoРазмер файла : 36,1 ГбайтПродолжительность : 2 ч. 3 м.Режим общего битрейта : ПеременныйОбщий поток : 41,8 Мбит/секМаксимальный общий битрейт : 48,0 Мбит/сек

ВидеоИдентификатор : 4113 (0x1011)Идентификатор меню : 1 (0x1)Формат : AVCФормат/Информация : Advanced Video CodecПрофиль формата : [email protected]Параметр CABAC формата : ДаПараметр ReFrames формата : 2 кадраИдентификатор кодека : 27Продолжительность : 2 ч. 3 м.Вид битрейта : ПеременныйШирина : 1920 пикселейВысота : 1080 пикселейСоотношение сторон : 16:9Частота кадров : 23,976 кадра/секЦветовое пространство : YUVСубдискретизация насыщенности : 4:2:0Битовая глубина : 8 битТип развёртки : Прогрессивная

Аудио #1Идентификатор : 4352 (0x1100)Идентификатор меню : 1 (0x1)Формат : DTSФормат/Информация : Digital Theater SystemsПрофиль формата : MA / CoreРежим : 16Параметр Endianness формата : BigРежим смешивания : Stream extensionИдентификатор кодека : 134Продолжительность : 2 ч. 3 м.Вид битрейта : ПеременныйБитрейт : Неизвестно / 1509 Кбит/секКаналы : 8 каналов / 6 каналовРасположение каналов : Front: L C R, Side: L R, Back: L R, LFE / Front: L C R, Side: L R, LFEЧастота : 48,0 КГцБитовая глубина : 24 битМетод сжатия : Без потерь / Lossy

Аудио #2Идентификатор : 4353 (0x1101)Идентификатор меню : 1 (0x1)Формат : AC-3Формат/Информация : Audio Coding 3Расширение режима : CM (complete main)Параметр Endianness формата : BigИдентификатор кодека : 129Продолжительность : 2 ч. 3 м.Вид битрейта : ПостоянныйБитрейт : 448 Кбит/секКаналы : 6 каналовРасположение каналов : Front: L C R, Side: L R, LFEЧастота : 48,0 КГцБитовая глубина : 16 битМетод сжатия : С потерямиРазмер потока : 397 Мбайт (1%)

Аудио #3Идентификатор : 4354 (0x1102)Идентификатор меню : 1 (0x1)Формат : AC-3Формат/Информация : Audio Coding 3Расширение режима : CM (complete main)Параметр Endianness формата : BigИдентификатор кодека : 129Продолжительность : 2 ч. 3 м.Вид битрейта : ПостоянныйБитрейт : 448 Кбит/секКаналы : 6 каналовРасположение каналов : Front: L C R, Side: L R, LFEЧастота : 48,0 КГцБитовая глубина : 16 битМетод сжатия : С потерямиРазмер потока : 397 Мбайт (1%)

Аудио #4Идентификатор : 4355 (0x1103)Идентификатор меню : 1 (0x1)Формат : AC-3Формат/Информация : Audio Coding 3Расширение режима : CM (complete main)Параметр Endianness формата : BigИдентификатор кодека : 129Продолжительность : 2 ч. 3 м.Вид битрейта : ПостоянныйБитрейт : 448 Кбит/секКаналы : 6 каналовРасположение каналов : Front: L C R, Side: L R, LFEЧастота : 48,0 КГцБитовая глубина : 16 битМетод сжатия : С потерямиРазмер потока : 397 Мбайт (1%)

Аудио #5Идентификатор : 4356 (0x1104)Идентификатор меню : 1 (0x1)Формат : AC-3Формат/Информация : Audio Coding 3Расширение режима : CM (complete main)Параметр Endianness формата : BigИдентификатор кодека : 129Продолжительность : 2 ч. 3 м.Вид битрейта : ПостоянныйБитрейт : 448 Кбит/секКаналы : 6 каналовРасположение каналов : Front: L C R, Side: L R, LFEЧастота : 48,0 КГцБитовая глубина : 16 битМетод сжатия : С потерямиРазмер потока : 397 Мбайт (1%)

Аудио #6Идентификатор : 4357 (0x1105)Идентификатор меню : 1 (0x1)Формат : DTSФормат/Информация : Digital Theater SystemsРежим : 16Параметр Endianness формата : BigИдентификатор кодека : 130Продолжительность : 2 ч. 3 м.Вид битрейта : ПостоянныйБитрейт : 768 Кбит/секКаналы : 6 каналовРасположение каналов : Front: L C R, Side: L R, LFEЧастота : 48,0 КГцБитовая глубина : 24 битМетод сжатия : С потерямиРазмер потока : 680 Мбайт (2%)

Аудио #7Идентификатор : 4358 (0x1106)Идентификатор меню : 1 (0x1)Формат : AC-3Формат/Информация : Audio Coding 3Расширение режима : CM (complete main)Параметр Endianness формата : BigИдентификатор кодека : 129Продолжительность : 2 ч. 3 м.Вид битрейта : ПостоянныйБитрейт : 448 Кбит/секКаналы : 6 каналовРасположение каналов : Front: L C R, Side: L R, LFEЧастота : 48,0 КГцБитовая глубина : 16 битМетод сжатия : С потерямиРазмер потока : 397 Мбайт (1%)

Аудио #8Идентификатор : 4359 (0x1107)Идентификатор меню : 1 (0x1)Формат : AC-3Формат/Информация : Audio Coding 3Расширение режима : CM (complete main)Параметр Endianness формата : BigИдентификатор кодека : 129Продолжительность : 2 ч. 3 м.Вид битрейта : ПостоянныйБитрейт : 448 Кбит/секКаналы : 6 каналовРасположение каналов : Front: L C R, Side: L R, LFEЧастота : 48,0 КГцБитовая глубина : 16 битМетод сжатия : С потерямиРазмер потока : 397 Мбайт (1%)

Аудио #9Идентификатор : 4360 (0x1108)Идентификатор меню : 1 (0x1)Формат : AC-3Формат/Информация : Audio Coding 3Расширение режима : CM (complete main)Параметр Endianness формата : BigИдентификатор кодека : 129Продолжительность : 2 ч. 3 м.Вид битрейта : ПостоянныйБитрейт : 448 Кбит/секКаналы : 6 каналовРасположение каналов : Front: L C R, Side: L R, LFEЧастота : 48,0 КГцБитовая глубина : 16 битМетод сжатия : С потерямиРазмер потока : 397 Мбайт (1%)

Аудио #10Идентификатор : 4361 (0x1109)Идентификатор меню : 1 (0x1)Формат : AC-3Формат/Информация : Audio Coding 3Расширение режима : CM (complete main)Параметр Endianness формата : BigИдентификатор кодека : 129Продолжительность : 2 ч. 3 м.Вид битрейта : ПостоянныйБитрейт : 448 Кбит/секКаналы : 6 каналовРасположение каналов : Front: L C R, Side: L R, LFEЧастота : 48,0 КГцБитовая глубина : 16 битМетод сжатия : С потерямиРазмер потока : 397 Мбайт (1%)

Аудио #11Идентификатор : 4362 (0x110A)Идентификатор меню : 1 (0x1)Формат : AC-3Формат/Информация : Audio Coding 3Расширение режима : CM (complete main)Параметр Endianness формата : BigИдентификатор кодека : 129Продолжительность : 2 ч. 3 м.Вид битрейта : ПостоянныйБитрейт : 224 Кбит/секКаналы : 2 каналаРасположение каналов : Front: L RЧастота : 48,0 КГцБитовая глубина : 16 битМетод сжатия : С потерямиРазмер потока : 198 Мбайт (1%)

Аудио #12Идентификатор : 4363 (0x110B)Идентификатор меню : 1 (0x1)Формат : AC-3Формат/Информация : Audio Coding 3Расширение режима : CM (complete main)Параметр Endianness формата : BigИдентификатор кодека : 129Продолжительность : 2 ч. 3 м.Вид битрейта : ПостоянныйБитрейт : 224 Кбит/секКаналы : 2 каналаРасположение каналов : Front: L RЧастота : 48,0 КГцБитовая глубина : 16 битМетод сжатия : С потерямиРазмер потока : 198 Мбайт (1%)

Аудио #13Идентификатор : 4364 (0x110C)Идентификатор меню : 1 (0x1)Формат : AC-3Формат/Информация : Audio Coding 3Расширение режима : CM (complete main)Параметр Endianness формата : BigИдентификатор кодека : 129Продолжительность : 2 ч. 3 м.Вид битрейта : ПостоянныйБитрейт : 448 Кбит/секКаналы : 6 каналовРасположение каналов : Front: L C R, Side: L R, LFEЧастота : 48,0 КГцБитовая глубина : 16 битМетод сжатия : С потерямиРазмер потока : 397 Мбайт (1%)

Текст #1Идентификатор : 4608 (0x1200)Идентификатор меню : 1 (0x1)Формат : PGSИдентификатор кодека : 144

Текст #2Идентификатор : 4609 (0x1201)Идентификатор меню : 1 (0x1)Формат : PGSИдентификатор кодека : 144

Текст #3Идентификатор : 4610 (0x1202)Идентификатор меню : 1 (0x1)Формат : PGSИдентификатор кодека : 144

Текст #4Идентификатор : 4611 (0x1203)Идентификатор меню : 1 (0x1)Формат : PGSИдентификатор кодека : 144

Текст #5Идентификатор : 4612 (0x1204)Идентификатор меню : 1 (0x1)Формат : PGSИдентификатор кодека : 144

Текст #6Идентификатор : 4613 (0x1205)Идентификатор меню : 1 (0x1)Формат : PGSИдентификатор кодека : 144

Текст #7Идентификатор : 4614 (0x1206)Идентификатор меню : 1 (0x1)Формат : PGSИдентификатор кодека : 144

Текст #8Идентификатор : 4615 (0x1207)Идентификатор меню : 1 (0x1)Формат : PGSИдентификатор кодека : 144

Текст #9Идентификатор : 4616 (0x1208)Идентификатор меню : 1 (0x1)Формат : PGSИдентификатор кодека : 144

Текст #10Идентификатор : 4617 (0x1209)Идентификатор меню : 1 (0x1)Формат : PGSИдентификатор кодека : 144

Текст #11Идентификатор : 4618 (0x120A)Идентификатор меню : 1 (0x1)Формат : PGSИдентификатор кодека : 144

Текст #12Идентификатор : 4619 (0x120B)Идентификатор меню : 1 (0x1)Формат : PGSИдентификатор кодека : 144

Текст #13Идентификатор : 4620 (0x120C)Идентификатор меню : 1 (0x1)Формат : PGSИдентификатор кодека : 144

Текст #14Идентификатор : 4621 (0x120D)Идентификатор меню : 1 (0x1)Формат : PGSИдентификатор кодека : 144

Текст #15Идентификатор : 4622 (0x120E)Идентификатор меню : 1 (0x1)Формат : PGSИдентификатор кодека : 144

Текст #16Идентификатор : 4623 (0x120F)Идентификатор меню : 1 (0x1)Формат : PGSИдентификатор кодека : 144

Текст #17Идентификатор : 4624 (0x1210)Идентификатор меню : 1 (0x1)Формат : PGSИдентификатор кодека : 144

Текст #18Идентификатор : 4625 (0x1211)Идентификатор меню : 1 (0x1)Формат : PGSИдентификатор кодека : 144

Текст #19Идентификатор : 4626 (0x1212)Идентификатор меню : 1 (0x1)Формат : PGSИдентификатор кодека : 144

Текст #20Идентификатор : 4627 (0x1213)Идентификатор меню : 1 (0x1)Формат : PGSИдентификатор кодека : 144

Текст #21Идентификатор : 4628 (0x1214)Идентификатор меню : 1 (0x1)Формат : PGSИдентификатор кодека : 144

Текст #22Идентификатор : 4629 (0x1215)Идентификатор меню : 1 (0x1)Формат : PGSИдентификатор кодека : 144

Текст #23Идентификатор : 4630 (0x1216)Идентификатор меню : 1 (0x1)Формат : PGSИдентификатор кодека : 144Продолжительность : 2 ч. 3 м.Задержка видео : 4 с. 45 мс.

Текст #24Идентификатор : 4631 (0x1217)Идентификатор меню : 1 (0x1)Формат : PGSИдентификатор кодека : 144Продолжительность : 2 ч. 3 м.Задержка видео : 4 с. 45 мс.

Текст #25Идентификатор : 4632 (0x1218)Идентификатор меню : 1 (0x1)Формат : PGSИдентификатор кодека : 144Продолжительность : 2 ч. 3 м.Задержка видео : 4 с. 45 мс.

Текст #26Идентификатор : 4633 (0x1219)Идентификатор меню : 1 (0x1)Формат : PGSИдентификатор кодека : 144Продолжительность : 2 ч. 3 м.Задержка видео : 4 с. 45 мс.

Текст #27Идентификатор : 4634 (0x121A)Идентификатор меню : 1 (0x1)Формат : PGSИдентификатор кодека : 144Продолжительность : 2 ч. 3 м.Задержка видео : 4 с. 45 мс.

Текст #28Идентификатор : 4635 (0x121B)Идентификатор меню : 1 (0x1)Формат : PGSИдентификатор кодека : 144Продолжительность : 2 ч. 3 м.Задержка видео : 4 с. 45 мс.

piratbit.ru

Скачать фильм Прометей через торрент в хорошем качестве бесплатно 720p от _denis_100 / NNNB] DUB

Format                                   : MatroskaFormat version                           : Version 2File size                                : 7.75 GiBDuration                                 : 2h 3mnOverall bit rate                         : 8 961 KbpsMovie name                               : Prometheus.(2012).BDRip.2012.BDRip.720p.[denis100]Encoded date                             : UTC 2016-01-28 14:42:30Writing application                      : mkvmerge v5.8.0 ('No Sleep / Pillow') built on Sep  2 2012 15:37:04Writing library                          : libebml v1.2.3 + libmatroska v1.3.0

VideoID                                       : 1Format                                   : AVCFormat/Info                              : Advanced Video CodecFormat profile                           : [email protected] settings, CABAC                   : YesFormat settings, ReFrames                : 11 framesCodec ID                                 : V_MPEG4/ISO/AVCDuration                                 : 2h 3mnBit rate                                 : 5 320 KbpsWidth                                    : 1 280 pixelsHeight                                   : 534 pixelsDisplay aspect ratio                     : 2.40:1Frame rate                               : 23.976 fpsColor space                              : YUVChroma subsampling                       : 4:2:0Bit depth                                : 8 bitsScan type                                : ProgressiveBits/(Pixel*Frame)                       : 0.325Stream size                              : 4.44 GiB (57%)Title                                    : Prometheus.(2012).BDRip.2012.BDRip.720p.[denis100]Writing library                          : x264 core 148 r2638 7599210Encoding settings                        : cabac=1 / ref=11 / deblock=1:-3:-3 / analyse=0x3:0x133 / me=umh / subme=11 / psy=1 / psy_rd=1.00:0.00 / mixed_ref=1 / me_range=32 / chroma_me=1 / trellis=2 / 8x8dct=1 / cqm=0 / deadzone=21,11 / fast_pskip=0 / chroma_qp_offset=-2 / threads=6 / lookahead_threads=1 / sliced_threads=0 / nr=0 / decimate=1 / interlaced=0 / bluray_compat=0 / constrained_intra=0 / bframes=10 / b_pyramid=2 / b_adapt=2 / b_bias=0 / direct=3 / weightb=1 / open_gop=0 / weightp=2 / keyint=240 / keyint_min=23 / scenecut=40 / intra_refresh=0 / rc=2pass / mbtree=0 / bitrate=5320 / ratetol=1.0 / qcomp=0.60 / qpmin=0 / qpmax=69 / qpstep=4 / cplxblur=20.0 / qblur=0.5 / ip_ratio=1.40 / pb_ratio=1.30 / aq=1:1.00Language                                 : EnglishDefault                                  : YesForced                                   : No

Audio #1ID                                       : 2Format                                   : AC-3Format/Info                              : Audio Coding 3Mode extension                           : CM (complete main)Codec ID                                 : A_AC3Duration                                 : 2h 3mnBit rate mode                            : ConstantBit rate                                 : 448 KbpsChannel(s)                               : 6 channelsChannel positions                        : Front: L C R, Side: L R, LFESampling rate                            : 48.0 KHzBit depth                                : 16 bitsCompression mode                         : LossyStream size                              : 397 MiB (5%)Title                                    : ДубляжLanguage                                 : RussianDefault                                  : YesForced                                   : No

Audio #2ID                                       : 3Format                                   : AC-3Format/Info                              : Audio Coding 3Mode extension                           : CM (complete main)Codec ID                                 : A_AC3Duration                                 : 2h 3mnBit rate mode                            : ConstantBit rate                                 : 640 KbpsChannel(s)                               : 6 channelsChannel positions                        : Front: L C R, Side: L R, LFESampling rate                            : 48.0 KHzBit depth                                : 16 bitsCompression mode                         : LossyStream size                              : 567 MiB (7%)Title                                    : Авторский, Ю. СербинLanguage                                 : RussianDefault                                  : NoForced                                   : No

Audio #3ID                                       : 4Format                                   : AC-3Format/Info                              : Audio Coding 3Mode extension                           : CM (complete main)Codec ID                                 : A_AC3Duration                                 : 2h 3mnBit rate mode                            : ConstantBit rate                                 : 640 KbpsChannel(s)                               : 6 channelsChannel positions                        : Front: L C R, Side: L R, LFESampling rate                            : 48.0 KHzBit depth                                : 16 bitsCompression mode                         : LossyStream size                              : 567 MiB (7%)Title                                    : Авторский, А. ГавриловLanguage                                 : RussianDefault                                  : NoForced                                   : No

Audio #4ID                                       : 5Format                                   : AC-3Format/Info                              : Audio Coding 3Mode extension                           : CM (complete main)Codec ID                                 : A_AC3Duration                                 : 2h 3mnBit rate mode                            : ConstantBit rate                                 : 640 KbpsChannel(s)                               : 6 channelsChannel positions                        : Front: L C R, Side: L R, LFESampling rate                            : 48.0 KHzBit depth                                : 16 bitsCompression mode                         : LossyStream size                              : 567 MiB (7%)Title                                    : Авторский, В. ГорчаковLanguage                                 : RussianDefault                                  : NoForced                                   : No

Audio #5ID                                       : 6Format                                   : AC-3Format/Info                              : Audio Coding 3Mode extension                           : CM (complete main)Codec ID                                 : A_AC3Duration                                 : 2h 3mnBit rate mode                            : ConstantBit rate                                 : 640 KbpsChannel(s)                               : 6 channelsChannel positions                        : Front: L C R, Side: L R, LFESampling rate                            : 48.0 KHzBit depth                                : 16 bitsCompression mode                         : LossyStream size                              : 567 MiB (7%)Title                                    : Авторский, А. МатвеевLanguage                                 : RussianDefault                                  : NoForced                                   : No

Audio #6ID                                       : 7Format                                   : AC-3Format/Info                              : Audio Coding 3Mode extension                           : CM (complete main)Codec ID                                 : A_AC3Duration                                 : 2h 3mnBit rate mode                            : ConstantBit rate                                 : 640 KbpsChannel(s)                               : 6 channelsChannel positions                        : Front: L C R, Side: L R, LFESampling rate                            : 48.0 KHzBit depth                                : 16 bitsCompression mode                         : LossyStream size                              : 567 MiB (7%)Language                                 : EnglishDefault                                  : NoForced                                   : No

Text #1ID                                       : 8Format                                   : UTF-8Codec ID                                 : S_TEXT/UTF8Codec ID/Info                            : UTF-8 Plain TextTitle                                    : ForcedLanguage                                 : RussianDefault                                  : YesForced                                   : No

Text #2ID                                       : 9Format                                   : UTF-8Codec ID                                 : S_TEXT/UTF8Codec ID/Info                            : UTF-8 Plain TextTitle                                    : BD EURLanguage                                 : RussianDefault                                  : NoForced                                   : No

Text #3ID                                       : 10Format                                   : UTF-8Codec ID                                 : S_TEXT/UTF8Codec ID/Info                            : UTF-8 Plain TextTitle                                    : VoronineLanguage                                 : RussianDefault                                  : NoForced                                   : No

Text #4ID                                       : 11Format                                   : UTF-8Codec ID                                 : S_TEXT/UTF8Codec ID/Info                            : UTF-8 Plain TextTitle                                    : FullLanguage                                 : EnglishDefault                                  : NoForced                                   : No

Text #5ID                                       : 12Format                                   : UTF-8Codec ID                                 : S_TEXT/UTF8Codec ID/Info                            : UTF-8 Plain TextTitle                                    : SDHLanguage                                 : EnglishDefault                                  : NoForced                                   : No

Menu00:00:00.000                             : en:Chapter 100:05:13.146                             : en:Chapter 200:07:44.881                             : en:Chapter 300:11:31.524                             : en:Chapter 400:15:09.784                             : en:Chapter 500:20:04.912                             : en:Chapter 600:22:32.810                             : en:Chapter 700:27:43.120                             : en:Chapter 800:31:57.833                             : en:Chapter 900:34:10.840                             : en:Chapter 1000:37:53.229                             : en:Chapter 1100:40:45.360                             : en:Chapter 1200:45:49.330                             : en:Chapter 1300:48:47.925                             : en:Chapter 1400:50:23.062                             : en:Chapter 1500:53:56.400                             : en:Chapter 1600:56:32.222                             : en:Chapter 1700:59:31.610                             : en:Chapter 1801:01:29.185                             : en:Chapter 1901:04:17.562                             : en:Chapter 2001:06:01.457                             : en:Chapter 2101:08:57.884                             : en:Chapter 2201:11:13.519                             : en:Chapter 2301:15:10.631                             : en:Chapter 2401:17:06.038                             : en:Chapter 2501:25:02.306                             : en:Chapter 2601:27:09.349                             : en:Chapter 2701:30:10.363                             : en:Chapter 2801:32:43.725                             : en:Chapter 2901:35:23.134                             : en:Chapter 3001:37:46.861                             : en:Chapter 3101:40:46.374                             : en:Chapter 3201:43:46.220                             : en:Chapter 3301:48:28.794                             : en:Chapter 3401:52:08.096                             : en:Chapter 3501:58:06.288                             : en:Chapter 36

piratbit.ru

Скачать фильм Прометей через торрент в хорошем качестве бесплатно BDRip-AVC] DUB + Original + Ukr + Sub (rus.

ОбщееУникальный идентификатор : 224281221592981388388074056402553098351 (0xA8BAFDF7D6AFAEA7B240B8BCB295506F)Полное имя : Prometej.2012.D.BDRip.x264.potroks.mkvФормат : MatroskaВерсия формата : Version 2Размер файла : 2,18 ГбайтПродолжительность : 2 ч. 3 м.Общий поток : 2523 Кбит/секНазвание фильма : -=POTROKS=-Дата кодирования : UTC 2012-09-29 18:42:22Программа кодирования : mkvmerge v5.7.0 ('The Whirlwind') built on Jul 8 2012 20:08:51Библиотека кодирования : libebml v1.2.3 + libmatroska v1.3.0

ВидеоИдентификатор : 1Формат : AVCФормат/Информация : Advanced Video CodecПрофиль формата : [email protected]Параметр CABAC формата : ДаПараметр ReFrames формата : 10 кадровИдентификатор кодека : V_MPEG4/ISO/AVCПродолжительность : 2 ч. 3 м.Битрейт : 1754 Кбит/секШирина : 1024 пикселяВысота : 424 пикселяСоотношение сторон : 2,40:1Соотношение сторон в оригинале : 2,40:1Режим частоты кадров : ПеременныйЧастота кадров : 23,976 кадра/секЦветовое пространство : YUVСубдискретизация насыщенности : 4:2:0Битовая глубина : 8 битТип развёртки : ПрогрессивнаяБит/(Пиксели*Кадры) : 0.168Размер потока : 1,47 Гбайт (68%)Заголовок : Prometej.2012.D.BDRip.x264.potroksБиблиотека кодирования : x264 core 128 r2216M 198a7eaНастройки программы : cabac=1 / ref=11 / deblock=1:-3:-2 / analyse=0x3:0x133 / me=umh / subme=11 / psy=1 / psy_rd=1.00:0.00 / mixed_ref=1 / me_range=48 / chroma_me=1 / trellis=2 / 8x8dct=1 / cqm=0 / deadzone=21,11 / fast_pskip=0 / chroma_qp_offset=-2 / threads=8 / lookahead_threads=1 / sliced_threads=0 / nr=0 / decimate=1 / interlaced=0 / bluray_compat=0 / constrained_intra=0 / bframes=12 / b_pyramid=1 / b_adapt=2 / b_bias=0 / direct=3 / weightb=1 / open_gop=0 / weightp=2 / keyint=240 / keyint_min=23 / scenecut=40 / intra_refresh=0 / rc_lookahead=100 / rc=2pass / mbtree=1 / bitrate=1754 / ratetol=1.0 / qcomp=0.70 / qpmin=10 / qpmax=51 / qpstep=4 / cplxblur=20.0 / qblur=0.5 / vbv_maxrate=20000 / vbv_bufsize=20000 / nal_hrd=none / ip_ratio=1.35 / aq=1:1.00Язык : EnglishDefault : ДаForced : Нет

Аудио #1Идентификатор : 2Формат : AC-3Формат/Информация : Audio Coding 3Расширение режима : CM (complete main)Параметр Endianness формата : BigИдентификатор кодека : A_AC3Продолжительность : 2 ч. 3 м.Вид битрейта : ПостоянныйБитрейт : 384 Кбит/секКаналы : 6 каналовРасположение каналов : Front: L C R, Side: L R, LFEЧастота : 48,0 КГцБитовая глубина : 16 битМетод сжатия : С потерямиЗадержка видео : 27 мс.Размер потока : 340 Мбайт (15%)Заголовок : DD. 5.1 ch., 384 kbpsЯзык : RussianDefault : ДаForced : Да

Аудио #2Идентификатор : 3Формат : AC-3Формат/Информация : Audio Coding 3Расширение режима : CM (complete main)Параметр Endianness формата : BigИдентификатор кодека : A_AC3Продолжительность : 2 ч. 3 м.Вид битрейта : ПостоянныйБитрейт : 384 Кбит/секКаналы : 6 каналовРасположение каналов : Front: L C R, Side: L R, LFEЧастота : 48,0 КГцБитовая глубина : 16 битМетод сжатия : С потерямиЗадержка видео : 27 мс.Размер потока : 340 Мбайт (15%)Заголовок : DD. 5.1 ch., 384 kbpsЯзык : EnglishDefault : НетForced : Нет

Текст #1Идентификатор : 4Формат : UTF-8Идентификатор кодека : S_TEXT/UTF8Идентификатор кодека/Информация : UTF-8 Plain TextЯзык : RussianDefault : НетForced : Нет

Текст #2Идентификатор : 5Формат : UTF-8Идентификатор кодека : S_TEXT/UTF8Идентификатор кодека/Информация : UTF-8 Plain TextЯзык : UkrainianDefault : НетForced : Нет

Текст #3Идентификатор : 6Формат : UTF-8Идентификатор кодека : S_TEXT/UTF8Идентификатор кодека/Информация : UTF-8 Plain TextЯзык : EnglishDefault : НетForced : Нет

piratbit.ru

/ Prometheus ( / Ridley Scott) [2012 ., , , , , , BDRemux 1080p] Dub + 2xAVO (, ) + Original (eng) + Subs (rus, ukr, eng)

General Unique ID : 230629025669745215598032675734070505981 (0xAD8188DF5C77CA8892E221C53F0431FD) Complete name : D:\Prometheus.2012.BDRemux.mkv Format : Matroska File size : 38.9 GiB Duration : 2h 3mn Overall bit rate : 45.0 Mbps Movie name : Encoded date : UTC 2012-12-28 15:47:49 Writing application : mkvmerge v5.1.0 ('And so it goes') built on Nov 28 2011 23:58:28 Writing library : libebml v1.2.3 + libmatroska v1.3.0 Attachment : Yes / Yes

Video

ID : 1 Format : AVC Format/Info : Advanced Video Codec Format profile : [email protected] Format settings, CABAC : Yes Format settings, ReFrames : 2 frames Codec ID : V_MPEG4/ISO/AVC Duration : 2h 3mn Bit rate mode : Variable Bit rate : 37.7 Mbps Width : 1 920 pixels Height : 1 080 pixels Display aspect ratio : 16:9 Frame rate : 23.976 fps Color space : YUV Chroma subsampling : 4:2:0 Bit depth : 8 bits Scan type : Progressive Bits/(Pixel*Frame) : 0.758 Stream size : 32.6 GiB (84%) Title : Language : English

Audio #1

ID : 2 Format : DTS Format/Info : Digital Theater Systems Codec ID : A_DTS Duration : 2h 3mn Bit rate mode : Constant Bit rate : 755 Kbps Channel(s) : 6 channels Channel positions : Front: L C R, Side: L R, LFE Sampling rate : 48.0 KHz Bit depth : 24 bits Compression mode : Lossy Stream size : 668 MiB (2%) Title : DTS - (Blu-ray EUR) Language : Russian

Audio #2

ID : 3 Format : DTS Format/Info : Digital Theater Systems Format profile : MA / Core Codec ID : A_DTS Duration : 2h 3mn Bit rate mode : Variable Bit rate : 1 597 Kbps / 1 510 Kbps Channel(s) : 8 channels / 6 channels Channel positions : Front: L C R, Side: L R, Back: L R, LFE / Front: L C R, Side: L R, LFE Sampling rate : 48.0 KHz Bit depth : 24 bits Compression mode : Lossless / Lossy Title : DTS-HD - AVO (. ) Language : Russian

[b]Audio #3[/b]

ID : 4 Format : DTS Format/Info : Digital Theater Systems Format profile : MA / Core Codec ID : A_DTS Duration : 2h 3mn Bit rate mode : Variable Bit rate : 1 597 Kbps / 1 510 Kbps Channel(s) : 8 channels / 6 channels Channel positions : Front: L C R, Side: L R, Back: L R, LFE / Front: L C R, Side: L R, LFE Sampling rate : 48.0 KHz Bit depth : 24 bits Compression mode : Lossless / Lossy Title : DTS-HD - AVO (. ) Language : Russian

Audio #4

ID : 5 Format : AC-3 Format/Info : Audio Coding 3 Mode extension : CM (complete main) Codec ID : A_AC3 Duration : 2h 3mn Bit rate mode : Constant Bit rate : 448 Kbps Channel(s) : 6 channels Channel positions : Front: L C R, Side: L R, LFE Sampling rate : 48.0 KHz Bit depth : 16 bits Compression mode : Lossy Stream size : 397 MiB (1%) Title : AC3 - (Blu-ray EUR) Language : Ukrainian

Audio #5

ID : 6 Format : DTS Format/Info : Digital Theater Systems Format profile : MA / Core Codec ID : A_DTS Duration : 2h 3mn Bit rate mode : Variable Bit rate : 1 597 Kbps / 1 510 Kbps Channel(s) : 8 channels / 6 channels Channel positions : Front: L C R, Side: L R, Back: L R, LFE / Front: L C R, Side: L R, LFE Sampling rate : 48.0 KHz Bit depth : 24 bits Compression mode : Lossless / Lossy Title : DTS-HD Language : English

Audio #6

ID : 7 Format : AC-3 Format/Info : Audio Coding 3 Mode extension : CM (complete main) Codec ID : A_AC3 Duration : 2h 3mn Bit rate mode : Constant Bit rate : 224 Kbps Channel(s) : 2 channels Channel positions : Front: L R Sampling rate : 48.0 KHz Bit depth : 16 bits Compression mode : Lossy Stream size : 198 MiB (0%) Title : AC3 - Commentary #1 (Ridley Scott) Language : English

Audio #7

ID : 8 Format : AC-3 Format/Info : Audio Coding 3 Mode extension : CM (complete main) Codec ID : A_AC3 Duration : 2h 3mn Bit rate mode : Constant Bit rate : 224 Kbps Channel(s) : 2 channels Channel positions : Front: L R Sampling rate : 48.0 KHz Bit depth : 16 bits Compression mode : Lossy Stream size : 198 MiB (0%) Title : AC3 - Commentary #2 (Jon Spaihts, Damon Lindelof) Language : English

Text #1

ID : 9 Format : UTF-8 Codec ID : S_TEXT/UTF8 Codec ID/Info : UTF-8 Plain Text Title : Forced Language : Russian

Text #2

ID : 10 Format : UTF-8 Codec ID : S_TEXT/UTF8 Codec ID/Info : UTF-8 Plain Text Title : BD Language : Russian

Text #3

ID : 11 Format : UTF-8 Codec ID : S_TEXT/UTF8 Codec ID/Info : UTF-8 Plain Text Title : Voronine Language : Russian

Text #4

ID : 12 Format : UTF-8 Codec ID : S_TEXT/UTF8 Codec ID/Info : UTF-8 Plain Text Title : 107miller Language : Russian

Text #5

ID : 13 Format : UTF-8 Codec ID : S_TEXT/UTF8 Codec ID/Info : UTF-8 Plain Text Title : Stevvie Language : Russian

Text #6

ID : 14 Format : UTF-8 Codec ID : S_TEXT/UTF8 Codec ID/Info : UTF-8 Plain Text Title : Commentary #1 (Ridley Scott) Language : Russian

Text #7

ID : 15 Format : UTF-8 Codec ID : S_TEXT/UTF8 Codec ID/Info : UTF-8 Plain Text Title : Commentary #2 (Jon Spaihts, Damon Lindelof) Language : Russian

Text #8

ID : 16 Format : UTF-8 Codec ID : S_TEXT/UTF8 Codec ID/Info : UTF-8 Plain Text Title : Forced Language : Ukrainian

Text #9

ID : 17 Format : UTF-8 Codec ID : S_TEXT/UTF8 Codec ID/Info : UTF-8 Plain Text Title : BD Language : Ukrainian

Text #10

ID : 18 Format : UTF-8 Codec ID : S_TEXT/UTF8 Codec ID/Info : UTF-8 Plain Text Title : Full Language : English

Text #11

ID : 19 Format : UTF-8 Codec ID : S_TEXT/UTF8 Codec ID/Info : UTF-8 Plain Text Title : SDH Language : English

Menu

00:00:00.000 : en:Chapter 1 00:05:13.146 : en:Chapter 2 00:07:44.881 : en:Chapter 3 00:11:31.524 : en:Chapter 4 00:15:09.784 : en:Chapter 5 00:20:04.912 : en:Chapter 6 00:22:32.810 : en:Chapter 7 00:27:43.120 : en:Chapter 8 00:31:57.833 : en:Chapter 9 00:34:10.840 : en:Chapter 10 00:37:53.229 : en:Chapter 11 00:40:45.360 : en:Chapter 12 00:45:49.330 : en:Chapter 13 00:48:47.925 : en:Chapter 14 00:50:23.062 : en:Chapter 15 00:53:56.400 : en:Chapter 16 00:56:32.222 : en:Chapter 17 00:59:31.610 : en:Chapter 18 01:01:29.185 : en:Chapter 19 01:04:17.562 : en:Chapter 20 01:06:01.457 : en:Chapter 21 01:08:57.884 : en:Chapter 22 01:11:13.519 : en:Chapter 23 01:15:10.631 : en:Chapter 24 01:17:06.038 : en:Chapter 25 01:25:02.306 : en:Chapter 26 01:27:09.349 : en:Chapter 27 01:30:10.363 : en:Chapter 28 01:32:43.725 : en:Chapter 29 01:35:23.134 : en:Chapter 30 01:37:46.861 : en:Chapter 31 01:40:46.374 : en:Chapter 32 01:43:46.220 : en:Chapter 33 01:48:28.794 : en:Chapter 34 01:52:08.096 : en:Chapter 35 01:58:06.288 : en:Chapter 36

unionpeer.com

Скачать фильм Прометей через торрент в хорошем качестве бесплатно 1080p

Размер: 11.2 GB | Добавлен: 1 год 11 мес. назад | Торрент скачан:82 раза
Реклама Дарим 3000 рублей за регистрацию, не упусти свой шанс получить шикарный бонус!!!

03-10-2012 14:57 Прометей Скачать торрент  

Прометей / Prometheus

Прометей / Prometheus

Год выпуска: 2012Страна: США, Великобритания (20th Century Fox, Dune Entertainment, Scott Free Productions, Brandywine Productions Ltd.)Жанр: Фантастика, ТриллерПродолжительность: 02:03:45

Перевод: Профессиональный (дублированный)Русские субтитры: нетРежиссер на русском: Ридли СкоттРежиссер на английском: Ridley Scott

В ролях: Нуми Рапас, Майкл Фассбендер, Шарлиз Терон, Идрис Эльба, Гай Пирс, Логан Маршалл-Грин, Шон Харрис, Рейф Сполл, Иман Эллиотт, Бенедикт Вонг

Описание: В поисках сакрального знания группа ученых отправляется в самые темные и неизведанные чертоги вселенной. Именно там, в отдаленных мирах, находясь на пределе своих умственных и физических возможностей, им предстоит вступить в безжалостную схватку за будущее всего человечества…

Сэмпл: http://sendfile.su/1170597

Качество: BDrip, 1080pКонтейнер: MKVФормат 3D: OverUnder / Вертикальная стереопараПорядок ракурсов: левый ракурс первыйВидео кодек: x264Аудио кодек: DTSВидео: AVC / 23,976 fps / 1920х1600 / 11,3 Мбит/секАудио: Русский / DTS / 48 KHz / 5.1 ch / 768 Кбит/секАудио 2: Английский / AC3 / 48 KHz / 5.1 ch / 640 Кбит/сек

Релиз группы: ВНИМАНИЕ ! На встроенных ТВ-плеерах работать не будет!!!

ТВ Samsung в названии которого есть надпись Ultra HD , и LG Ultra HD 800 серии(исключение: LG UB850v не воспроизводит),Xiaomi Mi TV 2 воспроизводят полные стереопары встроенными плеерами Железные плееры на которых воспроизводятся полные стереопары:Popcorn C-200 , Dune HD Smart D1 , Dune HD DUO , Dune HD Smart h2 , Dune HD Smart B1 , Dune HD Max , Dune HD TV-303D , Dune HD Base 3D, Philips HMP7001, Aura HD

03.11.2015. Релиз обновлён, обрезаны полосы на видео, изменены настройки кодирования.Желающие, скачайте заново торрент-файл.

ОбщееУникальный идентификатор : 193478105558414565104519892358996248575 (0x918E8717DC30B564BC852FE5392947FF)Полное имя : E:\закачки\Prometheus.Rip by SeRoGa00.mkvФормат : MatroskaВерсия формата : Version 2Размер файла : 11,2 ГбайтПродолжительность : 2 ч. 3 м.Общий поток : 12,9 Мбит/секДата кодирования : UTC 2015-11-03 06:07:14Программа кодирования : mkvmerge v3.4.0 ('Rapunzel') сборка от May 15 2010 09:38:20Библиотека кодирования : libebml v0.8.0 + libmatroska v0.9.0

ВидеоИдентификатор : 1Формат : AVCФормат/Информация : Advanced Video CodecПрофиль формата : [email protected]Параметр CABAC формата : ДаПараметр ReFrames формата : 4 кадраИдентификатор кодека : V_MPEG4/ISO/AVCПродолжительность : 2 ч. 3 м.Битрейт : 11,3 Мбит/секШирина : 1920 пикселейВысота : 1600 пикселейСоотношение сторон : 1,200Частота кадров : 23,976 кадра/секЦветовое пространство : YUVСубдискретизация насыщенности : 4:2:0Битовая глубина : 8 битТип развёртки : ПрогрессивнаяБит/(Пиксели*Кадры) : 0.153Размер потока : 9,77 Гбайт (87%)Заголовок : Rip by SeRoGa00Библиотека кодирования : x264 core 148 r2638 7599210Настройки программы : cabac=1 / ref=4 / deblock=1:-3:-3 / analyse=0x3:0x113 / me=umh / subme=9 / psy=1 / psy_rd=1.00:0.15 / mixed_ref=1 / me_range=24 / chroma_me=1 / trellis=2 / 8x8dct=1 / cqm=0 / deadzone=21,11 / fast_pskip=1 / chroma_qp_offset=-3 / threads=9 / lookahead_threads=1 / sliced_threads=0 / nr=0 / decimate=1 / interlaced=0 / bluray_compat=0 / constrained_intra=0 / bframes=8 / b_pyramid=2 / b_adapt=2 / b_bias=0 / direct=3 / weightb=1 / open_gop=0 / weightp=2 / keyint=250 / keyint_min=23 / scenecut=40 / intra_refresh=0 / rc_lookahead=60 / rc=crf / mbtree=1 / crf=18.0 / qcomp=0.60 / qpmin=10 / qpmax=69 / qpstep=4 / vbv_maxrate=30000 / vbv_bufsize=30000 / crf_max=0.0 / nal_hrd=none / filler=0 / ip_ratio=1.40 / aq=1:1.00Язык : EnglishDefault : НетForced : Нет

Аудио #1Идентификатор : 2Формат : DTSФормат/Информация : Digital Theater SystemsИдентификатор кодека : A_DTSПродолжительность : 2 ч. 3 м.Вид битрейта : ПостоянныйБитрейт : 768 Кбит/секКаналы : 6 каналовРасположение каналов : Front: L C R, Side: L R, LFEЧастота : 48,0 КГцБитовая глубина : 24 битМетод сжатия : С потерямиРазмер потока : 668 Мбайт (6%)Язык : RussianDefault : ДаForced : Нет

Аудио #2Идентификатор : 3Формат : AC-3Формат/Информация : Audio Coding 3Расширение режима : CM (complete main)Параметр Endianness формата : BigИдентификатор кодека : A_AC3Продолжительность : 2 ч. 3 м.Вид битрейта : ПостоянныйБитрейт : 640 Кбит/секКаналы : 6 каналовРасположение каналов : Front: L C R, Side: L R, LFEЧастота : 48,0 КГцБитовая глубина : 16 битМетод сжатия : С потерямиРазмер потока : 567 Мбайт (5%)Язык : EnglishDefault : НетForced : Нет

Скачать Прометей через торрент http://i41.fastpic.ru/big/2012/1003/c0/b2b845b78abf91178207c1ecf1ce34c0.jpg Скачать фильм Прометей через торрент бесплантно в хорошем качестве Описание: В поисках сакрального знания группа ученых отправляется в самые темные и неизведанные чертоги вселенной. Именно там, в отдаленных ... 2015-11-03 07:45 9.5 10 15

Loading...

Loading...

Последний раз редактировалось: serega768 (2015-11-03 09:46), всего редактировалось 3 раз(а)

Рекламный пират

01-01-2013 16:54 Прометей Скачать торрент  

Сюжет- хрень! Качество- класс!

02-01-2013 09:18 Прометей Скачать торрент  

Joe56 писал(а):

Сюжет- хрень! Качество- класс!

OverUnder / Вертикальная стереопара качество намного лучше чем у анаморфной стереопары и наиболее приближено к Blu-Ray Disc.

04-01-2013 21:27 Прометей Скачать торрент  

Так это все конечно хорошо, а можно на компе его запустить и на телек вывести, то есть я так понимаю стандартные плееры здесь не помогут.... Пауер ДВД тоже не выручил а еще варианты есть?

07-01-2013 16:29 Прометей Скачать торрент  

Olegs28 писал(а):

Так это все конечно хорошо, а можно на компе его запустить и на телек вывести, то есть я так понимаю стандартные плееры здесь не помогут.... Пауер ДВД тоже не выручил а еще варианты есть?

Stereoscopic Player , KMPlayer 3.3 и выше. Подключать телек по HDMI

20-02-2013 20:11 Прометей Скачать торрент  

Блин ,вопрос ,а у меня покатит или нет?Телик 42LM660S--смартТВ???

23-02-2013 02:45 Прометей Скачать торрент  

marrli писал(а):

Блин ,вопрос ,а у меня покатит или нет?Телик 42LM660S--смартТВ???

ВНИМАНИЕ ! :На встроенных ТВ-плейерах работать не будет!!!

28-01-2014 18:18 Прометей Скачать торрент  

действительно,встроенный не работает.

04-02-2014 03:22 Прометей Скачать торрент  

Что-то сюжет до боли знакомый. Никак "Чужой" по второму кругу пошел. Игра актеров, качество фильма отменное. Но досмотрев до половины уже стало понятно чем все это закончится. Тем не менее ждем продолжения.Спасибо за раздачу.

Pекламный агент PB

04-10-2014 16:36 Прометей Скачать торрент  

на встроеном тв плеере идет если смотреть через dlna медия-сервер

03-11-2015 07:45 Прометей Скачать торрент  

03.11.2015. Релиз обновлён, обрезаны полосы на видео, изменены настройки кодирования.Желающие, скачайте заново торрент-файл.

Дорогой пользователь! Огромная просьба, поблагодарите релизера, оцените раздачу и оставьте свои комментарий, если Вы скачали Прометей через торрент бесплатно! Внесите свою лепту в развитие PiratBit!

Комментировать посты могут только пользователи прошедшие не сложную регистрацию

Прометей через торрент Скачать бесплатно Прометей Прометей скачать торрент Прометей смотреть онлайн Cкачать фильм Прометей бесплатно Прометей скачать торрент в хорошем качестве Прометей смотреть онлайн бесплатно в хорошем качестве

Вы не можете начинать темыВы не можете отвечать на сообщенияВы не можете редактировать свои сообщенияВы не можете удалять свои сообщенияВы не можете голосовать в опросахВы не можете прикреплять файлы к сообщениямВы можете скачивать файлы

piratbit.ru


Смотрите также