Скачать фильм ральф через торрент в хорошем качестве бесплатно


Скачать фильм Ральф через торрент в хорошем качестве бесплатно HDRip

Раздают: 4 [ 0 KB/s ]
Размер: 1.46 GB | Добавлен: 4 года 7 мес. назад | Торрент скачан:3778 раз
Реклама Дарим 3000 рублей за регистрацию, не упусти свой шанс получить шикарный бонус!!!

26-02-2013 03:52 Ральф Скачать торрент  

Ральф / Wreck-It Ralph

Год выпуска: 2012Страна: СШАЖанр: мультфильм, комедия, приключения, семейныйПродолжительность: 01:41:13Перевод: Дубляж, ЛицензияТип релиза: Лицензия

Режиссер: Рич МурПродюссер: Кларк Спенсер, Моника Лаго-Кэйтис, Джон ЛассетерСценарий: Фил Джонстон, Дженнифер Ли, Рич Мур

Мировой рейтинг IMDB 7.90 (57 754)

В ролях: Джон Си Райли, Джек МакБрайер, Сара Силверман, Джейн Линч, Алан Тьюдик, Минди Калинг, Джо Ло Трульо, Эд О’Нил, Деннис Хейсбёрт, Эди МакКлёрг, Станислав Дужников, Александр Гудков, Наталия Медведева, Регина Щукина, Валентин Морозов

Описание: Ральф — второстепенный персонаж восьмибитной компьютерной игры, и ему надоело находиться в тени главного героя, мастера на все руки Феликса, который всегда появляется, чтобы «исправить» ситуацию! После тридцати лет добросовестной работы в роли злодея, в течение которых все похвалы выпадали на долю Феликса, Ральф больше не хочет быть плохим.Он решает отправиться в путешествие по аркадным играм разных жанров, чтобы доказать всем, что и он тоже может быть героем. На своем пути Ральф встречает героев разных игр — хладнокровную сержанта Калхун из игры Hero’s Duty, оберегающую планету от нашествия инопланетных захватчиков, и сладкую на вид, но острую на язычок Сластену фон Дю, чье существование в гоночном симуляторе Sugar Rush внезапно оказывается под угрозой. Наконец-то Ральфу выпадает шанс показать, что он умеет не только разрушать!

Качество: HDRip [720p.BluRay.DD5.1.x264-HiDt]Формат: AVIВидео кодек: XviDАудио кодек: AC3Видео: 720x304 (2.37:1), 23.976 fps, XviD build 50 ~1666 kbps avg, 0.32 bit/pixelАудио#1: 48 kHz, AC3 Dolby Digital, 3/2 (L,C,R,l,r) + LFE ch, ~384 kbpsРелиз от:

GeneralComplete name : H:Ralf.2012.D.HDRip.IRONCLUB.aviFormat : AVIFormat/Info : Audio Video InterleaveFile size : 1.46 GiBDuration : 1h 41mnOverall bit rate : 2 060 KbpsMovie name : Ralf.2012.D.HDRip.IRONCLUBDirector : Genre : Animation, Comedy, FamilyWriting application : VirtualDubMod 1.5.10.2 (build 2540/release)Original source form/Name : CartoonCopyright :

VideoID : 0Format : MPEG-4 VisualFormat profile : Advanced [email protected] settings, BVOP : 1Format settings, QPel : NoFormat settings, GMC : No warppointsFormat settings, Matrix : CustomCodec ID : XVIDCodec ID/Hint : XviDDuration : 1h 41mnBit rate : 1 667 KbpsWidth : 720 pixelsHeight : 304 pixelsDisplay aspect ratio : 2.35:1Frame rate : 23.976 fpsColor space : YUVChroma subsampling : 4:2:0Bit depth : 8 bitsScan type : ProgressiveCompression mode : LossyBits/(Pixel*Frame) : 0.318Stream size : 1.18 GiB (81%)Writing library : XviD 1.2.1 (UTC 2008-12-04)

AudioID : 1Format : AC-3Format/Info : Audio Coding 3Mode extension : CM (complete main)Format settings, Endianness : BigCodec ID : 2000Duration : 1h 41mnBit rate mode : ConstantBit rate : 384 KbpsChannel(s) : 6 channelsChannel positions : Front: L C R, Side: L R, LFESampling rate : 48.0 KHzBit depth : 16 bitsCompression mode : LossyStream size : 278 MiB (19%)Alignment : Split accross interleavesInterleave, duration : 42 ms (1.00 video frame)Interleave, preload duration : 500 ms

Ральф скачать торрент

Скачать Ральф через торрент http://pic.pb.wtf/images/2/wzuztg2ego.png Скачать фильм Ральф через торрент бесплантно в хорошем качестве Описание: Ральф — второстепенный персонаж восьмибитной компьютерной игры, и ему надоело находиться в тени главного героя, мастера на все ... 2013-02-26 03:52 9.7 10 38

Loading...

Loading...

Рекламный пират

26-02-2013 08:29 Ральф Скачать торрент  

прикольный мульт!!!!

26-02-2013 09:16 Ральф Скачать торрент  

наверное стоит указать что это лицуха с iTunes Russia

26-02-2013 12:00 Ральф Скачать торрент  

Мне кажется или не я один качаю потому что там будет bug hunt скриллекса

26-02-2013 20:28 Ральф Скачать торрент  

Мультик - СУПЕР!!!!!! : :tease:

Последний раз редактировалось: bodya1980 (2013-03-01 06:18), всего редактировалось 1 раз

01-03-2013 06:01 Ральф Скачать торрент  

Userman4ik писал(а):

наверное стоит указать что это лицуха с iTunes Russia

А в чем разница то?

31-10-2013 20:34 Ральф Скачать торрент  

Четкий мультфильм, интирессный и с сюжетом даже, скачаю посматрю еще расс с девушкой, ей точно понравится.

Дорогой пользователь! Огромная просьба, поблагодарите релизера, оцените раздачу и оставьте свои комментарий, если Вы скачали Ральф через торрент бесплатно! Внесите свою лепту в развитие PiratBit!

Комментировать посты могут только пользователи прошедшие не сложную регистрацию

Ральф через торрент Скачать бесплатно Ральф Ральф скачать торрент Ральф смотреть онлайн Cкачать фильм Ральф бесплатно Ральф скачать торрент в хорошем качестве Ральф смотреть онлайн бесплатно в хорошем качестве

Вы не можете начинать темыВы не можете отвечать на сообщенияВы не можете редактировать свои сообщенияВы не можете удалять свои сообщенияВы не можете голосовать в опросахВы не можете прикреплять файлы к сообщениямВы можете скачивать файлы

piratbit.ru

Скачать фильм Ральф через торрент в хорошем качестве бесплатно BDRip-AVC

ОбщееУникальный идентификатор : 175311978244633652180040007953520529560 (0x83E3DBDDAA97203683945CE8FC981098)Полное имя : D:ФильмыRalf.2012.D.BDRip.AVC.Sудья.mkvФормат : MatroskaВерсия формата : Version 4 / Version 2Размер файла : 2,04 ГбайтПродолжительность : 1 ч. 41 м.Общий поток : 2890 Кбит/секНазвание фильма : Ralf.2012.D.BDRip-AVC.by SудьяюДата кодирования : UTC 2013-02-27 10:36:45Программа кодирования : mkvmerge v6.0.0 ('Coming Up For Air') built on Jan 20 2013 09:52:00Библиотека кодирования : libebml v1.3.0 + libmatroska v1.4.0

ВидеоИдентификатор : 1Формат : AVCФормат/Информация : Advanced Video CodecПрофиль формата : [email protected]Параметр CABAC формата : НетПараметр ReFrames формата : 4 кадраИдентификатор кодека : V_MPEG4/ISO/AVCПродолжительность : 1 ч. 41 м.Битрейт : 1855 Кбит/секШирина : 1024 пикселяВысота : 428 пикселейСоотношение сторон : 2,40:1Режим частоты кадров : ПостоянныйЧастота кадров : 23,976 кадра/секЦветовое пространство : YUVСубдискретизация насыщенности : 4:2:0Битовая глубина : 8 битТип развёртки : ПрогрессивнаяБит/(Пиксели*Кадры) : 0.177Размер потока : 1,28 Гбайт (63%)Заголовок : Ralph.2012.AVC.BluRay.DD5.1.x264Библиотека кодирования : x264 core 115 r2008bm 4c552d8Настройки программы : cabac=0 / ref=1 / deblock=0:0:0 / analyse=0x3:0x3 / me=dia / subme=1 / psy=1 / psy_rd=1.00:0.00 / mixed_ref=0 / me_range=16 / chroma_me=1 / trellis=0 / 8x8dct=1 / cqm=0 / deadzone=21,11 / fast_pskip=1 / chroma_qp_offset=0 / threads=1 / sliced_threads=0 / nr=0 / decimate=1 / interlaced=0 / bluray_compat=0 / constrained_intra=0 / bframes=3 / b_pyramid=2 / b_adapt=1 / b_bias=0 / direct=1 / weightb=0 / open_gop=0 / weightp=0 / keyint=250 / keyint_min=23 / scenecut=40 / intra_refresh=0 / rc=abr / mbtree=0 / bitrate=1855 / ratetol=1.0 / qcomp=0.60 / qpmin=0 / qpmax=69 / qpstep=4 / ip_ratio=1.40 / pb_ratio=1.30 / aq=1:1.00Язык : EnglishDefault : ДаForced : Да

Аудио #1Идентификатор : 2Формат : AC-3Формат/Информация : Audio Coding 3Расширение режима : CM (complete main)Параметр Endianness формата : BigИдентификатор кодека : A_AC3Продолжительность : 1 ч. 41 м.Вид битрейта : ПостоянныйБитрейт : 384 Кбит/секКаналы : 6 каналовРасположение каналов : Front: L C R, Side: L R, LFEЧастота : 48,0 КГцБитовая глубина : 16 битМетод сжатия : С потерямиРазмер потока : 278 Мбайт (13%)Заголовок : DD 5.1 @ 384 kbps - Dub, R5Язык : RussianDefault : ДаForced : Да

Аудио #2Идентификатор : 3Формат : AC-3Формат/Информация : Audio Coding 3Расширение режима : CM (complete main)Параметр Endianness формата : BigИдентификатор кодека : A_AC3Продолжительность : 1 ч. 41 м.Вид битрейта : ПостоянныйБитрейт : 640 Кбит/секКаналы : 6 каналовРасположение каналов : Front: L C R, Side: L R, LFEЧастота : 48,0 КГцБитовая глубина : 16 битМетод сжатия : С потерямиРазмер потока : 463 Мбайт (22%)Заголовок : DD 5.1 @ 640 kbpsЯзык : EnglishDefault : НетForced : Нет

Текст #1Идентификатор : 4Формат : UTF-8Идентификатор кодека : S_TEXT/UTF8Идентификатор кодека/Информация : UTF-8 Plain TextЯзык : RussianDefault : НетForced : Нет

Текст #2Идентификатор : 5Формат : UTF-8Идентификатор кодека : S_TEXT/UTF8Идентификатор кодека/Информация : UTF-8 Plain TextЯзык : EnglishDefault : НетForced : Нет

piratbit.ru

Скачать Ральф через торрент - фильм в хорошем качестве

Категория: Фильмы 3217 0 Торрент добавлен: 15-04-2015 Рейтинг:

Страна: США Продолжительность: 01:41:12 Жанр: мультфильм, комедия, семейный Режиссер: Рич Мур В ролях: Джон Си Райли Джек МакБрайер Сара Силверман Джейн Линч Алан Тьюдик Минди Калинг Джо Ло Труглио Эд О’Нил Деннис Хейсбёрт Эди МакКлёрг

В мире игр существуют герои и злодеи. И жизнь Ральфа разрушителя сложилась так, что он отыгрывает роль злодея в игре, где ему приходится ломать дом, в то время как герой игры мастер Феликс его чинит. И вот, когда жители игры, решают устроить вечеринку в честь 30-ти лет существования игры, они и не подумали пригласить на нее Ральфа. Расстроенный этим фактом Ральф сам приходит на вечеринку и разозленный таким отношением обещает всем завоевать медаль и стать героем.

Трейлер к мультфильму Ральф

Ральф скачать торрент

Формат: M2TSВидео кодек: AVCАудио кодек: AC3Видео: 1920x1080 (16:9), MPEG-4 AVC Video 21595 kbps 1080p / 23,976 fps / 16:9 / High Profile 4.1 Аудио: Аудио: DTS-HD Master Audio English 3734 kbps 5.1 / 48 kHz / 3734 kbps / 24-bit (DTS Core: 5.1 / 48 kHz / 1509 kbps / 24-bit)Проф. (полное дублирование) 37,93 Gb

скачать

Формат: MKVВидео кодек: H.26xАудио кодек: AC3Видео: AVC / [email protected] / 2 pass / 23,976 fps / 1920x1080p / 9,2 Mbps / 0.185 Аудио: Аудио 1: AC3 / 5.1 ch / 640 kbps / Русский дубляж [BD CEE]Проф. (полное дублирование)

7,86 Gb

скачать

Формат: AVIВидео кодек: XviDАудио кодек: AC3Видео: 720x304 (2.35:1), 23.976 fps, XviD 65 ~1668 kbps avg, 0.282 bit/pixelПроф. (полное дублирование)

скачать

Вы находитесь на странице, где можете совершенно бесплатно скачать фильм Ральф в хорошем качестве через торрент, в любом формате, который больше всего вам на данный момент подходит. Скачивание осуществляется через торрент, что означает максимально высокую скорость загрузки. Желаем Вам приятного просмотра!. Не забудь поделиться своими впечатлениями после того как посмотришь фильм Ральф.

Информация Посетители, находящиеся в группе Гости, не могут оставлять комментарии к данной публикации.

psp-gu.ru

Скачать фильм Ральф через торрент в хорошем качестве бесплатно BDRip-AVC

Качают: 1 [ 0 KB/s ]
Размер: 1.46 GB | Добавлен: 4 года 7 мес. назад | Торрент скачан:2145 раз
Реклама Дарим 3000 рублей за регистрацию, не упусти свой шанс получить шикарный бонус!!!

07-03-2013 20:39 Ральф Скачать торрент  

Название: РальфОригинальное название: Wreck-It RalphГод выхода: 2012Жанр: Мультфильм, комедия, приключения, семейныйРежиссер: Рич МурВ ролях: Джон Си Райли, Джек МакБрайер, Джейн Линч, Сара Силверман, Брэндон Т. Джексон, Стефани Скотт, Скотт Менвилль, Скайлар Эстин, Джек Эйнджел, Джеми Элман, Джералд С. РиверзОписание: Ральф — второстепенный персонаж восьмибитной компьютерной игры, и ему надоело находиться в тени главного героя, мастера на все руки Феликса, который всегда появляется, чтобы «исправить» ситуацию! После тридцати лет добросовестной работы в роли злодея, в течение которых все похвалы выпадали на долю Феликса, Ральф больше не хочет быть плохим.Он решает отправиться в путешествие по аркадным играм разных жанров, чтобы доказать всем, что и он тоже может быть героем. На своем пути Ральф встречает героев разных игр — хладнокровную сержанта Калхун из игры Hero’s Duty, оберегающую планету от нашествия инопланетных захватчиков, и сладкую на вид, но острую на язычок Сластену фон Дю, чье существование в гоночном симуляторе Sugar Rush внезапно оказывается под угрозой. Наконец-то Ральфу выпадает шанс показать, что он умеет не только разрушать!Продолжительность: 01:37:52Перевод: Профессиональный (полное дублирование)Выпущено: | СШАКачество: BDRip-AVCФормат: MKV Видео кодек: x264Аудио кодек: ac3 Видео: 1084x454 (2,40:1), 23,976 fps, ~1710 Кbps, 0.145 bit/pixelАудио: 48 kHz, AC-3, 6 ch, ~384 KbpsСубтитры: Русские (форс.)

Размер: 1.46 gb

Приятного просмотра! Скачать Ральф через торрент http://lostpic.net/images/a8555ce42ac61076917c7912f4c3422f.png Скачать фильм Ральф через торрент бесплантно в хорошем качестве Описание: Ральф — второстепенный персонаж восьмибитной компьютерной игры, и ему надоело находиться в тени главного героя, мастера на все ... 2013-03-07 20:39 9.8 10 40

Loading...

Loading...

Последний раз редактировалось: Rzhavec (2013-03-09 02:56), всего редактировалось 11 раз(а)

Рекламный пират

07-03-2013 20:48 Ральф Скачать торрент  

Видеоряд также локализован

Дорогой пользователь! Огромная просьба, поблагодарите релизера, оцените раздачу и оставьте свои комментарий, если Вы скачали Ральф через торрент бесплатно! Внесите свою лепту в развитие PiratBit!

Комментировать посты могут только пользователи прошедшие не сложную регистрацию

Ральф через торрент Скачать бесплатно Ральф Ральф скачать торрент Ральф смотреть онлайн Cкачать фильм Ральф бесплатно Ральф скачать торрент в хорошем качестве Ральф смотреть онлайн бесплатно в хорошем качестве

Вы не можете начинать темыВы не можете отвечать на сообщенияВы не можете редактировать свои сообщенияВы не можете удалять свои сообщенияВы не можете голосовать в опросахВы не можете прикреплять файлы к сообщениямВы можете скачивать файлы

piratbit.ru

Скачать фильм Король Ральф (1991) через торрент

28 июля 2016 06:33 Король Ральф / King Ralph (1991) DVDRip-AVC | P, P2, P1 .torrent   [Информация о файле (нажмите для просмотра)] Перевод #1: Профессиональный (многоголосый закадровый)Перевод #2: Профессиональный (многоголосый закадровый) ОРТПеревод #3: Авторский (одноголосый закадровый) Сергей ВизгуновПеревод #4: Авторский (одноголосый закадровый) А. МихалевПеревод #5: Авторский (одноголосый закадровый) КузнецовФормат: MKVКачество: DVDRip-AVCВидео: 720x384, 25.000 fps, x264, ~2280 kbpsАудио #1: Russian: 48 kHz, DTS, 3/2 (L,C,R,L,r,) + LFE ch, ~768 kbps|Многоголосый закадровый|Аудио #2: Russian: 44 kHz, MP3, 1 ch, ~64 kbps|Многоголосый закадровый, ОРТ|Аудио #3: Russian: 48 kHz, AC3, 2/0 (L,R) ch, ~192.00 kbps avg|Одноголосый закадровый, Сергей Визгунов|Аудио #4: Russian: 48 kHz, AC3, 2/0 (L,R) ch, ~192.00 kbps avg|Одноголосый закадровый, А. Михалев|Аудио #5: Russian: 32 kHz, MP3, 2/0 (L,R) ch, ~96.00 kbps avg|Одноголосый закадровый, Кузнецов|Аудио #6: English: 48 kHz, AC3, 3/2 (L,C,R,l,r) + LFE ch, ~384.00 kbps avgСубтитры: Русские, English, Deutsch, Nederlands, Svenska, Norsk, Dansk, Suomi 2,58 Gb 6 2 28 июля 2016 06:33 Король ральф / King Ralph (1991) HDTVRip 720p .torrent   [Информация о файле (нажмите для просмотра)] Перевод: Профессиональный (многоголосый закадровый) лицензия, Профессиональный (многоголосый закадровый) Селена Интернешнл, Авторский (одноголосый закадровый) А.Михалев| Ю.Живов| С.Визгунов| М.Иванов|Качество: HDTVRip 720pВидео: 1280x694 at 23.976 fps, MPEG-4 AVC, ~5941 kbps avgЗвук: Аудио: Russian: 48 kHz, AC3, 3/2 (L,C,R,l,r) + LFE ch, ~384.00 kbps avg |Многоголосый закадровый| Аудио 2: Russian: 48 kHz, AC3, 2/0 (L,R) ch, ~192.00 kbps avg |Многоголосый закадровый, Селена Интернешнл| Аудио 3: Russian: 48 kHz, AC3, 3/2 (L,C,R,l,r) + LFE ch, ~384.00 kbps avg |Одноголосый закадровый, А.Михалев| Аудио 4: Russian: 48 kHz, AC3, 2/0 (L,R) ch, ~192.00 kbps avg |Одноголосый закадровый, А.Михалев| Аудио 5: Russian: 48 kHz, AC3, 2/0 (L,R) ch, ~192.00 kbps avg |Одноголосый закадровый, Ю.Живов| Аудио 6: Russian: 48 kHz, AC3, 2/0 (L,R) ch, ~192.00 kbps avg |Одноголосый закадровый, С.Визгунов с дамой| Аудио 7: Russian: 48 kHz, AC3, 2/0 (L,R) ch, ~192.00 kbps avg |Одноголосый закадровый, М.Иванов| Аудио 8:English: 48 kHz, AC3, 3/2 (L,C,R,l,r) + LFE ch, ~384.00 kbps avgСубтитры: русские, английскиеВидео: Идентификатор : 1 Формат : AVC Формат/Информация : Advanced Video Codec Профиль формата : [email protected] Параметр CABAC формата : Да Параметр ReFrames формата : 8 кадров Идентификатор кодека : V_MPEG4/ISO/AVC Продолжительность : 1 ч. 36 м. Битрейт : 6118 Кбит/сек Ширина : 1280 пикселей Высота : 694 пикселя Соотношение сторон : 1,85:1 Частота кадров : 23,976 кадра/сек Цветовое пространство : YUV Субдискретизация насыщенности : 4:2:0 Битовая глубина : 8 бит Тип развёртки : Прогрессивная Бит/(Пиксели*Кадры) : 0.287 Размер потока : 4,01 Гбайт (72%) Библиотека кодирования : x264 core 112 r1834+3 ef18685 Настройки программы : cabac=1 / ref=8 / deblock=1:-3:-3 / analyse=0x3:0x133 / me=umh / subme=9 / psy=1 / fade_compensate=0.00 / psy_rd=1.00:0.25 / mixed_ref=1 / me_range=24 / chroma_me=1 / trellis=2 / 8x8dct=1 / cqm=0 / deadzone=6,6 / fast_pskip=1 / chroma_qp_offset=-4 / threads=3 / sliced_threads=0 / nr=0 / decimate=0 / interlaced=0 / constrained_intra=0 / fgo=0 / bframes=3 / b_pyramid=2 / b_adapt=2 / b_bias=0 / direct=3 / weightb=1 / open_gop=0 / weightp=2 / keyint=250 / keyint_min=23 / scenecut=40 / intra_refresh=0 / rc_lookahead=60 / rc=2pass / mbtree=1 / bitrate=6118 / ratetol=1.0 / qcomp=0.80 / qpmin=0 / qpmax=51 / qpstep=4 / cplxblur=20.0 / qblur=0.5 / ip_ratio=1.10 / aq=1:0.50 Язык : English Default : Нет Forced : НетАудио #1: Идентификатор : 2 Формат : AC-3 Формат/Информация : Audio Coding 3 Расширение режима : CM (complete main) Параметр Endianness формата : Big Идентификатор кодека : A_AC3 Продолжительность : 1 ч. 36 м. Вид битрейта : Постоянный Битрейт : 384 Кбит/сек Каналы : 6 каналов Расположение каналов : Front: L C R, Side: L R, LFE Частота : 48,0 КГц Битовая глубина : 16 бит Метод сжатия : С потерями Размер потока : 264 Мбайт (5%) Заголовок : MVO Язык : Russian Default : Да Forced : НетАудио #2: Идентификатор : 3 Формат : AC-3 Формат/Информация : Audio Coding 3 Расширение режима : CM (complete main) Параметр Endianness формата : Big Идентификатор кодека : A_AC3 Продолжительность : 1 ч. 36 м. Вид битрейта : Постоянный Битрейт : 192 Кбит/сек Каналы : 2 канала Расположение каналов : Front: L R Частота : 48,0 КГц Битовая глубина : 16 бит Метод сжатия : С потерями Размер потока : 132 Мбайт (2%) Заголовок : MVO Selena Язык : Russian Default : Нет Forced : НетАудио #3: Идентификатор : 4 Формат : AC-3 Формат/Информация : Audio Coding 3 Расширение режима : CM (complete main) Параметр Endianness формата : Big Идентификатор кодека : A_AC3 Продолжительность : 1 ч. 36 м. Вид битрейта : Постоянный Битрейт : 384 Кбит/сек Каналы : 6 каналов Расположение каналов : Front: L C R, Side: L R, LFE Частота : 48,0 КГц Битовая глубина : 16 бит Метод сжатия : С потерями Размер потока : 264 Мбайт (5%) Заголовок : Mihalev 6ch proper Язык : Russian Default : Нет Forced : НетАудио #4: Идентификатор : 5 Формат : AC-3 Формат/Информация : Audio Coding 3 Расширение режима : CM (complete main) Параметр Endianness формата : Big Идентификатор кодека : A_AC3 Продолжительность : 1 ч. 36 м. Вид битрейта : Постоянный Битрейт : 192 Кбит/сек Каналы : 2 канала Расположение каналов : Front: L R Частота : 48,0 КГц Битовая глубина : 16 бит Метод сжатия : С потерями Размер потока : 132 Мбайт (2%) Заголовок : Mihalev 2ch Язык : Russian Default : Нет Forced : НетАудио #5: Идентификатор : 6 Формат : AC-3 Формат/Информация : Audio Coding 3 Расширение режима : CM (complete main) Параметр Endianness формата : Big Идентификатор кодека : A_AC3 Продолжительность : 1 ч. 36 м. Вид битрейта : Постоянный Битрейт : 192 Кбит/сек Каналы : 2 канала Расположение каналов : Front: L R Частота : 48,0 КГц Битовая глубина : 16 бит Метод сжатия : С потерями Размер потока : 132 Мбайт (2%) Заголовок : Jivov Язык : Russian Default : Нет Forced : НетАудио #6: Идентификатор : 7 Формат : AC-3 Формат/Информация : Audio Coding 3 Расширение режима : CM (complete main) Параметр Endianness формата : Big Идентификатор кодека : A_AC3 Продолжительность : 1 ч. 36 м. Вид битрейта : Постоянный Битрейт : 192 Кбит/сек Каналы : 2 канала Расположение каналов : Front: L R Частота : 48,0 КГц Битовая глубина : 16 бит Метод сжатия : С потерями Размер потока : 132 Мбайт (2%) Заголовок : Vizgunov Язык : Russian Default : Нет Forced : НетАудио #7: Идентификатор : 8 Формат : AC-3 Формат/Информация : Audio Coding 3 Расширение режима : CM (complete main) Параметр Endianness формата : Big Идентификатор кодека : A_AC3 Продолжительность : 1 ч. 36 м. Вид битрейта : Постоянный Битрейт : 192 Кбит/сек Каналы : 2 канала Расположение каналов : Front: L R Частота : 48,0 КГц Битовая глубина : 16 бит Метод сжатия : С потерями Размер потока : 132 Мбайт (2%) Заголовок : Ivanov Язык : Russian Default : Нет Forced : НетАудио #8: Идентификатор : 9 Формат : AC-3 Формат/Информация : Audio Coding 3 Расширение режима : CM (complete main) Параметр Endianness формата : Big Идентификатор кодека : A_AC3 Продолжительность : 1 ч. 36 м. Вид битрейта : Постоянный Битрейт : 384 Кбит/сек Каналы : 6 каналов Расположение каналов : Front: L C R, Side: L R, LFE Частота : 48,0 КГц Битовая глубина : 16 бит Метод сжатия : С потерями Размер потока : 264 Мбайт (5%) Язык : English Default : Нет Forced : Нет 5,54 Gb 4 3 28 июля 2016 06:33 Король Ральф / King Ralph (1991) DVDRip .torrent   [Информация о файле (нажмите для просмотра)] Перевод: Профессиональный (многоголосый, закадровый)Кодек: XviD / MP3Качество: DVDRipВидео: 656x352 (1.86:1), 25 fps, XviD build 50 ~986 kbps avg, 0.17 bit/pixelЗвук: 48 kHz, MPEG Layer 3, 2 ch, ~128.00 kbps avg 742,62 Mb 3 2 28 июля 2016 06:33 Король Ральф / King Ralph (1991) HDTVRip от NovaLan .torrent   [Информация о файле (нажмите для просмотра)] Перевод: Профессиональный, многоголосый (Lizard Cinema) / Профессиональный, многоголосый (Селена Интернешнл) / Авторский, одноголосый (Алексей Михалёв - два вида) / Авторский, одноголосый (Юрий Живов)Кодек: XviDКачество: HDTVRipВидео: 1849 Кбит/с, 720x400, 23,976 кадр/секЗвук: Русский, английский (AC3, 2 ch, 192 Кбит/с) 2,05 Gb 6 3 28 июля 2016 06:33 Король Ральф / King Ralph (1991) DVDRip by GENADIY .torrent   [Информация о файле (нажмите для просмотра)] Качество: DVDRipВидео: AVI (XviD), 704x384 (1.83:1), 25 fps, XviD build 50 ~1485 kbps avg, 0.22 bit/pixelЗвук #1: Русский (Многоголосый), 48 kHz, AC3 Dolby Digital, 3/2 (L,C,R,l,r) + LFE ch, ~384.00 kbps avg|Лицензия|Звук #2: Английский (Оригинал), 48 kHz, AC3 Dolby Digital, 3/2 (L,C,R,l,r) + LFE ch, ~384.00 kbps avg 1,46 Gb 3 5

gig-torrent.net

Ральф (2012) HD 1080p скачать торрент в хорошем качестве

Информация о фильмеНазвание: РальфОригинальное название: Wreck-It RalphГод выхода: 2012Жанр: мультфильм, комедия, приключения, семейныйРежиссер: Рич МурВ ролях: Джон Си Райли, Джек МакБрайер, Сара Силверман, Джейн Линч, Алан Тьюдик, Минди Калинг, Джо Ло Трульо, Эд О'Нил, Деннис Хейсбёрт, Эди МакКлёргц

О фильме: Ральф — второстепенный персонаж восьмибитной компьютерной игры, и ему надоело находиться в тени главного героя, мастера на все руки Феликса, который всегда появляется, чтобы «исправить» ситуацию! После тридцати лет добросовестной работы в роли злодея, в течение которых все похвалы выпадали на долю Феликса, Ральф больше не хочет быть плохим.

Он решает отправиться в путешествие по аркадным играм разных жанров, чтобы доказать всем, что и он тоже может быть героем. На своем пути Ральф встречает героев разных игр — хладнокровную сержанта Калхун из игры Hero's Duty, оберегающую планету от нашествия инопланетных захватчиков, и сладкую на вид, но острую на язычок Сластену фон Дю, чье существование в гоночном симуляторе Sugar Rush внезапно оказывается под угрозой. Наконец-то Ральфу выпадает шанс показать, что он умеет не только разрушать!

Выпущено: Walt Disney Animation StudiosПродолжительность: 01:41:13Перевод: Дублированный (лицензия) [локализован в т.ч. и видеоряд]

ФайлКодек: x264Качество: BDRip (источник: Blu-ray Disc)Видео: 1920x800 (2,40:1), 23.976 fps, 5096 kbpsАудио #1: AC-3, 6 ch, 640 kbps (Rus)Аудио #2: AC-3, 6 ch, 448 kbps (Eng)Субтитры: Русские (форс,полные), Английские

ОбщееУникальный идентификатор : 234297926277589432781595411910565211743 (0xB04423A36F988BD9A0F4CD27AF5AAE5F)Полное имя : Wreck-It.Ralph.2012.BDRip.1080p.Rus.Eng.mkvФормат : MatroskaВерсия формата : Version 2Размер файла : 4,37 ГбайтПродолжительность : 1 ч. 41 м.Общий поток : 6187 Кбит/секНазвание фильма : Ральф / Wreck-It Ralph (2012)Дата кодирования : UTC 2013-03-04 10:08:34Программа кодирования : mkvmerge v5.8.0 ('No Sleep / Pillow') built on Sep 2 2012 15:37:04Библиотека кодирования : libebml v1.2.3 + libmatroska v1.3.0

ВидеоИдентификатор : 1Формат : AVCФормат/Информация : Advanced Video CodecПрофиль формата : [email protected]Параметр CABAC формата : ДаПараметр ReFrames формата : 5 кадровИдентификатор кодека : V_MPEG4/ISO/AVCПродолжительность : 1 ч. 41 м.Битрейт : 5096 Кбит/секШирина : 1920 пикселейВысота : 800 пикселейСоотношение сторон : 2,40:1Частота кадров : 23,976 кадра/секЦветовое пространство : YUVСубдискретизация насыщенности : 4:2:0Битовая глубина : 8 битТип развёртки : ПрогрессивнаяБит/(Пиксели*Кадры) : 0.138Размер потока : 3,52 Гбайт (80%)Заголовок : Release by AlexKaБиблиотека кодирования : x264 core 130 r2273 b3065e6Настройки программы : cabac=1 / ref=5 / deblock=1:0:0 / analyse=0x3:0x133 / me=umh / subme=10 / psy=1 / psy_rd=1.00:0.00 / mixed_ref=1 / me_range=32 / chroma_me=1 / trellis=2 / 8x8dct=1 / cqm=0 / deadzone=21,11 / fast_pskip=0 / chroma_qp_offset=-2 / threads=12 / lookahead_threads=1 / sliced_threads=0 / nr=0 / decimate=0 / interlaced=0 / bluray_compat=0 / constrained_intra=0 / bframes=5 / b_pyramid=2 / b_adapt=2 / b_bias=0 / direct=3 / weightb=1 / open_gop=0 / weightp=2 / keyint=240 / keyint_min=23 / scenecut=40 / intra_refresh=0 / rc_lookahead=120 / rc=2pass / mbtree=1 / bitrate=5096 / ratetol=1.0 / qcomp=0.60 / qpmin=0 / qpmax=69 / qpstep=4 / cplxblur=20.0 / qblur=0.5 / ip_ratio=1.40 / aq=1:0.70Язык : English

Аудио #1Идентификатор : 2Формат : AC-3Формат/Информация : Audio Coding 3Расширение режима : CM (complete main)Идентификатор кодека : A_AC3Продолжительность : 1 ч. 41 м.Вид битрейта : ПостоянныйБитрейт : 640 Кбит/секКаналы : 6 каналовРасположение каналов : Front: L C R, Side: L R, LFEЧастота : 48,0 КГцБитовая глубина : 16 битМетод сжатия : С потерямиРазмер потока : 463 Мбайт (10%)Заголовок : RusЯзык : Russian

Аудио #2Идентификатор : 3Формат : AC-3Формат/Информация : Audio Coding 3Расширение режима : CM (complete main)Идентификатор кодека : A_AC3Продолжительность : 1 ч. 41 м.Вид битрейта : ПостоянныйБитрейт : 448 Кбит/секКаналы : 6 каналовРасположение каналов : Front: L C R, Side: L R, LFEЧастота : 48,0 КГцБитовая глубина : 16 битМетод сжатия : С потерямиРазмер потока : 324 Мбайт (7%)Заголовок : EngЯзык : English

Текст #1Идентификатор : 4Формат : UTF-8Идентификатор кодека : S_TEXT/UTF8Идентификатор кодека/Информация : UTF-8 Plain TextЗаголовок : Rus forcedЯзык : Russian

Текст #2Идентификатор : 5Формат : UTF-8Идентификатор кодека : S_TEXT/UTF8Идентификатор кодека/Информация : UTF-8 Plain TextЗаголовок : RusЯзык : Russian

Текст #3Идентификатор : 6Формат : UTF-8Идентификатор кодека : S_TEXT/UTF8Идентификатор кодека/Информация : UTF-8 Plain TextЗаголовок : EngЯзык : English

Меню00:00:00.000 : :Chapter 0100:07:12.139 : :Chapter 0200:16:34.910 : :Chapter 0300:27:07.500 : :Chapter 0400:37:25.951 : :Chapter 0500:44:46.683 : :Chapter 0600:48:45.130 : :Chapter 0700:51:36.009 : :Chapter 0800:58:56.032 : :Chapter 0901:09:07.893 : :Chapter 1001:13:39.623 : :Chapter 1101:15:56.801 : :Chapter 1201:18:52.977 : :Chapter 1301:21:53.741 : :Chapter 1401:27:25.364 : :Chapter 1501:33:10.542 : :Chapter 1601:41:13.274 : :Chapter 17

x264 [info]: frame I:1445 Avg QP:14.92 size:241968x264 [info]: frame P:38835 Avg QP:19.37 size: 51924x264 [info]: frame B:105338 Avg QP:23.37 size: 14267

rutorg2.ru

Скачать фильм Ральф через торрент в хорошем качестве бесплатно 1080p

GeneralUnique ID : 172927036284382274246669036509357097409 (0x821889261676F8F29E617EA2D95741C1)Complete name : Ralf.2012.D.BDRip.1080p.IRONCLUB.mkvFormat : MatroskaFormat version : Version 2File size : 9.21 GiBDuration : 1h 41mnOverall bit rate : 13.0 MbpsMovie name : IRONCLUBEncoded date : UTC 2013-02-25 21:23:54Writing application : mkvmerge v5.2.0 ('I can't explain') built on Dec 18 2011 18:12:03Writing library : libebml v1.2.3 + libmatroska v1.3.0Attachment : Yes / Yes

VideoID : 1Format : AVCFormat/Info : Advanced Video CodecFormat profile : [email protected] settings, CABAC : YesFormat settings, ReFrames : 5 framesCodec ID : V_MPEG4/ISO/AVCDuration : 1h 41mnBit rate : 12.0 MbpsWidth : 1 920 pixelsHeight : 804 pixelsDisplay aspect ratio : 2.40:1Frame rate : 23.976 fpsColor space : YUVChroma subsampling : 4:2:0Bit depth : 8 bitsScan type : ProgressiveBits/(Pixel*Frame) : 0.324Stream size : 8.30 GiB (90%)Title : Wreck-It.Ralph.2012.1080p.BluRay.DTS.x264-SkazhutinWriting library : x264 core 129 r2245kMod bc13772Encoding settings : cabac=1 / ref=5 / deblock=1:-1:-1 / analyse=0x3:0x113 / me=umh / subme=11 / psy=1 / fade_compensate=0.00 / psy_rd=1.00:0.00 / mixed_ref=1 / me_range=48 / chroma_me=1 / trellis=2 / 8x8dct=1 / cqm=0 / deadzone=21,11 / fast_pskip=0 / chroma_qp_offset=-2 / threads=12 / lookahead_threads=2 / sliced_threads=0 / nr=0 / decimate=0 / interlaced=0 / bluray_compat=0 / constrained_intra=0 / bframes=8 / b_pyramid=2 / b_adapt=2 / b_bias=0 / direct=3 / weightb=1 / open_gop=0 / weightp=2 / keyint=250 / keyint_min=23 / scenecut=40 / intra_refresh=0 / rc_lookahead=40 / rc=2pass / mbtree=0 / bitrate=12000 / ratetol=1.0 / qcomp=0.65 / qpmin=0 / qpmax=69 / qpstep=4 / cplxblur=20.0 / qblur=0.5 / vbv_maxrate=50000 / vbv_bufsize=62500 / nal_hrd=none / ip_ratio=1.40 / pb_ratio=1.30 / aq=1:1.00Language : EnglishDefault : YesForced : YesMatrix coefficients : BT.709-5, BT.1361, IEC 61966-2-4 709, SMPTE RP177

Audio #1ID : 2Format : AC-3Format/Info : Audio Coding 3Mode extension : CM (complete main)Format settings, Endianness : BigCodec ID : A_AC3Duration : 1h 41mnBit rate mode : ConstantBit rate : 384 KbpsChannel(s) : 6 channelsChannel positions : Front: L C R, Side: L R, LFESampling rate : 48.0 KHzBit depth : 16 bitsCompression mode : LossyStream size : 278 MiB (3%)Title : DD 5.1 @ 384 kbps - Dub, R5Language : RussianDefault : YesForced : Yes

Audio #2ID : 3Format : AC-3Format/Info : Audio Coding 3Mode extension : CM (complete main)Format settings, Endianness : BigCodec ID : A_AC3Duration : 1h 41mnBit rate mode : ConstantBit rate : 640 KbpsChannel(s) : 6 channelsChannel positions : Front: L C R, Side: L R, LFESampling rate : 48.0 KHzBit depth : 16 bitsCompression mode : LossyStream size : 463 MiB (5%)Title : DD 5.1 @ 640 kbpsLanguage : EnglishDefault : NoForced : No

Text #1ID : 4Format : UTF-8Codec ID : S_TEXT/UTF8Codec ID/Info : UTF-8 Plain TextLanguage : RussianDefault : NoForced : No

Text #2ID : 5Format : UTF-8Codec ID : S_TEXT/UTF8Codec ID/Info : UTF-8 Plain TextLanguage : EnglishDefault : NoForced : No

Text #3ID : 6Format : UTF-8Codec ID : S_TEXT/UTF8Codec ID/Info : UTF-8 Plain TextTitle : SDHLanguage : EnglishDefault : NoForced : No

Text #4ID : 7Format : UTF-8Codec ID : S_TEXT/UTF8Codec ID/Info : UTF-8 Plain TextLanguage : FrenchDefault : NoForced : No

Text #5ID : 8Format : UTF-8Codec ID : S_TEXT/UTF8Codec ID/Info : UTF-8 Plain TextLanguage : SpanishDefault : NoForced : No

Menu00:00:00.000 : en:00:00:00.00000:07:12.140 : en:00:07:12.14000:16:34.910 : en:00:16:34.91000:27:07.501 : en:00:27:07.50100:37:25.952 : en:00:37:25.95200:44:46.684 : en:00:44:46.68400:48:45.130 : en:00:48:45.13000:51:36.009 : en:00:51:36.00900:58:56.032 : en:00:58:56.03201:09:07.893 : en:01:09:07.89301:13:39.623 : en:01:13:39.62301:15:56.802 : en:01:15:56.80201:18:52.978 : en:01:18:52.97801:21:53.742 : en:01:21:53.74201:27:25.365 : en:01:27:25.36501:33:10.543 : en:01:33:10.543

piratbit.ru


Смотрите также