Скачать фильм реванш через торрент бесплатно в хорошем качестве


Скачать фильм Реванш (2008) через торрент

21 декабря 2015 11:04 Реванш / Revanche (2008) HDRip от Scarabey | P .torrent   [Информация о файле (нажмите для просмотра)] Перевод: Профессиональный (многоголосый закадровый)Видео: 624x336 (1.86:1), 23.976 fps, XviD build 73 ~776 kbps avg, 0.15 bit/pixelАудио: 48 kHz, MPEG Layer 3, 2 ch, ~128.00 kbps avg 797,62 Mb 43 2 21 декабря 2015 11:04 Реванш / Revanche (2008) HDRip от Scarabey | P .torrent   [Информация о файле (нажмите для просмотра)] Перевод: Профессиональный (многоголосый закадровый)Видео: 688x368 (1.87:1), 23.976 fps, XviD build 73 ~1241 kbps avg, 0.20 bit/pixelАудио: 48 kHz, AC3 Dolby Digital, 3/2 (L,C,R,l,r) + LFE ch, ~448 kbps 1,45 Gb 27 8 21 декабря 2015 11:04 Реванш / Revanche (2008) BDRip 720p от Rulya74 .torrent   [Информация о файле (нажмите для просмотра)] Перевод: Профессиональный (многоголосый закадровый), Оригинал (Английский)Кодек: x.264Качество: BDRipВидео: 1280x688 (1,85:1), 23.976 fps, 4109 kbps, 0.195 bit/pixelАудио #1: 48 kHz, AC3 Dolby Digital, 6 ch, ~640.00 kbps (Русский)Аудио #2: 48 kHz, AC3 Dolby Digital, 6 ch, ~384.00 kbps (Английский)Субтитры: Русские, Английские (отключаемые)Видео: Идентификатор : 1 Формат : AVC Формат/Информация : Advanced Video Codec Профиль формата : [email protected] Параметр CABAC формата : Да Параметр ReFrames формата : 9 кадров Идентификатор кодека : V_MPEG4/ISO/AVC Продолжительность : 2 ч. 2 м. Битрейт : 4109 Кбит/сек Ширина : 1280 пикселей Высота : 688 пикселей Соотношение сторон : 1,85:1 Режим частоты кадров : Постоянный Частота кадров : 23,976 кадра/сек Цветовое пространство : YUV Субдискретизация насыщенности : 4:2:0 Битовая глубина : 8 бит Тип развёртки : Прогрессивная Бит/(Пиксели*Кадры) : 0.195 Размер потока : 3,42 Гбайт (78%) Библиотека кодирования : x264 core 130 r2273 b3065e6 Настройки программы : cabac=1 / ref=9 / deblock=1:-3:-2 / analyse=0x3:0x133 / me=umh / subme=10 / psy=1 / psy_rd=1.92:0.04 / mixed_ref=1 / me_range=48 / chroma_me=1 / trellis=2 / 8x8dct=1 / cqm=0 / deadzone=21,11 / fast_pskip=0 / chroma_qp_offset=-3 / threads=10 / lookahead_threads=2 / sliced_threads=0 / nr=0 / decimate=1 / interlaced=0 / bluray_compat=0 / constrained_intra=0 / bframes=10 / b_pyramid=2 / b_adapt=2 / b_bias=0 / direct=3 / weightb=1 / open_gop=0 / weightp=2 / keyint=240 / keyint_min=22 / scenecut=40 / intra_refresh=0 / rc_lookahead=40 / rc=2pass / mbtree=1 / bitrate=4109 / ratetol=1.0 / qcomp=0.60 / qpmin=0 / qpmax=69 / qpstep=4 / cplxblur=20.0 / qblur=0.5 / ip_ratio=1.40 / aq=1:1.00 Default : Да Forced : Нет Аудио #1: Идентификатор : 2 Формат : AC-3 Формат/Информация : Audio Coding 3 Расширение режима : CM (complete main) Параметр Endianness формата : Big Идентификатор кодека : A_AC3 Продолжительность : 2 ч. 2 м. Вид битрейта : Постоянный Битрейт : 640 Кбит/сек Каналы : 6 каналов Расположение каналов : Front: L C R, Side: L R, LFE Частота : 48,0 КГц Битовая глубина : 16 бит Метод сжатия : С потерями Размер потока : 559 Мбайт (12%) Заголовок : Профессиональный (многоголосый закадровый) Язык : Russian Default : Да Forced : Нет Аудио #2: Идентификатор : 3 Формат : AC-3 Формат/Информация : Audio Coding 3 Расширение режима : CM (complete main) Параметр Endianness формата : Big Идентификатор кодека : A_AC3 Продолжительность : 2 ч. 2 м. Вид битрейта : Постоянный Битрейт : 384 Кбит/сек Каналы : 6 каналов Расположение каналов : Front: L C R, Side: L R, LFE Частота : 48,0 КГц Битовая глубина : 16 бит Метод сжатия : С потерями Размер потока : 335 Мбайт (7%) Заголовок : Оригинал Язык : English Default : Нет Forced : Нет 4,38 Gb 8 5 21 декабря 2015 11:04 Реванш / Revanche (2008) HDRip от KinoZalSat .torrent   [Информация о файле (нажмите для просмотра)] Перевод: Профессиональный (многоголосый, закадровый)Кодек: XviDКачество: HDRipВидео: 720x384 (1.88:1), 23.976 fps, XviD build 50 ~1210 kbps avg, 0.18 bit/pixelЗвук: 48 kHz, AC3 Dolby Digital, 3/2 (L,C,R,l,r) + LFE ch, ~384.00 kbps avgСубтитры: Английские(вшитые) 1,37 Gb 2 3 21 декабря 2015 11:04 Реванш / Revanche (2008) BDRip от HELLYWOOD .torrent   [Информация о файле (нажмите для просмотра)] Перевод: Профессиональный (многоголосый закадровый) + Оригинальная звуковая дорожка + любительский одноголосый (Владимир ака cmaker) (отдельно)Субтитры: русские, русские на надписи, английские .srtФормат: AVIКачество: BDRip (источник: Blu-ray Remux/1080p/) 2,51 Gb 1 4

gig-torrent.net

Реванш (2011) скачать торрент в хорошем качестве бесплатно

В ролях: Эмили ВанКэмп, Мэделин Стоу, Гэбриел Манн, Джош Боуман, Ник Уэкслер, Генри Черни, Коннор Паоло, Криста Б. Аллен, Эшли Мадекве, Джеймс Таппер, Бэрри Слоун, Карин Ванасс, Брайан Хэллисей, Маргарита Левиева, Елена Сатине, Эмили Элин Линд, Дилшад Вадсариа, Эмбер Валлетта, Джастин Хартли, Гэйл О’Грэйди, Эштон Холмс, Роджер Барт, ДжейАр Борн, Эд Корбин, Венди Крюсон, Аливия Элин Линд, Аннабелл Стивенсон, Генри Эстеве, Джеймс Моррисон, Макс Мартини, Майкл Трукко, Дженнифер Джейсон Ли, Мэгги Рейд, Кэри-Хироюки Тагава, Эд Куинн, Кассиус Клэй, Кэролин Хеннеси, Нестор Серрано, Оливье Мартинес, Линк Хэнд, Nicholas Stargel, Майкл Нарделли, Себастьян Пижотт, Кортни Б. Вэнс, Джошуа Пенс, Кортни Форд, Янси Ариас, Берн Горман, Стефани Джейкобсен, Джеймс МакКэффри, Хироюки Санада, Робби Амелл, Сейшелл Гэбриел, Брайан Гудман, Э.Х. Бонилья, Джамила Джонс, Мэл Фэйр, Томми Флэнаган, Джина Торрес, Джеймс ЛеГрос, Кортни Лав, Дэниэл Дзоватто, Элтони Уильямс, Майкл Рейли Бурк, John Barbolla, Коллинс Пенни, Лексис Шонтц, Меррин Данги, Дерек Рэй, Холли Хоукинс, Кэлл Беннетт, Эми Ландекер, Джамал Дафф, Дэвид Моусес, Джонатан Адамс, Никола Ламбо, Эрик Цуккерман, Стефани Мойра Санчез, Грэйс Фултон, Аль Карабелло, Брайан Хоуи, Кеана Холл, Конор Лесли, Alissa Bartow, Эмбер Бартов, Си Си Эйч Паундер, Уильям Дивэйн, Эдриенн Барбо, Том Амандес, Вероника Картрайт, Назнин Контрактор, Сьюзэн Парк, Стивен Стрейт, Тодд Гриннелл, Тесс Харпер, Сэл Ланди, Лола Глаудини, Майкл Греко, Джессика Так, Кристина Чанг, Рэйчел ДиПилло, Бретт Каллен, Тесс Лина, Джеймс Пьюрфой, Аллен Вархоль, Тим Пауэлл, Алекс Картер, Мэттью Глэйв, Гари Краус, Чарльз С. Ким, Даниэль Рэйн, Мая Хадзэн, Анджела Э. Гиббс, Akinsola Aribo, Дилан Уолш, Стивен Мендел, Уэйд Уильямс, Джеффри Дэвид Андерсон, Нат Гилл, Элена Фабри, Розмари Васвани, Джек Гусман, Лаура Келли, Джереми Шолдис, Джемма Массот, Майкл Эдвард Роуз, Ана Ортис, Тим ДиКей, Барбара Ив Харрис, Джон Биллингсли, Жоаким ди Алмейда, Луис Хертэм, Анил Кумар, Глория Вотсис, Кэтлин Йорк, Джон Котрэн, Жан-Кристоф Феббрари, Тайлер Мур, Чарльз Шонесси, Джусси Смоллетт, Мэтт Корбой, Сара Ланкастер, Сюзанн Рико, Боди Ньюкоум, Пэрис Бенжамин, Брендан Форд, Фальк Хеншел, Джим Джэнсен, Ричард Джонсон, Диого Моргадо, Джеффри Пирсон, Алекс Соловиц, Ларри Салливан, Морган Фэйрчайлд, ЛаМоника Гаррет, Кристофер Гроув, Фредрик Лене, Джон Проски, Ярдли Смит, Ребекка Тилни, Минерва Гарсия, Дрю Рауш, Бенжамин Шрайдер, Брэдли Уайт, Барбара Уильямс, Хуан Альфонсо, Брианна Браун, Ник Хейман, Мира Терли, Доннел Тернер, Дэвид Уэллс, Бри Конден, Брайан Доддс, Клер Джэкобс, Камала Джонс, Дэвид Л. Кинг, Алисия Лагано, Ханна Ледер, Мелани Льюис, Ирис Бар, Джули Дретзин, Люсинда Дженни, Трентон Ростедт, Мэттью Кинг, Алисия Коппола, Джина Гальего, Луи Алегрия, Бен Боуд, Джек Мэрилл, Роберт Митчелл, Донна Руш, Стивен Апостолина, Кристин Кэри, Шеннон МакКланг, Трэвис Майерс, Энтони Палермо, Ария Пуллман, Джейсон Симс-Прюитт, Клои Уайатт Тейлор, Нед Вон, Эрнест Уильямс мл., Кен Лэлли, Мэттью Ленхарт, Кармелла Райли, Джоэнна Сотомура, Кристофер Уил, Линдси Гаррет, Маркус Джаматти, Керри Кнупп, Дэвид Монахэн, Джулиан Барнс, Лаура Милби, JuJu Chang, Виктория Парк, Шерри Сом, Билл Сьюард, Джесси П. Берналь, Кай Браден, Джейн Брук, Джоэль Брайант, Лен Кордова, Энди Фавро, Жуль Ламберт, Reshaun Jones, Майк Керси, Кристина Лосон, Кэндис Мак, Элисон МакЭти, Тесса Манро, Сашин Падилья, Джон Рубинстайн, Глен Уолкер, Клинт Кармайкл, Вик Чао, Б.Дж. Клинкскейлз, Мария МакКанн, Ким Ричардс, Пол Санчез, Брэндон Пи Белл, Сибил Дэрроу, Грег Перроу, Маркус Чои, Лейф Гантвурт, Морган Хьюит, Шевон Кастл, Бруно Амато, Клер Кэри, Чарльз Карпентер, Маркос А. Ферраез, Marc Istook, Кавита Патил, Дендри Тейлор, Фил Тайлер, Грегори Зариан, Тина Каскиани, Дар Диксон, Эллисон Кинг, Джесси Ланде, Дэн Пейсон-Льюис, Майкл Медико, Пол Норвуд, Гари Ли Рид, Рошелль Робинсон, Майкл Рубенстоун, Кэролайн Уитни Смит, Дэвид Старзик, Дэвид Террелл, Кристофер Аллен, Дженнифер Бирмингем Ли, Крис Гэнн, Асанте Джонс, Хелен Сэдлер, Марго Фарли, Майкл Гамбино, Р. Кит Харрис, Николь Пуллиам, Кати Шарп, Эрин Андервуд, Мишель Албала, Аманда Брукс, Бэрри Ливингстон, Гита Редди, Диг Уэйн, Давида Уильямс, Майя Элиз Гудвин, Брайан Лэлли, Пейдж Леонг, Дэвид Лим, Мэтт Макэби, Коли Мустафа Спикс, Майкл Теннант, Джо Абрахам, Аль Коронел, Моник Кёрнен, Гонсало Эскудеро, Джон Нокс, Рэй Проскиа, Кори Викерз, Фил Абрамс, Dee Baldus, Пилар Холлэнд, Лиз Дженкинс, М.Дж. Карми, Род МакКери, Том Риордан, Иэн Вогт, Нина Ферен, Кендес Кита, Дайан Мизота, Эми Пэрриш, Трэйси Руни, Сеселия Спечт, Кристофер Гудман, Сиара Ханна, Хью Б. Холуб, Синтия МакФедден, Кармен Мормино, Энджел Мерфи, Мэтт Риди, Латерша Роуз, Кендалл Клемент, Джош Дэвис, Тиффани Дженин, Брэндон Кинер, Бэрри В. Леви, Гай Нардулли, Анжул Нигам, Шон Уэйлен, Чести Бальестерос, Майкл Бучер, Джессика Кларк, Браден Фицджералд, Дэниэл Стивен Гонсалес, Ивэн Холцман, Майк Калиновский, Крис Вульф, Julissa Calderon, Дон Фишер, Джордж Кетсиос, Джейден Ланд, Тернер Диксон, Елена Эванджело, Лесли Стивенс, Дэниэл Грейвз, Тимоти В. Мерфи, Бриттани Алексис, Kate Herman, Джей Силс, Том Вирту, Николас Джеймс, Nicole LaBrucherie, Мелисса МакКарти, Скотт Алан Смит, Брэдли Снедекер, Энджи ДеГрация, Cassandra Relynn, Стюарт Скелтон, Eugene Young, Рэймонд Шепард, Ким Свенен, Карли Томас Смит, Грег Коллинз, Thomas Daniel, Алехандро Ферт, Катрин Камей, Rhasaan Orange, Джина Шоу, Джессика Вильчис, Сальватор Ксереб, Гэри Сервантес, Ник Ли, Ирен Росин, Аджарае Коулмэн, Брэд Джерри, Дэн Сачофф, Джон Родерик Дэвидсон, Джуди Эчавес, Энтони Рейнольдс, Simon Hunt, Ариэль Льянас, Энди Мэннинг, Савин Рич, Питер Джеймс Смит, Антони Алаби, Ryan P. Shrime, Джошуа Бридинг, Hannah McCloud, Марк Валера, Джозеф Уилл, Леон Приджен, Тара Платт, Стефен Снедден, Марк Форгет, Казимир Милостан, Chris Prascus, Тиффани Томас, Салина Ли, Логан Бартоломью, Рик Фиттс, Дэнни Васкес, Джей Джексон, Дженсен ЛеФлор, Джейсон Дэвис, Сильвия Бриндис, Чад Беннетт, Эшли Драйвер, Камилль Робинсон, Элис Чен, Джошуа Корли, Арни Старр, Zee Cruise, Роберт Смит III

kino.kak.to

Забойный реванш (2013) скачать торрент в хорошем качестве бесплатно

Подробнее Проф. (полное дублирование) 2,29 ГиБ 6 апр. 2014 г. Файл: grudge_match.2013..torrent Качество видео: BDRip-AVC Исходник: Blu-rayФормат: MKV Видео кодек: MPEG-4 AVC Аудио кодек: AC3Видео: AVC, 1024x576 (16:9) at 23.976 fps, AVC at 2118 kbps avg, 0.146 bit/pixelАудио: Russian: 48 kHz; AC3 5.1; 384.00 kbps avg; профессиональный, полное дублирование; iTunes RussiaАудио: Russian: 48 kHz; AC3 5.1; 384.00 kbps avg; авторский, одноголосый закадровый; ГоблинАудио: Ukrainian: 48 kHz; AC3 2.0; 192.00 kbps avg; профессиональный, полное дублирование; iTunes Russia; отдельноАудио: English: 48 kHz; AC3 5.1; 448.00 kbps avg; оригинал; отдельно Подробнее Проф. (полное дублирование) 1,46 ГиБ 25 мар. 2014 г. Подробнее Проф. (полное дублирование) 2,06 ГиБ 25 мар. 2014 г. Файл: zab0yniy.r3vansh.2013.hdrip.2100mb..torrent Качество: HDRipВидео данные: XviD, 1810 Кбит/с, 720x400Аудио данные: Русский, английский (AC3, 6 ch, 384 Кбит/с) Подробнее Проф. (полное дублирование) 5,30 ГиБ 25 мар. 2014 г. Подробнее Проф. (чистый звук) 7,95 ГиБ 23 мар. 2014 г. Файл: grudge.match.2013.d.bdrip.1080p..torrent Качество: BDRip 1080pВидео данные: MPEG-4 AVC, 8157 Кбит/c, 1920x1080Аудио данные: Русский (AC3, 2 ch, 384 Кбит/с), английский (DTS, 6 ch, 1510 Кбит/с) Подробнее Проф. (чистый звук) 5,76 ГиБ 23 мар. 2014 г. Файл: grudge.match.2013.d.bdrip.720p..torrent Качество: BDRip (720p)Видео данные: MPEG-4 AVC, 5400 Кбит/с, 1280x720Аудио данные: Русский (AC3, 2 ch, 384 Кбит/с), английский (DTS, 6 ch, 1510 Кбит/с) Подробнее Проф. (чистый звук) 1,37 ГиБ 23 мар. 2014 г. Файл: grudge.match.2013.hdrip.1400mb..torrent Качество: HDRipВидео данные: XviD, 1527 kb/s, 720x400Аудио данные: Русский (AC3, 2 ch, 384 Кбит/с), английский (AC3, 6 ch, 384 Кбит/с) Подробнее Проф. (чистый звук) 2,05 ГиБ 23 мар. 2014 г. Файл: grudge.match.2013.hdrip.2100mb..torrent Качество: HDRipВидео данные: XviD, 1810 Кбит/с, 720x400Аудио данные: Русский (AC3, 2 ch, 384 Кбит/с), английский (AC3, 6 ch, 384 Кбит/с) Подробнее Проф. (чистый звук) 2,05 ГиБ 18 февр. 2014 г. Файл: zaboyniy.revansh.2013.d.webrip.2100mb..torrent Качество: WEBRipВидео:XviD 1994 kb/s, 720x400Аудио: MP3, 2 ch, 320 Кбит/сПримечание: Присутствуют вшитые китайские субтитры! Подробнее Проф. (чистый звук) 1,37 ГиБ 17 февр. 2014 г. Файл: zaboyniy.revansh.2013.d.webrip.torrent Качество: WEBRipФормат: AVI (XviD)Видео: 1627 kb/s, 720x400Аудио: MP3, 128 kb/s (2 ch)Примечание: Присутствуют вшитые китайские субтитры! Подробнее Авторский 1,46 ГиБ 18 янв. 2014 г. Файл: zaboinyi.revansh.2013.a1.webrip.1.46gb..torrent Качество: WEBRipВидео: XviD 1628 kb/s, 720x400Аудио: Русский (АС3, 2 ch, 192 Кбит/с)Присутствуют вшитые китайские субтитры! Подробнее Проф. (Гоблин) 2,05 ГиБ 16 янв. 2014 г. Файл: zaboinyi.revansh.2013.webrip.goblin.2.05gb..torrent Качество: WEBRipВидео:XviD 2000 kb/s, 720x400Аудио: Russian: AC3, 192 kb/s (2 ch) / English: AC3, 384 kb/s (2 ch)Примечание: Присутствуют вшитые китайские субтитры! Подробнее Проф. (полное дублирование) [звук из кинотеатра] 2,67 ГиБ 16 янв. 2014 г. Файл: zaboinyi.revansh.2013.webrip.dts.720p..torrent Качество: WEBRip 720pВидео:MPEG4 AVC, 2800 kb/s, 1280x722Аудио: Russian: AC3, 192 kb/s (2 ch) / English: AC3, 384 kb/s (2 ch)Примечание: Присутствуют вшитые китайские субтитры! Подробнее Проф. (полное дублирование) [звук из кинотеатра] 1,46 ГиБ 16 янв. 2014 г. Файл: zaboinyi.revansh.2013.webrip.dts.1.46gb..torrent Качество: WEBRipВидео: XviD, 720x400 (16:9), 23.976 fps, 1 628 Kbps (0.236 bit/pixel)Аудио: AC-3, 48.0 KHz, 2 ch, 192 Kbps, CBRПримечание: Присутствуют вшитые китайские субтитры! Подробнее Проф. (полное дублирование) [звук из кинотеатра] 2,05 ГиБ 16 янв. 2014 г. Файл: grudge_match_2013_webrip.torrent Качество: WEBRipВидео: XviD, 2000 Кбит/с, 720х400Аудио: Русский (АС3, 2 ch, 192 Кбит/с), английский (АС3, 2 ch, 384 Кбит/с)Примечание: Присутствуют вшитые китайские субтитры!

zona-film.com

Скачать фильм Месть (1989) через торрент

31 августа 2016 11:46 Месть / Revenge (1990) BDRip 1080p от FREEISLAND | Режиссерская версия / Directors Cut .torrent   [Информация о файле (нажмите для просмотра)] Перевод: Профессиональный (двухголосый закадровый)Субтитры: English (UTF-8)Качество: BDRip 1080pФормат: MKVВидео: 1920x800 (2.40:1), 23.976 fps, AVC, 10.3 MbpsАудио: Аудио #1: AC3, 448 Kbps, 48.0 KHz, 6 ch RUS DVOАудио #2: AC3, 640 Kbps, 48.0 KHz, 6 ch 7,95 Gb 3 4 31 августа 2016 11:46 Месть / Revenge (1990) BDRip-AVC от NNNB | Theatrical Cut | D, P, A .torrent   [Информация о файле (нажмите для просмотра)] Перевод: Дублированный, Профессиональный многоголосый, Авторский одноголосыйКачество: BDRip-AVCФормат: AVC (библиотека кодирования x.264)Видео: 960x406, 2010 Кбит/сек, 23,976 кадр/сек, 0,215 Бит/[Пиксели*Кадры]Аудио №1: русский / AC3 / 2.0 / 48 kHz / 192 kbps / 16 bit|MVO, R5| Аудио №2: русский / AC3 / 2.0 / 48 kHz / 192 kbps / 16 bit|MVO, Первый канал| Аудио №3: русский / AC3 / 2.0 / 48 kHz / 192 kbps / 16 bit|DUB| Аудио №4: русский / AC3 / 2.0 / 48 kHz / 192 kbps / 16 bit|AVO, Гаврилов| Аудио №5: русский / AC3 / 2.0 / 48 kHz / 192 kbps / 16 bit|AVO, Живов| Аудио №6: русский / AC3 / 2.0 / 48 kHz / 192 kbps / 16 bit|AVO, Иванов| Аудио №7: английский / AC3 / 2.0 / 48 kHz / 192 kbps /Субтитры: русские, английские 2,91 Gb 15 5 31 августа 2016 11:46 Месть / Revenge (1990) HDRip от Scarabey | Театральная версия | D, P .torrent   [Информация о файле (нажмите для просмотра)] Перевод: Профессиональный (полное дублирование) + Профессиональный (многоголосый, закадровый)x2Субтитры: нетВидео: 720x304 (2.37:1), 23.976 fps, XviD build 73 ~1817 kbps avg, 0.35 bit/pixelАудио: 48 kHz, AC3 Dolby Digital, 2/0 (L,R) ch, ~192 kbps - дубляжАудио: 48 kHz, AC3 Dolby Digital, 2/0 (L,R) ch, ~192 kbps - многоголоска (R5)Аудио: 48 kHz, AC3 Dolby Digital, 2/0 (L,R) ch, ~192 kbps - многоголоска (1 канал) 2,08 Gb 19 3 31 августа 2016 11:46 Месть / Revenge (1990) HDRip от Scarabey | Театральная версия .torrent   [Информация о файле (нажмите для просмотра)] Перевод: Профессиональный (полное дублирование) [Советский дубляж]Субтитры: нетВидео: 640x272 (2.35:1), 23.976 fps, XviD build 73 ~706 kbps avg, 0.17 bit/pixelАудио: 48 kHz, MPEG Layer 3, 2 ch, ~128.00 kbps avg 748,36 Mb 6 3 31 августа 2016 11:46 Месть / Revenge (1990) HDRip от Scarabey | Театральная версия .torrent   [Информация о файле (нажмите для просмотра)] Перевод: Профессиональный (полное дублирование) [Советский дубляж]Субтитры: нетВидео: 720x304 (2.37:1), 23.976 fps, XviD build 73 ~1470 kbps avg, 0.28 bit/pixelАудио: 48 kHz, AC3 Dolby Digital, 2/0 (L,R) ch, ~192 kbps 1,45 Gb 36 4 31 августа 2016 11:46 Месть / Revenge (1990) BDRip от HQ-ViDEO | Theatrical Cut .torrent   [Информация о файле (нажмите для просмотра)] Перевод: Профессиональный (многоголосый, закадровый)|R5| + Профессиональный (многоголосый, закадровый) |1-й канал| + Оригинал (Английский)Субтитры: Русские, Английские.Формат: AVIКачество: BDRip (источник: HDCLUB /BD-Remux / 1080p)Кодек: XviD, build 67 codecВидео: 720 x 304; 23.976 fps; 1922 kbps; 0.366 bit/pixelАудио: AC3 Dolby Digital; 192 Kbps; 2 channels; 48 KHz|все дорожки| 2,18 Gb 42 6 31 августа 2016 11:46 Месть / Revenge (1990) BDRip от HQ-ViDEO | Directors Cut .torrent   [Информация о файле (нажмите для просмотра)] Перевод: Профессиональный (двухголосый, закадровый)|П. Гланц и И. Королёва|Субтитры: Английские.Формат: AVIКачество: BDRip (источник: latistek /Blu-ray Disc / 1080p)Кодек: XviD, build 67 codecВидео: 720 x 304; 23.976 fps; 1619 kbps; 0.308 bit/pixelАудио #1: AC3 Dolby Digital; 448 Kbps; 6 channels; 48 KHzАудио #2: AC3 Dolby Digital; 448 Kbps; 6 channels; 48 KHz(отдельно, http) 1,46 Gb 15 9 31 августа 2016 11:46 Месть / Revenge (1990) HDRip от Шкипер | Театральная версия .torrent   [Информация о файле (нажмите для просмотра)] Перевод: Профессиональный (полное дублирование)Кодек: XviDКачество: HDRipВидео: 608x256 (2.38:1), 23.976 fps, XviD build 73 ~707 kbps avg, 0.19 bit/pixelЗвук: 48 kHz, MPEG Layer 3, 2 ch, ~128.00 kbps avgСубтитры: Английские (Частично) 749,12 Mb 3 3 31 августа 2016 11:46 Месть / Revenge (1990) BDRip 720p | Театральная версия .torrent   [Информация о файле (нажмите для просмотра)] Перевод: Профессиональный (полное дублирование), 2 x Профессиональный (многоголосый, закадровый), 3 х Авторский, Оригинальный.Субтитры: русские, английские.Качество: BDRipКонтейнер: MKVВидео: AVC, 1280x544 (2.35:1), 4950 kbps, 23,976 fps, 0,297 bppАудио №1: русский / AC3 / 2.0 / 48 kHz / 192 kbpsДубляжАудио №2: русский / AC3 / 2.0 / 48 kHz / 192 kbpsMVO R5Аудио №3: русский / AC3 / 2.0 / 48 kHz / 192 kbpsMVO 1 каналАудио №4: русский / AC3 / 2.0 / 48 kHz / 192 kbpsAVO ГавриловАудио №5: русский / AC3 / 2.0 / 48 kHz / 192 kbpsAVO ЖивовАудио №6: русский / AC3 / 2.0 / 48 kHz / 192 kbpsAVO ИвановАудио №7: английский / AC3 / 2.0 / 48 kHz / 192 kbps 5,56 Gb 10 5 31 августа 2016 11:46 Месть / Revenge (1990) BDRip от HQCLUB | Театральная версия .torrent   [Информация о файле (нажмите для просмотра)] Перевод: Профессиональный (многоголосый, закадровый) R5 + Профессиональный (полное дублирование) + Оригинальная звуковая дорожка +Профессиональный (многоголосый, закадровый) 1 каналСубтитры: Русские, Английские (внешние srt*)Формат: AVIКачество: BDRip (источник: krat11 /BD-Remux / 1080р)Видео: 720x304 (2.37:1), 23,976 fps, XviD build 65 ~1935 kbps avg, 0.37 bit/pixelАудио #1: 48 kHz, AC3 Dolby Digital, 2/0 (L,R), ~192.00 kbps avgАудио #2: 48 kHz, AC3 Dolby Digital, 2/0 (L,R), ~192.00 kbps avgАудио #3: 48 kHz, AC3 Dolby Digital, 2/0 (L,R), ~192.00 kbps avgАудио #4: 48 kHz, AC3 Dolby Digital, 2/0 (L,R), ~192.00 kbps avg(отдельно, http)Аудио #5: 48 kHz, AC3 Dolby Digital, 2/0 (L,R), ~192.00 kbps avg(отдельно, http)Аудио #6: 48 kHz, AC3 Dolby Digital, 2/0 (L,R), ~192.00 kbps avg(отдельно, http)Аудио #7: 48 kHz, AC3 Dolby Digital, 2/0 (L,R), ~192.00 kbps avg(отдельно, http) 2,18 Gb 6 3 31 августа 2016 11:46 Месть / Revenge (1990) BDRip от HQCLUB | Режиссерская версия / Directors Cut .torrent   [Информация о файле (нажмите для просмотра)] Перевод: Профессиональный (двухголосый, закадровый) П.Гланц и И.Королева + Оригинальная звуковая дорожкаСубтитры: Английские (внешние srt*)Формат: AVIКачество: BDRip (источник / BD-Remux / 1080р)Видео: 720x304 (2.37:1), 23,976 fps, XviD build 65 ~2210 kbps avg, 0.42 bit/pixelАудио #1: 48 kHz, AC3 Dolby Digital, 3/2 (L,C,R,l,r) + LFE ch, ~448.00 kbps avgАудио #2: 48 kHz, AC3 Dolby Digital, 3/2 (L,C,R,l,r) + LFE ch, ~448.00 kbps avg 2,18 Gb 2 5 31 августа 2016 11:46 Месть / Revenge (1990) DVDRip от 0ptimus | A .torrent   [Информация о файле (нажмите для просмотра)] Перевод: Авторский одноголосый закадровый (Юрий Живов) - за перевод (VHS) спасибоcinemasonar и его личной коллекцииКодек: XviDКачество: DVDRipВидео: 1485 Кбит/с, 704x288, 23.976 кадр/сЗвук: АС3, 2 ch, 192 Кбит/сСубтитры: ОтсутствуютВидео: Идентификатор : 0 Формат : MPEG-4 Visual Профиль формата : Advanced [email protected] Параметр BVOP формата : 2 Параметр QPel формата : Нет Параметр GMC формата : Без точки перехода Параметр матрицы формата : Выборочная Идентификатор кодека : XVID Идентификатор кодека/Подсказка : XviD Продолжительность : 2 ч. 3 м. Битрейт : 1485 Кбит/сек Ширина : 704 пикселя Высота : 288 пикселей Соотношение сторон : 2,40:1 Частота кадров : 23,976 кадра/сек Цветовое пространство : YUV Субдискретизация насыщенности : 4:2:0 Битовая глубина : 8 бит Тип развёртки : Прогрессивная Метод сжатия : С потерями Бит/(Пиксели*Кадры) : 0.305 Размер потока : 1,28 Гбайт (88%) Библиотека кодирования : XviD 64Аудио: Идентификатор : 1 Формат : AC-3 Формат/Информация : Audio Coding 3 Расширение режима : CM (complete main) Параметр Endianness формата : Big Идентификатор кодека : 2000 Продолжительность : 2 ч. 3 м. Вид битрейта : Постоянный Битрейт : 192 Кбит/сек Каналы : 2 канала Расположение каналов : Front: L R Частота : 48,0 КГц Битовая глубина : 16 бит Метод сжатия : С потерями Размер потока : 170 Мбайт (11%) Выравнивание : Разделение по промежуткам Продолжительность промежутка : 42 мс. (1,00 видеокадр) Время предзагрузки промежутка : 500 мс. 1,46 Gb 3 3 31 августа 2016 11:46 Месть / Revenge (1990) DVDRip .torrent   [Информация о файле (нажмите для просмотра)] Перевод: ~Профессиональный (многоголосый, закадровый) (2 варианта) ~Профессиональный (полное дублирование)Кодек: XviDКачество: DVDRipВидео: 720x304 (2.37:1), 25 fps, XviD build 50 ~1148 kbps avg, 0.21 bit/pixelЗвук: ~Аудио: 48 kHz, AC3 Dolby Digital, 2/0 (L,R) ch, ~192 kbps ~Аудио: 48 kHz, AC3 Dolby Digital, 2/0 (L,R) ch, ~192 kbps ~Аудио: 48 kHz, AC3 Dolby Digital, 2/0 (L,R) ch, ~192 kbps 1,45 Gb 1 3 31 августа 2016 11:46 Месть / Revenge (1990) DVDRip от Sergei7721 .torrent   [Информация о файле (нажмите для просмотра)] Перевод: Профессиональный, многоголосый / Профессиональный, многоголосый / ДубляжКодек: XviDКачество: DVDRipВидео: 720x304, 1680 Кбит/сек, 25,000 кадр/секЗвук: ПМ / ПМ / ДБ / Английский (AC3, 2 ch, 192 Кбит/сек, 48,0 КГц)Субтитры: Русские, английские (отдельно) 2,06 Gb 2 4 31 августа 2016 11:45 Месть / Revenge (1990) BDRip от HQ-ViDEO | Unrated Directors Cut .torrent   [Информация о файле (нажмите для просмотра)] Перевод: Русский профессиональный многоголосый переводФормат: XviDКачество: BDRipВидео: 720x304, 23.976 fps, 1621 kbps, 0.31 bit/pixel, XviD MPEG-4Звук: 48 kHz, 6 ch, 448.00 kbps, AC3 Dolby Digital 1,46 Gb 1 5

gig-torrent.net


Смотрите также