Скачать фильм семейное ограбление через торрент в хорошем качестве


Скачать фильм Семейное ограбление через торрент в хорошем качестве бесплатно WEB-DLRip

Раздают: 11 [ 0 KB/s ]
Размер: 1.46 GB | Добавлен: 5 мес. 17 д. назад | Торрент скачан:850 раз
Реклама Дарим 3000 рублей за регистрацию, не упусти свой шанс получить шикарный бонус!!!

08-05-2017 10:53 Семейное ограбление Скачать торрент  

Семейное ограбление / Mes trеsors

Год выпуска: 2017Страна: ФранцияЖанр: комедияПродолжительность: 01:27:01Перевод: Дубляж - [iTunes]Субтитры: отсутствуют

Режиссер: Паскаль Бурдьо

В ролях:

Жан Рено, Рем Кериси, Камиль Шаму, Бруно Санчес, Паскаль Демолон, Фамке Янссен

Описание:

Анжела и Анжелика — две абсолютно разные девушки, которые не имеют ничего общего. Кроме, разве что, отца, которого они никогда не видели. И вот однажды он появился в их жизни. Вор международного масштаба решил наверстать упущенное, создав с дочерьми безумную команду, чтобы совершить ограбление века. И все бы ничего, только гениальный план Патрика дает сбой, и все идет не по запланированному сценарию...

Качество: WEB-DLRipФормат: AVIВидео кодек: XviDАудио кодек: AC3

Видео: 704x288 (1.76:1), 23,976 fps, XviD build 65 ~2124 kbps avg, 0.31 bit/pixelАудио#1: 48 kHz, AC3 Dolby Digital, 3/2 (L,C,R,l,r) + LFE ch, ~384 kbps avg

Скачать Семейное ограбление через торрент http://rudb.org/img/2017_01/i588dad577a7cb.jpg Скачать фильм Семейное ограбление через торрент бесплантно в хорошем качестве Описание: Анжела и Анжелика — две абсолютно разные девушки, которые не имеют ничего общего. Кроме, разве что, отца, которого они никогда не ... 2017-05-08 10:53 9.6 10 22

Loading...

Loading...

Рекламный пират

08-05-2017 13:19 Семейное ограбление Скачать торрент  

Рено к пластическим хирургам подался, что ли? Что у него с лицом?!

08-05-2017 19:51 Семейное ограбление Скачать торрент  

08-05-2017 19:58 Семейное ограбление Скачать торрент  

30-06-2017 16:56 Семейное ограбление Скачать торрент  

Дорогой пользователь! Огромная просьба, поблагодарите релизера, оцените раздачу и оставьте свои комментарий, если Вы скачали Семейное ограбление через торрент бесплатно! Внесите свою лепту в развитие PiratBit!

Комментировать посты могут только пользователи прошедшие не сложную регистрацию

Семейное ограбление через торрент Скачать бесплатно Семейное ограбление Семейное ограбление скачать торрент Семейное ограбление смотреть онлайн Cкачать фильм Семейное ограбление бесплатно Семейное ограбление скачать торрент в хорошем качестве Семейное ограбление смотреть онлайн бесплатно в хорошем качестве

Вы можете начинать темыВы можете отвечать на сообщенияВы не можете редактировать свои сообщенияВы не можете удалять свои сообщенияВы не можете голосовать в опросахВы не можете прикреплять файлы к сообщениямВы можете скачивать файлы

piratbit.ru

Скачать фильм Семейное ограбление через торрент в хорошем качестве бесплатно BDRip-AVC

GeneralUnique ID : 228955942481100125304149178941761417417 (0xAC3F4F80A9742C2F8ED98831CE8870C9)Complete name : D:\Mes.tresors.2017.BDRip.AVC.ExKinoRay.mkvFormat : MatroskaFormat version : Version 2File size : 1.36 GiBDuration : 1 h 30 minOverall bit rate : 2 154 kb/sMovie name : Семейное ограбление (2017) from ExKinoRayEncoded date : UTC 2017-05-19 20:23:35Writing application : mkvmerge v5.8.0 ('No Sleep / Pillow') built on Sep 2 2012 15:37:04Writing library : libebml v1.2.3 + libmatroska v1.3.0

VideoID : 1Format : AVCFormat/Info : Advanced Video CodecFormat profile : [email protected] settings, CABAC : YesFormat settings, ReFrames : 10 framesCodec ID : V_MPEG4/ISO/AVCDuration : 1 h 30 minBit rate : 1 709 kb/sWidth : 720 pixelsHeight : 300 pixelsDisplay aspect ratio : 2.40:1Frame rate mode : ConstantFrame rate : 24.000 FPSColor space : YUVChroma subsampling : 4:2:0Bit depth : 8 bitsScan type : ProgressiveBits/(Pixel*Frame) : 0.330Stream size : 1.05 GiB (77%)Title : EnigmaWriting library : x264 core 144 r2525 40bb568Encoding settings : cabac=1 / ref=10 / deblock=1:-2:-2 / analyse=0x3:0x113 / me=umh / subme=10 / psy=1 / psy_rd=1.05:0.10 / mixed_ref=1 / me_range=32 / chroma_me=1 / trellis=2 / 8x8dct=1 / cqm=0 / deadzone=21,11 / fast_pskip=1 / chroma_qp_offset=-3 / threads=12 / lookahead_threads=2 / sliced_threads=0 / nr=0 / decimate=0 / interlaced=0 / bluray_compat=0 / constrained_intra=0 / bframes=11 / b_pyramid=2 / b_adapt=2 / b_bias=0 / direct=3 / weightb=1 / open_gop=0 / weightp=2 / keyint=240 / keyint_min=24 / scenecut=40 / intra_refresh=0 / rc_lookahead=40 / rc=2pass / mbtree=0 / bitrate=1709 / ratetol=1.0 / qcomp=0.60 / qpmin=0 / qpmax=51 / qpstep=4 / cplxblur=20.0 / qblur=0.5 / vbv_maxrate=50000 / vbv_bufsize=62500 / nal_hrd=none / filler=0 / ip_ratio=1.40 / pb_ratio=1.30 / aq=1:1.00Default : YesForced : NoColor range : LimitedColor primaries : BT.709Transfer characteristics : BT.709Matrix coefficients : BT.709

AudioID : 2Format : AC-3Format/Info : Audio Coding 3Mode extension : CM (complete main)Format settings, Endianness : BigCodec ID : A_AC3Duration : 1 h 30 minBit rate mode : ConstantBit rate : 448 kb/sChannel(s) : 6 channelsChannel positions : Front: L C R, Side: L R, LFESampling rate : 48.0 kHzFrame rate : 31.250 FPS (1536 spf)Compression mode : LossyStream size : 290 MiB (21%)Title : Dub (Лицензия)Language : RussianDefault : YesForced : No

Menu00:00:00.000 : :Chapter 0100:00:41.250 : :Chapter 0200:10:19.666 : :Chapter 0300:21:48.458 : :Chapter 0400:31:16.875 : :Chapter 0500:43:53.666 : :Chapter 0600:57:39.791 : :Chapter 0701:08:40.416 : :Chapter 0801:17:47.500 : :Chapter 09

piratbit.ru

Скачать фильм Семейное ограбление через торрент в хорошем качестве бесплатно 1080p

GeneralUnique ID : 171075480353277153527694933079284567803 (0x80B3F064AE833F47B57170FCE6E8CEFB)Complete name : W:\Торенты\Family.Heist.2017.1080p.WEB-DL.Rus.Fre.HDCLUB.mkvFormat : MatroskaFormat version : Version 2File size : 3.25 GiBDuration : 1 h 27 minOverall bit rate : 5 346 kb/sMovie name : Mes tresors (2017) - Release for HDCLUBEncoded date : UTC 2017-05-07 18:58:14Writing application : mkvmerge v3.4.0 ('Rapunzel') built on May 15 2010 09:38:20Writing library : libebml v0.8.0 + libmatroska v0.9.0

VideoID : 1Format : AVCFormat/Info : Advanced Video CodecFormat profile : [email protected] settings, CABAC : YesFormat settings, ReFrames : 5 framesCodec ID : V_MPEG4/ISO/AVCDuration : 1 h 27 minBit rate : 4 472 kb/sWidth : 1 916 pixelsHeight : 792 pixelsDisplay aspect ratio : 2.40:1Frame rate mode : ConstantFrame rate : 25.000 FPSColor space : YUVChroma subsampling : 4:2:0Bit depth : 8 bitsScan type : ProgressiveBits/(Pixel*Frame) : 0.118Stream size : 2.72 GiB (84%)Title : Mes tresors (2017) - Release for HDCLUBLanguage : FrenchDefault : YesForced : NoColor range : LimitedColor primaries : BT.709Transfer characteristics : BT.709Matrix coefficients : BT.709

Audio #1ID : 2Format : AC-3Format/Info : Audio Coding 3Mode extension : CM (complete main)Format settings, Endianness : BigCodec ID : A_AC3Duration : 1 h 27 minBit rate mode : ConstantBit rate : 384 kb/sChannel(s) : 6 channelsChannel positions : Front: L C R, Side: L R, LFESampling rate : 48.0 kHzFrame rate : 31.250 FPS (1536 spf)Compression mode : LossyStream size : 239 MiB (7%)Title : AC3 5.1 @ 384 kbps - DUB, iTunesLanguage : RussianDefault : YesForced : No

Audio #2ID : 3Format : AC-3Format/Info : Audio Coding 3Mode extension : CM (complete main)Format settings, Endianness : BigCodec ID : A_AC3Duration : 1 h 27 minBit rate mode : ConstantBit rate : 384 kb/sChannel(s) : 6 channelsChannel positions : Front: L C R, Side: L R, LFESampling rate : 48.0 kHzFrame rate : 31.250 FPS (1536 spf)Compression mode : LossyStream size : 239 MiB (7%)Title : AC3 5.1 @ 384 kbpsLanguage : FrenchDefault : NoForced : No

Menu00:00:00.000 : en:Chapitre 100:09:54.840 : en:Chapitre 200:20:55.960 : en:Chapitre 300:30:01.160 : en:Chapitre 400:40:59.640 : en:Chapitre 500:51:13.800 : en:Chapitre 601:00:03.280 : en:Chapitre 701:09:59.040 : en:Chapitre 801:17:48.680 : en:Chapitre 901:23:10.800 : en:Chapitre 10

piratbit.ru

Скачать фильм Семейное ограбление через торрент в хорошем качестве бесплатно 1080p

Размер: 3.31 GB | Добавлен: 5 мес. 20 д. назад | Торрент скачан:56 раз
Реклама Дарим 3000 рублей за регистрацию, не упусти свой шанс получить шикарный бонус!!!

05-05-2017 20:34 Семейное ограбление Скачать торрент  

Семейное ограбление / Mes trésors

Год выпуска: 2017Выпущено: Франция, Canal+ [fr], Forecast Pictures, Orange Cinéma SériesЖанр: КомедияПродолжительность: 01:28:03Перевод: Профессиональный (полное дублирование) [Звук с TS]

Режиссер: Паскаль Бурдьо

В ролях: Жан Рено, Рем Кериси, Камиль Шаму, Бруно Санчес, Паскаль Демолон, Фамке Янссен

Описание: Анжела и Анжелика — две абсолютно разные девушки, которые не имеют ничего общего. Кроме, разве что, отца, которого они никогда не видели. И вот однажды он появился в их жизни. Вор международного масштаба решил наверстать упущенное, создав с дочерьми безумную команду, чтобы совершить ограбление века. И все бы ничего, только гениальный план Патрика дает сбой, и все идет не по запланированному сценарию...

Качество: WEB-DL [1080p]Формат: MKVВидео: AVC, 5002 Кбит/с, 1916x792, 23,976 fpsАудио: 48.0 KHz, AC3, 2 ch, 384 Кбит/с

Скачать Семейное ограбление через торрент http://s019.radikal.ru/i600/1701/4e/5d6d9e6ae018.jpg Скачать фильм Семейное ограбление через торрент бесплантно в хорошем качестве Описание: Анжела и Анжелика — две абсолютно разные девушки, которые не имеют ничего общего. Кроме, разве что, отца, которого они никогда не ... 2017-05-05 20:34 7 10 3

Loading...

Loading...

% Раздел Тема Автор DL S | L
Фильмы (Blu-ray, BD-Remux, HDDVD) [ 14.59 GB ] Семейное ограбление / Mes trésors [2017 BD Remux 1080p] DUB [RUS Transfer] [] bober100 Скачать
Фильмы 2017 [DVDrip, WEB-DLRip, HDrip] (DUB, MVO) [ 1.36 GB ] Семейное ограбление / Mes trésors [2017 BDRip-AVC] [] - ExKinoRay Enigma2010 Скачать
Фильмы 2017 [DVDrip, WEB-DLRip, HDrip] (DUB, MVO) [ 1.46 GB ] Семейное ограбление / Mes trésors [2017 BDRip] - [] Twi7ter Скачать
Фильмы [HD 720p, 1080p] (Хороший звук DUB, MVO) [ 2.94 GB ] Семейное ограбление / Mes trésors [2017 BDRip 720p] [] - ExKinoRay Enigma2010 Скачать
Фильмы 2017 [DVDrip, WEB-DLRip, HDrip] (DUB, MVO) [ 699 MB ] Семейное ограбление / Mes trеsors [2017 WEB-DLRip] Sherif Скачать
Фильмы (WEB-DL 720p, 1080p) [ 3.25 GB ] Семейное ограбление / Mes trésors [2017 WEB-DL 1080p] - Ворон Скачать

Рекламный пират

Дорогой пользователь! Огромная просьба, поблагодарите релизера, оцените раздачу и оставьте свои комментарий, если Вы скачали Семейное ограбление через торрент бесплатно! Внесите свою лепту в развитие PiratBit!

Комментировать посты могут только пользователи прошедшие не сложную регистрацию

Семейное ограбление через торрент Скачать бесплатно Семейное ограбление Семейное ограбление скачать торрент Семейное ограбление смотреть онлайн Cкачать фильм Семейное ограбление бесплатно Семейное ограбление скачать торрент в хорошем качестве Семейное ограбление смотреть онлайн бесплатно в хорошем качестве

Вы можете начинать темыВы можете отвечать на сообщенияВы не можете редактировать свои сообщенияВы не можете удалять свои сообщенияВы не можете голосовать в опросахВы не можете прикреплять файлы к сообщениямВы можете скачивать файлы

piratbit.ru


Смотрите также