Скачать фильм шестой день через торрент в хорошем качестве бесплатно


Шестой день 2000 - скачать бесплатно через торрент в хорошем качестве. Без регистрации

Название: Шестой день / The 6th Day (2000) HDRip от Scarabey | D
Качество видео: HDRip
Перевод: Профессиональный (полное дублирование)
Видео: 720x304 (2.37:1), 23.976 fps, XviD build 73 ~1474 kbps avg, 0.28 bit/pixel
Аудио: 48 kHz, AC3 Dolby Digital, 2/0 (L,R) ch, ~192 kbps
Скачать

Загрузка начнется в течение 5 сек.

1.45 GB

Название: Шестой день / The 6th Day (2000) BDRip от ivandubskoj | D, P | Лицензия
Качество видео: BDRip
Перевод: Дублированный (Невафильм), профессиональный многоголосый (ОРТ), профессиональный многоголосый (С.Р.И.)
Видео: XviD XviD, 1796 Кбит/с, 720x304 (2.35:1), 23,976 кадр/с
Аудио: НетРусский, Dolby AC3, 48000 Гц, 448 Кбит/с, 6 каналов (5.1) - DUB, BD CEE [Невафильм]Русский, Dolby AC3, 48000 Гц, 224 Кбит/с, 2 канала (Стерео) - MVO [ОРТ]Русский, Dolby AC3, 48000 Гц, 448 Кбит/с, 6 каналов (5.1) - MVO, R7 [С.Р.И.]
Скачать

Загрузка начнется в течение 5 сек.

2.53 GB

Название: Шестой день / The 6th Day (2000) BDRip 1080p от MediaClub | D, P, A
Качество видео: BDRip 1080p
Перевод: Дублированный, профессиональный многоголосый, авторский одноголосый
Видео: MPEG-4 AVC, 8500 Кбит/с, 1920x800, 23.976 кадр/с
Аудио: Русский (AC3, 6 ch, 640 Кбит/с) / Дублированный (Blu-ray CEE)Русский (AC3, 6 ch, 640 Кбит/с) / Профессиональный многоголосый (Карусель)Русский (AC3, 6 ch, 640 Кбит/с) / Авторский одноголосый (А.Гаврилов)Русский (AC3, 6 ch, 640 Кбит/с) / Авторский одноголосый (Ю.Живов)Русский (AC3, 6 ch, 640 Кбит/с) / Профессиональный многоголосый (DVD R7)Английский (AC3, 6 ch, 640 Кбит/с)
Скачать

Загрузка начнется в течение 5 сек.

10.65 GB

Название: Шестой день / The 6th Day (2000) BDRip-AVC от 0ptimus | D, P, A
Качество видео: BDRip-AVC
Перевод: Дублированный, профессиональный многоголосый, авторский одноголосый
Видео: h364 MPEG-4 AVC, 2898 Кбит/с, 1024x426, 23.976 кадр/с
Аудио: • №1: Русский (АС3, 6 ch, 448 Кбит/с) Дублированный
Скачать

Загрузка начнется в течение 5 сек.

4.15 GB

Название: Шестой день / The 6th Day (2000) HDRip
Качество видео: HDRip
Перевод: Профессиональный (дублированный)
Видео: XviD 720x304 (2.37:1), 23.976 fps, XviD build 50 ~1232 kbps avg, 0.24 bit/pixel
Аудио: 48 kHz, AC3 Dolby Digital, 3/2 (L,C,R,l,r) + LFE ch, ~448.00 kbps avg
Скачать

Загрузка начнется в течение 5 сек.

1.46 GB

Название: Шестой день / The 6th Day (2000) HDRip
Качество видео: HDRip
Перевод: Профессиональный (полное дублирование)
Видео: XviD / MP3 XviD, 656x272 (2.41:1), 23.976 fps, ~705 kbps, 0.17 bit/pixel
Аудио: MP3, 48 kHz, 2 ch, ~128 kbps
Скачать

Загрузка начнется в течение 5 сек.

745.12 MB

Название: Шестой день / The 6th Day (2000) BDRip 1080p
Качество видео: BDRip 1080p
Перевод: Дублированный
Видео: x264 1920x800, 4425 Kbps, 23.976 fps
Аудио: 48 kHz, AC3, 6c, 640 kbps
Скачать

Загрузка начнется в течение 5 сек.

4.37 GB

Название: Шестой день / The 6th Day (2000) BDRip 1080p
Качество видео: BDRip 1080p
Перевод: Дублированный
Видео: x264 1920x800, 23.976 fps, 6951 Kbps
Аудио: Russian: 640 Kbps, 48.0 KHz 16 bits, 6 channels, AC-3
Скачать

Загрузка начнется в течение 5 сек.

7.10 GB

www.kinovit.net

Скачать фильм Шестой день через торрент в хорошем качестве бесплатно BDRip

Размер: 1.46 GB | Добавлен: 2 года 8 мес. назад | Торрент скачан:182 раза
Реклама Дарим 3000 рублей за регистрацию, не упусти свой шанс получить шикарный бонус!!!

17-02-2015 19:13 Шестой день Скачать торрент  

Шестой день / The 6th Day

Год выпуска: 2000Страна: СШАЖанр: Фантастика, боевик, триллерПродолжительность: 02:03:37Перевод: ДубляжСубтитры: нет

Режиссер: Роджер Споттисвуд

В ролях: Арнольд Шварценеггер, Майкл Рапапорт, Тони Голдуин, Майкл Рукер, Сара Уайнтер, Венди Крюсон, Родни Роулэнд, Терри Крюс, Кен Поуг, Колин Каннингэм, Роберт Дювалл, Ванда Кэннон, Тейлор Энн Рейд, Дженнифер Гэрис, Дон МакМанус, Стив Бачич, Кристофер Лоуфорд, Марк Брэндон, Элли Харви, Дон С. Дэвис, Крис Каунд, Бен Басс, Роберт Кларк (III), Майкл Бадман, Уоррен Такэути, Клодин Грант, Александра Кастилло, Колин Лоуренс, Марк Гиббон, Брайан Дженсен, Кроуфорд Джеймс, Питер Кент, Хиро Канагава, Ми-Чжон Ли, Джиллиан Барбер, Джерард Планкет, Клер Райли, Эндрю МакИлрой, Норма Жан Уик, Пол Карсон, Грэхэм Эндрюс, Беннита Ха, Андреа Либман

Описание: Клонирование - хорошо это или нет? Человечество так и не определилось. Но в будущем закон о запрете выращивания человеческих клонов был принят безоговорочно. В честь дня сотворения человека Богом, его назвали "Законом Шестого Дня". Говорят, законы для того и существуют, чтобы нарушать их. И эта история не стала исключением. Всё началось тем поздним вечером, когда пилот вертолёта Адам Гибсон наконец оказался на пороге своего дома и увидел через окно, что он уже шумно празднует свой день рождения в кругу близких и друзей. Но попытавшись выяснить, что за двойник у него объявился, он оказался в центре заговора сторонников клонирования...

Качество: BDRipФормат: AVIВидео кодек: XviDАудио кодек: AC3Видео: MPEG-4 ,Xvid (704x288), 1295 Кбит/с, 23.976 кадра/секАудио#1: MP3,6 ch,384 kbps (Rus) 48.0 KHz Дублированный

Тип потока: ВидеоДлительность: 02:03:37Кодек: MPEG-4 VisualКодек/профиль: Advanced [email protected]Кодек/ID: XVIDРазмеры изображения: 704 x 288 (2.40:1)Частота кадров: 23.976 fpsРазмер потока: 1.12 GiB (77%)Битрейт: 1 296 KbpsМетод сжатия: LossyБиблиотека кодирования: XviD 73Цветовое пространство: YUVТип развёртки: ProgressiveКолориметрия: 4:2:0Глубина: 8 bits: Тип потока: Звук #1Длительность: 02:03:34.464Кодек: AC-3Кодек/описание: Audio Coding 3Кодек/ID: 2000Частота дискретизации: 48.0 KHzКаналов: 6 channelsБитрейт: 384 KbpsБитрейт/тип: ConstantРазмер потока: 339 MiB (23%)Глубина: 16 bitsМетод сжатия: Lossy

Скачать Шестой день через торрент http://pic1.pb.wtf/images/9/q2oui.jpg Скачать фильм Шестой день через торрент бесплантно в хорошем качестве Описание: Клонирование - хорошо это или нет? Человечество так и не определилось. Но в будущем закон о запрете выращивания человеческих ... 2015-02-17 19:13 10 10 7

Loading...

Loading...

Рекламный пират

18-02-2015 12:46 Шестой день Скачать торрент  

Классный фильм! Давно не смотрел таких)))

Дорогой пользователь! Огромная просьба, поблагодарите релизера, оцените раздачу и оставьте свои комментарий, если Вы скачали Шестой день через торрент бесплатно! Внесите свою лепту в развитие PiratBit!

Комментировать посты могут только пользователи прошедшие не сложную регистрацию

Шестой день через торрент Скачать бесплатно Шестой день Шестой день скачать торрент Шестой день смотреть онлайн Cкачать фильм Шестой день бесплатно Шестой день скачать торрент в хорошем качестве Шестой день смотреть онлайн бесплатно в хорошем качестве

Вы не можете начинать темыВы не можете отвечать на сообщенияВы не можете редактировать свои сообщенияВы не можете удалять свои сообщенияВы не можете голосовать в опросахВы не можете прикреплять файлы к сообщениямВы можете скачивать файлы

piratbit.ru

Скачать фильм Шестой день через торрент в хорошем качестве бесплатно 1080p

Формат : MatroskaВерсия формата : Version 4 / Version 2Размер файла : 10,7 ГбайтПродолжительность : 2 ч. 3 м.Общий поток : 12,3 Мбит/секНазвание фильма : -=MediaClub-kaspr=-Дата кодирования : UTC 2014-01-19 09:04:21Программа кодирования : mkvmerge v6.1.0 ('Old Devil') built on Mar 4 2013 09:10:42Библиотека кодирования : libebml v1.3.0 + libmatroska v1.4.0

ВидеоИдентификатор : 1Формат : AVCФормат/Информация : Advanced Video CodecПрофиль формата : [email protected]Параметр CABAC формата : ДаПараметр ReFrames формата : 4 кадраИдентификатор кодека : V_MPEG4/ISO/AVCПродолжительность : 2 ч. 3 м.Битрейт : 8500 Кбит/секШирина : 1920 пикселейВысота : 800 пикселейСоотношение сторон : 2,40:1Режим частоты кадров : ПостоянныйЧастота кадров : 23,976 кадра/секЦветовое пространство : YUVСубдискретизация насыщенности : 4:2:0Битовая глубина : 8 битТип развёртки : ПрогрессивнаяБит/(Пиксели*Кадры) : 0.231Размер потока : 7,12 Гбайт (67%)Заголовок : -=MediaClub-kaspr=-Библиотека кодирования : x264 core 130 r2273 b3065e6Настройки программы : cabac=1 / ref=4 / deblock=1:-3:-3 / analyse=0x3:0x133 / me=umh / subme=11 / psy=1 / psy_rd=1.00:0.20 / mixed_ref=1 / me_range=48 / chroma_me=1 / trellis=2 / 8x8dct=1 / cqm=0 / deadzone=21,11 / fast_pskip=0 / chroma_qp_offset=-3 / threads=12 / lookahead_threads=2 / sliced_threads=0 / nr=0 / decimate=0 / interlaced=0 / bluray_compat=0 / constrained_intra=0 / bframes=8 / b_pyramid=2 / b_adapt=2 / b_bias=0 / direct=3 / weightb=1 / open_gop=0 / weightp=2 / keyint=240 / keyint_min=23 / scenecut=40 / intra_refresh=0 / rc=2pass / mbtree=0 / bitrate=8500 / ratetol=1.0 / qcomp=0.60 / qpmin=0 / qpmax=69 / qpstep=4 / cplxblur=20.0 / qblur=0.5 / ip_ratio=1.40 / pb_ratio=1.30 / aq=1:1.00Default : ДаForced : Да

Аудио #1Идентификатор : 2Формат : AC-3Формат/Информация : Audio Coding 3Расширение режима : CM (complete main)Параметр Endianness формата : BigИдентификатор кодека : A_AC3Продолжительность : 2 ч. 3 м.Вид битрейта : ПостоянныйБитрейт : 640 Кбит/секКаналы : 6 каналовРасположение каналов : Front: L C R, Side: L R, LFEЧастота : 48,0 КГцБитовая глубина : 16 битМетод сжатия : С потерямиРазмер потока : 566 Мбайт (5%)Заголовок : DubЯзык : RussianDefault : ДаForced : Да

Аудио #2Идентификатор : 3Формат : AC-3Формат/Информация : Audio Coding 3Расширение режима : CM (complete main)Параметр Endianness формата : BigИдентификатор кодека : A_AC3Продолжительность : 2 ч. 3 м.Вид битрейта : ПостоянныйБитрейт : 640 Кбит/секКаналы : 6 каналовРасположение каналов : Front: L C R, Side: L R, LFEЧастота : 48,0 КГцБитовая глубина : 16 битМетод сжатия : С потерямиРазмер потока : 566 Мбайт (5%)Заголовок : MVO (Карусель)Язык : RussianDefault : НетForced : Нет

Аудио #3Идентификатор : 4Формат : AC-3Формат/Информация : Audio Coding 3Расширение режима : CM (complete main)Параметр Endianness формата : BigИдентификатор кодека : A_AC3Продолжительность : 2 ч. 3 м.Вид битрейта : ПостоянныйБитрейт : 640 Кбит/секКаналы : 6 каналовРасположение каналов : Front: L C R, Side: L R, LFEЧастота : 48,0 КГцБитовая глубина : 16 битМетод сжатия : С потерямиРазмер потока : 566 Мбайт (5%)Заголовок : ГавриловЯзык : RussianDefault : НетForced : Нет

Аудио #4Идентификатор : 5Формат : AC-3Формат/Информация : Audio Coding 3Расширение режима : CM (complete main)Параметр Endianness формата : BigИдентификатор кодека : A_AC3Продолжительность : 2 ч. 3 м.Вид битрейта : ПостоянныйБитрейт : 640 Кбит/секКаналы : 6 каналовРасположение каналов : Front: L C R, Side: L R, LFEЧастота : 48,0 КГцБитовая глубина : 16 битМетод сжатия : С потерямиРазмер потока : 566 Мбайт (5%)Заголовок : ЖивовЯзык : RussianDefault : НетForced : Нет

Аудио #5Идентификатор : 6Формат : AC-3Формат/Информация : Audio Coding 3Расширение режима : CM (complete main)Параметр Endianness формата : BigИдентификатор кодека : A_AC3Продолжительность : 2 ч. 3 м.Вид битрейта : ПостоянныйБитрейт : 640 Кбит/секКаналы : 6 каналовРасположение каналов : Front: L C R, Side: L R, LFEЧастота : 48,0 КГцБитовая глубина : 16 битМетод сжатия : С потерямиРазмер потока : 566 Мбайт (5%)Заголовок : MVO (DVD-R7)Язык : RussianDefault : НетForced : Нет

Аудио #6Идентификатор : 7Формат : AC-3Формат/Информация : Audio Coding 3Расширение режима : CM (complete main)Параметр Endianness формата : BigИдентификатор кодека : A_AC3Продолжительность : 2 ч. 3 м.Вид битрейта : ПостоянныйБитрейт : 640 Кбит/секКаналы : 6 каналовРасположение каналов : Front: L C R, Side: L R, LFEЧастота : 48,0 КГцБитовая глубина : 16 битМетод сжатия : С потерямиРазмер потока : 566 Мбайт (5%)Язык : EnglishDefault : НетForced : Нет

Текст #1Идентификатор : 8Формат : UTF-8Идентификатор кодека : S_TEXT/UTF8Идентификатор кодека/Информация : UTF-8 Plain TextЯзык : RussianDefault : НетForced : Нет

Текст #2Идентификатор : 9Формат : UTF-8Идентификатор кодека : S_TEXT/UTF8Идентификатор кодека/Информация : UTF-8 Plain TextЯзык : EnglishDefault : НетForced : Нет

Текст #3Идентификатор : 10Формат : UTF-8Идентификатор кодека : S_TEXT/UTF8Идентификатор кодека/Информация : UTF-8 Plain TextЗаголовок : SDHЯзык : EnglishDefault : НетForced : Нет

Меню00:00:00.000 : en:Chapter 0100:08:25.755 : en:Chapter 0200:15:00.107 : en:Chapter 0300:18:35.656 : en:Chapter 0400:23:12.724 : en:Chapter 0500:31:23.214 : en:Chapter 0600:38:44.405 : en:Chapter 0700:45:13.085 : en:Chapter 0800:54:19.839 : en:Chapter 0900:58:22.874 : en:Chapter 1001:10:09.287 : en:Chapter 1101:15:44.872 : en:Chapter 1201:24:10.754 : en:Chapter 1301:33:41.490 : en:Chapter 1401:41:33.378 : en:Chapter 1501:49:20.679 : en:Chapter 16

piratbit.ru

Скачать фильм 6 дней через торрент в хорошем качестве бесплатно BDRip

Раздают: 16 [ 45 KB/s ]
Размер: 1.46 GB | Добавлен: 18 д. назад | Торрент скачан:463 раза
Реклама Дарим 3000 рублей за регистрацию, не упусти свой шанс получить шикарный бонус!!!

07-10-2017 07:37 6 дней Скачать торрент  

6 дней / 6 Days

Год выпуска: 2017Страна: СШАЖанр: боевик, триллер, драма, историяПродолжительность: 01:34:10Перевод: Любительский (многоголосый) - [AvePremier]Субтитры: отсутствуют

Режиссер: Тоа Фрейзер

В ролях:

Марк Стронг, Джейми Белл, Эбби Корниш, Иман Эллиотт, Мартин Шоу, Ронан Вайберт, Тим Пиготт-Смит, Джаред Тернер, Кип Чэпман, Николас Болтон

Описание:

В 1980 году по Лондону молниеносно разлетелась новость о террористической атаке, направленной на иранское посольство. Все началось с того, что группа неизвестных ворвалась в здание посольства и взяла в плен всех его сотрудников. Власти пытались договориться с террористами, однако их требования были невыполнимыми. Руководство спецназа приняло решение взять штурмом здание, несмотря на то, что могли появиться жертвы среди гражданского населения. Ситуация обострялась тем, что здание посольства было хорошо укреплено, и это мешало солдатам быстро достигать поставленных целей.

Качество: BDRip [6.Days.2017.COMPLETE.BLURAY-PCH]Формат: AVIВидео кодек: XviDАудио кодек: AC3

Видео: 720x304 (2.37:1), 23.976 fps, XviD build 67 ~1820 kbps avg, 0.35 bit/pixelАудио#1: 48 kHz, AC3 Dolby Digital, 2/0 (L,R) ch, ~192.00 kbps avg (MVO)Аудио#2: 48 kHz, AC3 Dolby Digital, 2/0 (L,R) ch, ~192.00 kbps avg (ENG)

| | РЕКЛАМЫ НЕТ!

Скачать 6 дней через торрент http://i91.fastpic.ru/big/2017/1006/f2/3a9650e05adda2a5e327df2b91b7fbf2.jpg Скачать фильм 6 дней через торрент бесплантно в хорошем качестве Описание: В 1980 году по Лондону молниеносно разлетелась новость о террористической атаке, направленной на иранское посольство. Все ... 2017-10-07 07:37 9 10 24

Loading...

Loading...

Последний раз редактировалось: bober100 (2017-10-07 19:48), всего редактировалось 1 раз

Рекламный пират

07-10-2017 09:05 6 дней Скачать торрент  

Поправте пожалуста Страна: 01:34:10

07-10-2017 19:48 6 дней Скачать торрент  

Tipun, Спасибо исправил

Дорогой пользователь! Огромная просьба, поблагодарите релизера, оцените раздачу и оставьте свои комментарий, если Вы скачали 6 дней через торрент бесплатно! Внесите свою лепту в развитие PiratBit!

Комментировать посты могут только пользователи прошедшие не сложную регистрацию

6 дней через торрент Скачать бесплатно 6 дней 6 дней скачать торрент 6 дней смотреть онлайн Cкачать фильм 6 дней бесплатно 6 дней скачать торрент в хорошем качестве 6 дней смотреть онлайн бесплатно в хорошем качестве

Вы не можете начинать темыВы не можете отвечать на сообщенияВы не можете редактировать свои сообщенияВы не можете удалять свои сообщенияВы не можете голосовать в опросахВы не можете прикреплять файлы к сообщениямВы можете скачивать файлы

piratbit.ru


Смотрите также