Скачать фильм сибирское воспитание через торрент в хорошем качестве


Сибирское воспитание / Educazione siberiana скачать фильм торрент 2013 -

Коротко о фильме "Сибирское воспитание" - Действие фильма происходит в городе Бендеры в Приднестровье. Юный главный герой по имени Колыма оказывается впутан в жестокий криминальный мир своего родного городка. Мы увидим становление этого мальчика, которому приходится принять правила их общины и пуститься во все тяжкие. Жить «по понятиям» его научит матерый авторитет — дед Кузя.

Сибирское воспитание

Оригинальное название Educazione siberiana
Фильм выпущен: 2012-2013
Страна (кинокомпания): Италия
Pежиссер: Габриэле Сальваторес
Сценарий фильма: Стефано Рулли, Сандро Петралья, Габриэле Сальваторес
Продюсер фильма: Марко Кименц, Джина Гардини, Джованни Стабилини
Оператор: Итало Петриччоне
Композитор: Мауро Пагани
Художники: Рита Рабассини, Роберто Карузо, Моника Сирони
Монтаж: Массимо Фиоччи
Жанр фильма: криминал, драма
Премьера (мир): 28 февраля 2013
премьера (Pоссия):
продолжительность103 мин
В главных ролях:
Пийус Грюде
Арнас Слисорайтис
Петер Стормаре
Джон Малкович
Виталий Поршнев
Йонас Труканас
Элинор Томлинсон
Вилиус Тумалавичус
Арнас Федаравичус
и другие ...

Трейлер фильма:

 

Фильм Сибирское воспитание / Educazione siberiana скачать торрент - новинка кино 2013

Скачать файлы .torrent Сибирское воспитание (фильм)

на сайте Вы можете получить ссылку на торрент файлы или скачать сами торрент файлы, в которых находится информация о местонахождении фильмов, сериалов у пользователей.

В фильме "Сибирское воспитание" - драма на основе воспоминаний о том, как воспитывают мальчика в качестве члена преступного сообщества в небольшой республике Приднестровье



Параметры: 09.02.2015 BDRip 720p | Лицензия, 5,25 Гб

Формат: BDRip 720p, MKV, AVC, размер файла: 5,25 ГбВидео: 1280x690, AVC - 5156 Кбит/сАудио: Русский / Английский: AC3, 6 каналов, 448 Кбит/сПеревод (озвучивание): Профессиональный (многоголосый) закадровый [Лицензия]

Параметры: 17.11.2014 HDRip от torrentfilm | P, 746 Мб

Формат: HDRip, AVI, XviD, MPEG Layer 3, размер файла: 746 МбВидео: 640x352, XviD - build 50 ~868 Кбит/сАудио: MPEG Layer 3, 2 канала, 128 Кбит/сПеревод (озвучивание): Профессиональный (многоголосый закадровый)

Параметры: 15.11.2014 HDRip, 1,37 Гб -

Формат: HDRip, XviD, AC3, размер файла: 1,37 ГбВидео: 720x384, XviD - 1497 Кбит/сАудио: Русский: AC3, 2 канала, 192 Кбит/сПеревод (озвучивание): Профессиональный многоголосый - официальный

Параметры: 15.11.2014 HDRip | P, 1,37 Гб

Формат: HDRip, AVI, XviD, AC3, размер файла: 1,37 ГбВидео: 720x384, XviD - 1497 Кбит/сАудио: Русский: AC3, 2 канала, 192 Кбит/сПеревод (озвучивание): Профессиональное (многоголосое) официальный

Скачать Сибирское воспитание, Educazione siberiana, фильм бесплатно скачать торрент, криминал, драма, новинка кино

 

hokit.ru

Скачать фильм Сибирское воспитание через торрент в хорошем качестве бесплатно HDRip

Размер: 1.37 GB | Добавлен: 4 года 3 мес. назад | Торрент скачан:540 раз
Реклама Дарим 3000 рублей за регистрацию, не упусти свой шанс получить шикарный бонус!!!

04-07-2013 09:24 Сибирское воспитание Скачать торрент  

Сибирское воспитание / Educazione siberiana

Год выпуска: 2013 Страна: Италия / Cattleya, Ministero per i Beni e le Attività Culturali (MiBAC)Жанр: триллер, драма, криминал, биография,Продолжительность: 01:43:33Перевод: Любительский одноголосый

Режиссер: Габриэле Сальваторес

В ролях: Арнас Федаравичус, Элинор Томлинсон, Вилиус Тумалавичус, Йонас Труканас, Виталий Поршнев, Петер Стормаре, Джон Малкович, Миндаугас Папинигис, Андрюс Паулавичюс, Донатас Шимукаускас,

Описание: Действие фильма развернется в одном из глухих сибирских поселков. Юный главный герой по имени Колыма оказывается впутан в жестокий криминальный мир своего родного городка. Мы увидим становление этого мальчика, которому приходится принять правила их общины и пуститься во все тяжкие. Жить «по понятиям» его научит матерый авторитет — дед Кузя.

Качество: HDRipФормат: AVIВидео кодек: XviDАудио кодек: AC3Видео: 1496 Kb/s, 720x384, 24 fpsАудио#1: AC3, 384 kb/s (6 ch), 48 kHz

ОбщееПолное имя : E:Download-UT++Siberian.Education.2013.L1.HDRip.aviФормат : AVIФормат/Информация : Audio Video InterleaveРазмер файла : 1,37 ГбайтПродолжительность : 1 ч. 43 м.Общий поток : 1890 Кбит/секНазвание фильма : Siberian.Education.2013.L1.HDRipПрограмма кодирования : VirtualDubMod 1.5.10.2 (build 2540/release)Формат оригинала/Имя : Movie

ВидеоИдентификатор : 0Формат : MPEG-4 VisualПрофиль формата : Advanced [email protected]Параметр BVOP формата : 2Параметр QPel формата : НетПараметр GMC формата : Без точки переходаПараметр матрицы формата : Default (MPEG)Идентификатор кодека : XVIDИдентификатор кодека/Подсказка : XviDПродолжительность : 1 ч. 43 м.Битрейт : 1497 Кбит/секШирина : 720 пикселейВысота : 384 пикселяСоотношение сторон : 1,85:1Частота кадров : 23,976 кадра/секЦветовое пространство : YUVСубдискретизация насыщенности : 4:2:0Битовая глубина : 8 битТип развёртки : ПрогрессивнаяМетод сжатия : С потерямиБит/(Пиксели*Кадры) : 0.226Размер потока : 1,08 Гбайт (79%)Библиотека кодирования : XviD 1.2.1 (UTC 2008-12-04)

АудиоИдентификатор : 1Формат : AC-3Формат/Информация : Audio Coding 3Расширение режима : CM (complete main)Параметр Endianness формата : BigИдентификатор кодека : 2000Продолжительность : 1 ч. 43 м.Вид битрейта : ПостоянныйБитрейт : 384 Кбит/секКаналы : 6 каналовРасположение каналов : Front: L C R, Side: L R, LFEЧастота : 48,0 КГцБитовая глубина : 16 битМетод сжатия : С потерямиРазмер потока : 284 Мбайт (20%)Выравнивание : Разделение по промежуткамПродолжительность промежутка : 42 мс. (1,00 видеокадр)Время предзагрузки промежутка : 500 мс.

Скачать Сибирское воспитание через торрент http://uploadpic.ru/img/2013-07/04/1gruc4cf6efqvws6lx8q9u1kf.jpg Скачать фильм Сибирское воспитание через торрент бесплантно в хорошем качестве Описание: Действие фильма развернется в одном из глухих сибирских поселков. Юный главный герой по имени Колыма оказывается впутан в ... 2013-07-04 09:24 8.8 10 26

Loading...

Loading...

Рекламный пират

04-07-2013 09:41 Сибирское воспитание Скачать торрент  

04-07-2013 10:44 Сибирское воспитание Скачать торрент  

Stopper68 писал(а):

ооооо.....дааа...... :pirat:

04-07-2013 11:19 Сибирское воспитание Скачать торрент  

Бред вообще какой то...

04-07-2013 12:22 Сибирское воспитание Скачать торрент  

Жуткая малина-это даже не смешно.

04-07-2013 12:56 Сибирское воспитание Скачать торрент  

k1z писал(а):

Любительский одноголосый

T временная

04-07-2013 13:03 Сибирское воспитание Скачать торрент  

lithuanians talking withaut estonian accent ( like in russians films )

04-07-2013 13:25 Сибирское воспитание Скачать торрент  

Главный герой по имени Колыма? Как не Сизо Магадан Лифортович ну что б наверняка!

04-07-2013 13:58 Сибирское воспитание Скачать торрент  

Bigpapa23 писал(а):

Главный герой по имени Колыма? Как не Сизо Магадан Лифортович ну что б наверняка!

От чертяка!

Pекламный агент PB

04-07-2013 14:20 Сибирское воспитание Скачать торрент  

такая ахинея,противно смотреть!тьфу

04-07-2013 15:49 Сибирское воспитание Скачать торрент  

Ммм да,суровые сибирские парни,во главе с Кузей и Нафаней,это же что нужно употребить,что бы такой сценарий накатать

04-07-2013 16:17 Сибирское воспитание Скачать торрент  

коменты читаю ржу

04-07-2013 18:42 Сибирское воспитание Скачать торрент  

Бюджет фильма- 30 млн.$ Это ж почти 1 000 000 000 руб.!!! Не пойму: то ли нашелся лох, который решил, что на такой сюжет пойдут толпы европейцев и он отобъет вложенное , то ли коза ностра так отмывает баблос.

04-07-2013 19:34 Сибирское воспитание Скачать торрент  

Б**ть!!!Ну мы же не снимаем фильмы о том,как итальяшки жуют день и ночь макароны,закусывая пиццей и запивая всё это дерьмо оливковым маслом.А потом ещё и номинируем всю эту ахинею на"Оскар" Почему они считают возможным для себя снимать фильмы о том,о чём они не имеют ну ни малейшего представления?

04-07-2013 22:32 Сибирское воспитание Скачать торрент  

Колыма погоняло женское - западло такое пацану носить :)

05-07-2013 13:11 Сибирское воспитание Скачать торрент  

Дорогой пользователь! Огромная просьба, поблагодарите релизера, оцените раздачу и оставьте свои комментарий, если Вы скачали Сибирское воспитание через торрент бесплатно! Внесите свою лепту в развитие PiratBit!

Комментировать посты могут только пользователи прошедшие не сложную регистрацию

Сибирское воспитание через торрент Скачать бесплатно Сибирское воспитание Сибирское воспитание скачать торрент Сибирское воспитание смотреть онлайн Cкачать фильм Сибирское воспитание бесплатно Сибирское воспитание скачать торрент в хорошем качестве Сибирское воспитание смотреть онлайн бесплатно в хорошем качестве

Вы не можете начинать темыВы не можете отвечать на сообщенияВы не можете редактировать свои сообщенияВы не можете удалять свои сообщенияВы не можете голосовать в опросахВы не можете прикреплять файлы к сообщениямВы можете скачивать файлы

piratbit.ru

Сибирское воспитание / Educazione siberiana (фильм, 2013) скачать торрент - Фильм Сибирское воспитание

Коротко о фильме "Сибирское воспитание" - Действие фильма происходит в городе Бендеры в Приднестровье. Юный главный герой по имени Колыма оказывается впутан в жестокий криминальный мир своего родного городка. Мы увидим становление этого мальчика, которому приходится принять правила их общины и пуститься во все тяжкие. Жить «по понятиям» его научит матерый авторитет — дед Кузя.

Сибирское воспитание

Оригинальное название Educazione siberiana
Фильм выпущен: 2012-2013
Страна (кинокомпания): Италия
Pежиссер: Габриэле Сальваторес
Сценарий фильма: Стефано Рулли, Сандро Петралья, Габриэле Сальваторес
Продюсер фильма: Марко Кименц, Джина Гардини, Джованни Стабилини
Оператор: Итало Петриччоне
Композитор: Мауро Пагани
Художники: Рита Рабассини, Роберто Карузо, Моника Сирони
Монтаж: Массимо Фиоччи
Жанр фильма: криминал, драма
Премьера (мир): 28 февраля 2013
премьера (Pоссия):
продолжительность103 мин
В главных ролях:
Пийус Грюде
Арнас Слисорайтис
Петер Стормаре
Джон Малкович
Виталий Поршнев
Йонас Труканас
Элинор Томлинсон
Вилиус Тумалавичус
Арнас Федаравичус
и другие ...

Трейлер фильма:

 

Скачать фильм Сибирское воспитание / Educazione siberiana - новинка кино 2013

В фильме "Сибирское воспитание" - драма на основе воспоминаний о том, как воспитывают мальчика в качестве члена преступного сообщества в небольшой республике Приднестровье

Скачать файлы .torrent Educazione siberiana (фильм)

на сайте Вы можете получить ссылку на торрент файлы или скачать сами торрент файлы, в которых находится информация о местонахождении фильмов, сериалов у пользователей.

--> Всего 4

Параметры: 09.02.2015 BDRip 720p | Лицензия, 5,25 Гб

Формат: BDRip 720p, MKV, AVC, размер файла: 5,25 ГбВидео: 1280x690, AVC - 5156 Кбит/сАудио: Русский / Английский: AC3, 6 каналов, 448 Кбит/сПеревод (озвучивание): Профессиональный (многоголосый) закадровый [Лицензия]

Параметры: 17.11.2014 HDRip от torrentfilm | P, 746 Мб

Формат: HDRip, AVI, XviD, MPEG Layer 3, размер файла: 746 МбВидео: 640x352, XviD - build 50 ~868 Кбит/сАудио: MPEG Layer 3, 2 канала, 128 Кбит/сПеревод (озвучивание): Профессиональный (многоголосый закадровый)

Параметры: 15.11.2014 HDRip, 1,37 Гб -

Формат: HDRip, XviD, AC3, размер файла: 1,37 ГбВидео: 720x384, XviD - 1497 Кбит/сАудио: Русский: AC3, 2 канала, 192 Кбит/сПеревод (озвучивание): Профессиональный многоголосый - официальный

Параметры: 15.11.2014 HDRip | P, 1,37 Гб

Формат: HDRip, AVI, XviD, AC3, размер файла: 1,37 ГбВидео: 720x384, XviD - 1497 Кбит/сАудио: Русский: AC3, 2 канала, 192 Кбит/сПеревод (озвучивание): Профессиональное (многоголосое) официальный

 

hotkit.ru

Скачать фильм Сибирское воспитание через торрент в хорошем качестве бесплатно 1080p

GeneralUnique ID                                : 221742110396668722454906668148226895160 (0xA6D1FA1EEE1D8534B0FEC143BED1AD38)Complete name                            : D:\Торенты\Sibirskoe.v0spitanie.2013.P.BDRip.1080p.mkvFormat                                   : MatroskaFormat version                           : Version 4 / Version 2File size                                : 8.75 GiBDuration                                 : 1h 43mnOverall bit rate                         : 12.1 MbpsEncoded date                             : UTC 2015-02-08 09:10:11Writing application                      : mkvmerge v6.8.0 ('Theme for Great Cities') 64bit built on Mar  2 2014 21:34:26Writing library                          : libebml v1.3.0 + libmatroska v1.4.1

VideoID                                       : 1Format                                   : AVCFormat/Info                              : Advanced Video CodecFormat profile                           : [email protected] settings, CABAC                   : YesFormat settings, ReFrames                : 4 framesCodec ID                                 : V_MPEG4/ISO/AVCDuration                                 : 1h 43mnBit rate                                 : 9 898 KbpsWidth                                    : 1 920 pixelsHeight                                   : 1 036 pixelsDisplay aspect ratio                     : 1.853Frame rate                               : 23.976 fpsColor space                              : YUVChroma subsampling                       : 4:2:0Bit depth                                : 8 bitsScan type                                : ProgressiveBits/(Pixel*Frame)                       : 0.208Stream size                              : 7.16 GiB (82%)Writing library                          : x264 core 130 r2273 b3065e6Encoding settings                        : cabac=1 / ref=4 / deblock=1:-3:-3 / analyse=0x3:0x113 / me=umh / subme=10 / psy=1 / psy_rd=1.05:0.00 / mixed_ref=1 / me_range=32 / chroma_me=1 / trellis=2 / 8x8dct=1 / cqm=0 / deadzone=21,11 / fast_pskip=1 / chroma_qp_offset=-2 / threads=36 / lookahead_threads=6 / sliced_threads=0 / nr=0 / decimate=1 / interlaced=0 / bluray_compat=0 / constrained_intra=0 / bframes=8 / b_pyramid=2 / b_adapt=2 / b_bias=0 / direct=3 / weightb=1 / open_gop=0 / weightp=2 / keyint=240 / keyint_min=23 / scenecut=40 / intra_refresh=0 / rc_lookahead=50 / rc=crf / mbtree=1 / crf=18.0 / qcomp=0.60 / qpmin=0 / qpmax=69 / qpstep=4 / ip_ratio=1.40 / aq=1:0.80Language                                 : EnglishDefault                                  : YesForced                                   : No

Audio #1ID                                       : 2Format                                   : AC-3Format/Info                              : Audio Coding 3Mode extension                           : CM (complete main)Codec ID                                 : A_AC3Duration                                 : 1h 43mnBit rate mode                            : ConstantBit rate                                 : 448 KbpsChannel(s)                               : 6 channelsChannel positions                        : Front: L C R, Side: L R, LFESampling rate                            : 48.0 KHzBit depth                                : 16 bitsCompression mode                         : LossyStream size                              : 332 MiB (4%)Language                                 : RussianDefault                                  : YesForced                                   : Yes

Audio #2ID                                       : 3Format                                   : DTSFormat/Info                              : Digital Theater SystemsCodec ID                                 : A_DTSDuration                                 : 1h 43mnBit rate mode                            : ConstantBit rate                                 : 1 510 KbpsChannel(s)                               : 6 channelsChannel positions                        : Front: L C R, Side: L R, LFESampling rate                            : 48.0 KHzBit depth                                : 24 bitsCompression mode                         : LossyStream size                              : 1.09 GiB (12%)Language                                 : EnglishDefault                                  : NoForced                                   : No

Text #1ID                                       : 4Format                                   : UTF-8Codec ID                                 : S_TEXT/UTF8Codec ID/Info                            : UTF-8 Plain TextLanguage                                 : RussianDefault                                  : NoForced                                   : No

Text #2ID                                       : 5Format                                   : UTF-8Codec ID                                 : S_TEXT/UTF8Codec ID/Info                            : UTF-8 Plain TextLanguage                                 : EnglishDefault                                  : NoForced                                   : No

Menu00:00:00.000                             : en:00:00:00.00000:04:44.910                             : en:00:04:44.91000:11:15.967                             : en:00:11:15.96700:15:54.370                             : en:00:15:54.37000:18:49.462                             : en:00:18:49.46200:24:15.954                             : en:00:24:15.95400:29:02.741                             : en:00:29:02.74100:34:09.256                             : en:00:34:09.25600:45:51.165                             : en:00:45:51.16500:49:14.076                             : en:00:49:14.07600:56:31.805                             : en:00:56:31.80501:05:53.616                             : en:01:05:53.61601:16:38.719                             : en:01:16:38.71901:21:56.995                             : en:01:21:56.99501:27:24.948                             : en:01:27:24.94801:35:37.023                             : en:01:35:37.023

piratbit.ru


Смотрите также