Скачать фильм солдаты неудачи через торрент в хорошем качестве


Скачать фильм Солдаты неудачи через торрент в хорошем качестве бесплатно HDRip

Размер: 1.45 GB | Добавлен: 4 года 4 мес. назад | Торрент скачан:1002 раза
Реклама Дарим 3000 рублей за регистрацию, не упусти свой шанс получить шикарный бонус!!!

23-06-2013 14:41 Солдаты неудачи Скачать торрент  

Солдаты неудачи / Tropic Thunder
  • Год выпуска
  • :2008
  • Страна: США, Великобритания, Германия
  • Жанр:боевик, комедия
  • Продолжительность: 02:01:08
  • Перевод:Профессиональный (полное дублирование)+ Профессиональный (многоголосый, закадровый) на Расширенные моменты
  • Субтитры: Нет
    • Режиссер
    • : Бен Стиллер / Ben Stiller
    • Продюсер: Стюарт Корнфелд / Stuart Cornfeld, Эрик МакЛеод / Eric McLeod, Бен Стиллер / Ben Stiller, Мэтт Эппедио / Matt Eppedio, Патрик Эспозито / Patrick Esposito
    • Сценарий:Джастин Теру / Justin Theroux, Бен Стиллер / Ben Stiller, Этан Коэн / Etan Cohen
  • В ролях
  • :Бен Стиллер (Tugg Speedman - Hot LZ), Роберт Дауни мл. (Kirk Lazarus), Джек Блэк (Jeff Portnoy - Hot LZ), Джей Барушель (Kevin Sandusky - Hot LZ), Брэндон Т. Джексон (Alpa Chino - Hot LZ), Том Круз (Les Grossman - Grossman's Office), Стив Куган (Damien Cockburn - Vietnam Crew), Дэнни Р. МакБрайд (Cody - Vietnam Crew), Ник Нолти (Four Leaf Tayback - Vietnam Crew), Мэттью МакКонахи (Rick Peck - Peck's Office), Джефф Кан (Snooty Waiter - Fatties Trailer), Энтони Руйвивар (Platoon Sergeant Shot in Head - Hot LZ)
    • Описание
    • :Камера. Мотор. Начали! В реальных джунглях проходят съемки суперблокбастера с участием больших звезд, среди которых: крутой герой боевиков, мастер туалетного юмора, чернокожий рэпер Альпа Чино и обладатель всех кинопремий, специально для фильма перекрасивший кожу в черный цвет.Когда у продюсеров закончились деньги и съемки были остановлены - актерам про это не сказали. Поэтому они с холостыми патронами с легкостью вступают в неравный бой с настоящими вооруженными до зубов бандитами-головорезами...
  • Рейтингkinopoisk.ru: 6.818 (39 617)imdb.com: 7.00 (203 388)MPAA: R - Лицам до 17 лет обязательно присутствие взрослого
    • Качество
    • : HDRip
    • Формат
    : AVI
  • Видео кодек
  • : XviD
  • Аудио кодек
  • : AC3
  • Видео: XviD, 720x304 (2.35:1), 1325 kbps, 23,976 fps,
  • Аудио: AC3 / 5.1 / 48 kHz / 384 kbps / 16 bit GeneralComplete name : D:ТорентыTropic Thunder.Dir-Cut by (_Smile_).aviFormat : AVIFormat/Info : Audio Video InterleaveFile size : 1.45 GiBDuration : 2h 1mnOverall bit rate : 1 719 KbpsWriting application : VirtualDubMod 1.5.10.2 (build 2540/release)Writing library : VirtualDubMod build 2540/release

    VideoID : 0Format : MPEG-4 VisualFormat profile : Advanced [email protected] settings, BVOP : 1Format settings, QPel : NoFormat settings, GMC : No warppointsFormat settings, Matrix : CustomCodec ID : XVIDCodec ID/Hint : XviDDuration : 2h 1mnBit rate : 1325 KbpsWidth : 720 pixelsHeight : 304 pixelsDisplay aspect ratio : 2.35:1Frame rate : 23.976 fpsColor space : YUVChroma subsampling : 4:2:0Bit depth : 8 bitsScan type : ProgressiveCompression mode : LossyBits/(Pixel*Frame) : 0.240Stream size : 1.06 GiB (73%)Writing library : XviD 1.2.1 (UTC 2008-12-04)

    AudioID : 1Format : AC-3Format/Info : Audio Coding 3Mode extension : CM (complete main)Codec ID : 2000Duration : 2h 1mnBit rate mode : ConstantBit rate : 384 KbpsChannel(s) : 6 channelsChannel positions : Front: L C R, Side: L R, LFESampling rate : 48.0 KHzBit depth : 16 bitsCompression mode : LossyStream size : 333 MiB (22%)Alignment : Split accross interleaves

    • Рабочие российские варианты названия фильма: «Миссия: Выполнима», «Гром в тропиках» и «Тропический гром».
    • В сцене вручения «Оскара» на экране помимо Тага Спидмена можно увидеть Тома Хэнкса, Дастина Хоффмана, Джона Войта и Тоби Магуайра.
    • В трейлере «Дебил Джек» сыграла жена Бена Стиллера - Кристин Тейлор.
    • Съёмки проходили с 9 июля 2007 года на Гавайях и в Лос-Анджелесе.
    • Премьера «Солдат неудачи» сопровождалась протестами со стороны ряда американских общественных организаций, по мнению которых отдельные диалоги и сцены фильма являлись открытым оскорблением чувств и прав умственно отсталых граждан.
    • Том Круз сам предложил, чтобы его персонаж исполнил танец. Изначально танцев в сценарии не было.
    • еще 3 факта
    Сценарий: Джастин Теру / Justin Theroux, Бен Стиллер / Ben Stiller, Этан Коэн / Etan CohenПродюсер: Стюарт Корнфелд / Stuart Cornfeld, Эрик МакЛеод / Eric McLeod, Бен Стиллер / Ben Stiller, Мэтт Эппедио / Matt Eppedio, Патрик Эспозито / Patrick EspositoОператор: Джон Толл / John TollКомпозитор: Теодор Шапиро / Theodore Shapiro

    Бюджет: $92 000 000Сборы в США: $110 515 313Сборы в России: $6 096 500Сборы в мире: $188 072 649

    Мировая премьера: 13 августа 2008Релиз на DVD: 2 декабря 2008, «Юниверсал Пикчерс Рус»Релиз на Blu-ray: 28 апреля 2009, «Юниверсал Пикчерс Рус»

  • © Оформление&Постер by Vetal Скачать Солдаты неудачи через торрент http://i6.imageban.ru/out/2013/06/23/0b327790f88e23c3080bbe87cf1541ad.png Скачать фильм Солдаты неудачи через торрент бесплантно в хорошем качестве Описание:Камера. Мотор. Начали! В реальных джунглях проходят съемки суперблокбастера с участием больших звезд, среди которых: крутой герой ... 2013-06-23 14:41 10 10 25

    Loading...

    Loading...

    Рекламный пират

    Дорогой пользователь! Огромная просьба, поблагодарите релизера, оцените раздачу и оставьте свои комментарий, если Вы скачали Солдаты неудачи через торрент бесплатно! Внесите свою лепту в развитие PiratBit!

    Комментировать посты могут только пользователи прошедшие не сложную регистрацию

    Солдаты неудачи через торрент Скачать бесплатно Солдаты неудачи Солдаты неудачи скачать торрент Солдаты неудачи смотреть онлайн Cкачать фильм Солдаты неудачи бесплатно Солдаты неудачи скачать торрент в хорошем качестве Солдаты неудачи смотреть онлайн бесплатно в хорошем качестве

    Вы не можете начинать темыВы не можете отвечать на сообщенияВы не можете редактировать свои сообщенияВы не можете удалять свои сообщенияВы не можете голосовать в опросахВы не можете прикреплять файлы к сообщениямВы можете скачивать файлы

    piratbit.ru

    Солдаты неудачи 2008 - скачать бесплатно через торрент в хорошем качестве. Без регистрации

    Название: Солдаты неудачи / Tropic Thunder (2008) BDRip 720p от leonardo | D | iPad
    Качество видео: BDRip 720p
    Перевод: Дублированный Blu-ray CEE [Пифагор]
    Формат видео: MP4 (контейнер m4v)
    Видео: H.264/AVC AVC, 1280x546 (2.35:1), 23.976 fps, 4 527 Kbps (0.270 bit/pixel)
    Аудио: AAC LC, 48.0 KHz, 2 ch, 96.0 Kbps, VBR (Russian)
    Скачать

    Загрузка начнется в течение 5 сек.

    3.91 GB

    Название: Солдаты неудачи / Tropic Thunder (2008) HDRip от Scarabey | Театральная версия
    Качество видео: HDRip
    Перевод: Профессиональный (полное дублирование)
    Видео: 688x288 (2.39:1), 23.976 fps, XviD build 73 ~839 kbps avg, 0.18 bit/pixel
    Аудио: 48 kHz, MPEG Layer 3, 2 ch, ~128.00 kbps avg
    Скачать

    Загрузка начнется в течение 5 сек.

    745.99 MB

    Название: Солдаты неудачи / Tropic Thunder (2008) HDRip от Scarabey | Театральная версия
    Качество видео: HDRip
    Перевод: Профессиональный (полное дублирование)
    Видео: 688x288 (2.39:1), 23.976 fps, XviD build 73 ~1483 kbps avg, 0.31 bit/pixel
    Аудио: 48 kHz, AC3 Dolby Digital, 3/2 (L,C,R,l,r) + LFE ch, ~448 kbps
    Скачать

    Загрузка начнется в течение 5 сек.

    1.45 GB

    Название: Солдаты неудачи / Tropic Thunder (2008) HDRip от Scarabey | Pежиссерская версия
    Качество видео: HDRip
    Перевод: Профессиональный (полное дублирование) + вставки многоголосой озвучки
    Видео: 640x272 (2.35:1), 23.976 fps, XviD build 73 ~726 kbps avg, 0.17 bit/pixel
    Аудио: 48 kHz, MPEG Layer 3, 2 ch, ~128.00 kbps avg
    Скачать

    Загрузка начнется в течение 5 сек.

    749.02 MB

    Название: Солдаты неудачи / Tropic Thunder (2008) HDRip от Scarabey [ Pежиссерская версия
    Качество видео: HDRip
    Перевод: Профессиональный (полное дублирование) + вставки многоголосой озвучки
    Видео: 720x304 (2.37:1), 23.976 fps, XviD build 73 ~1508 kbps avg, 0.29 bit/pixel
    Аудио: 48 kHz, AC3 Dolby Digital, 2/0 (L,R) ch, ~192 kbps
    Скачать

    Загрузка начнется в течение 5 сек.

    1.45 GB

    Название: Солдаты неудачи / Tropic Thunder (2008) HDRip-AVC | D | Режиссерская версия
    Качество видео: HDRip-AVC
    Перевод: Дублированный (на режиссерских местах вставки многоголосого перевода)
    Видео: x.264 800x336 (2.40:1), 23.976 fps, AVC, ~790 Kbps avg, 0.123 bit/pixel
    Аудио: 48 kHz, AAC-HE, 2 ch, ~72 kbps
    Скачать

    Загрузка начнется в течение 5 сек.

    745.90 MB

    Название: Солдаты неудачи / Tropic Thunder (2008) BDRip 1080p от NoLimits-Team & FireBit-Films | Theatrical Cut
    Качество видео: BDRip 1080p (DVD9) (исходник Blu-ray Remux)
    Перевод: Дублированный
    Видео: 1920x818, 9380 Кбит/сек, 23,976 кадр/сек, AVC, x264, [email protected], 2.35:1, 0.249 Бит/[Пиксели*Кадры], 2pass
    Аудио: AC-3, 640 Кбит/сек, 6 канала(ов), 48,0 КГц - Дублированный / РусскийAC-3, 640 Кбит/сек, 6 канала(ов), 48,0 КГц - Оригинал / Английский
    Скачать

    Загрузка начнется в течение 5 сек.

    7.93 GB

    Название: Солдаты неудачи / Tropic Thunder (2008) BDRip 720p от MediaClub | Theatrical Cut
    Качество видео: BDRip 720p
    Перевод: Дублированный
    Видео: x264 5476 Кбит/с, 1280x544, 23.976 кадр/с
    Аудио: Русский (AC3, 6 ch, 640 Кбит/с) / Дублированный
    Скачать

    Загрузка начнется в течение 5 сек.

    5.69 GB

    Название: Солдаты неудачи / Tropic Thunder (2008) BDRip-AVC | Режиссерская версия / Director's Cut
    Качество видео: BDRip-AVC
    Перевод: Профессиональный (дублированный) + Профессиональный (многоголосый, закадровый) на Расширенные моменты
    Формат видео: MKV
    Видео: 1152x488 (2.35:1), 23.976 fps, ~2805 kbps, 0.208 bit/pixel
    Аудио: AC3, 48 kHz, DD 5.1 ch, CBR 640 kbps - дубляж со вставками многоголосого закадрового перевода
    Скачать

    Загрузка начнется в течение 5 сек.

    2.92 GB

    Название: Солдаты неудачи / Tropic Thunder (2008) HDRip | Режиссерская версия / Director's Cut
    Качество видео: HDRip
    Перевод: Профессиональный (дублированный) + Профессиональный (многоголосый, закадровый) на Расширенные моменты
    Формат видео: AVI
    Видео: 720x304 (2.37:1), 23.976 fps, XviD build 50 ~1325 kbps avg, 0.25 bit/pixel
    Аудио: 48 kHz, AC3 Dolby Digital, 3/2 (L,C,R,l,r) + LFE ch, ~384 kbps
    Скачать

    Загрузка начнется в течение 5 сек.

    1.45 GB

    Название: Солдаты неудачи / Tropic Thunder (2008) BDRip от HQCLUB | Theatrical cut / Театральная версия
    Качество видео: BDRip (источник vvd67 / BDRemux / 1080p)
    Перевод: Профессиональный (полное дублирование) + Оригинальная дорожка
    Формат видео: AVI
    Видео: 720x304 (2.37:1), 23.976 fps, XviD build 72 ~2022 kbps avg, 0.39 bit/pixel
    Аудио: 48 kHz, AC3 Dolby Digital, 3/2 (L,C,R,l,r) + LFE ch, ~448 kbps avg |Russia - DUB|48 kHz, AC3 Dolby Digital, 3/2 (L,C,R,l,r) + LFE ch, ~448 kbps avg |English - ORIGINAL|
    Скачать

    Загрузка начнется в течение 5 сек.

    2.18 GB

    Название: Солдаты неудачи / Tropic Thunder (2008) BDRip 1080p | Режиссерская версия / Director's Cut
    Качество видео: BDRip 1080p
    Перевод: Дубляж (+ многоголосый закадровый на вставки Director's Cut)
    Видео: x264 1920x816, 6178 Kbps, 23.976 fps
    Аудио: 48 kHz, AC3, 6c, 640 kbps
    Скачать

    Загрузка начнется в течение 5 сек.

    5.77 GB

    www.kinovit.net

    Скачать фильм Солдаты неудачи через торрент в хорошем качестве бесплатно 720p] (Режиссёрская версия / Director's cut) [Dub + MVO + AVO + Original + Sub (rus

    GeneralUnique ID : 221459179316389433080479622827479740853 (0xA69B7C8AA3F5CED2AC54910A42F931B5)Complete name : D:ТорентыTropic Thunder.mkvFormat : MatroskaFormat version : Version 2File size : 5.13 GiBDuration : 2h 1mnOverall bit rate : 6 064 KbpsMovie name : Tropic Thunder[Director's cut]Encoded date : UTC 2010-07-11 21:27:43Writing application : mkvmerge v4.0.0 ('The Stars were mine') built on Jun 18 2010 16:54:49Writing library : libebml v1.0.0 + libmatroska v1.0.0

    VideoID : 1Format : AVCFormat/Info : Advanced Video CodecFormat profile : [email protected] settings, CABAC : YesFormat settings, ReFrames : 11 framesCodec ID : V_MPEG4/ISO/AVCDuration : 2h 1mnBit rate : 4 152 KbpsWidth : 1 280 pixelsHeight : 546 pixelsDisplay aspect ratio : 2.35:1Frame rate : 23.976 fpsColor space : YUVChroma subsampling : 4:2:0Bit depth : 8 bitsScan type : ProgressiveBits/(Pixel*Frame) : 0.248Stream size : 3.51 GiB (68%)Title : Tropic Thunder[Director's cut]Writing library : x264 core 102 r1666 d058f37Encoding settings : cabac=1 / ref=11 / deblock=1:-2:-2 / analyse=0x3:0x133 / me=umh / subme=9 / psy=1 / psy_rd=1.15:0.00 / mixed_ref=1 / me_range=64 / chroma_me=1 / trellis=2 / 8x8dct=1 / cqm=0 / deadzone=21,11 / fast_pskip=0 / chroma_qp_offset=-2 / threads=9 / sliced_threads=0 / nr=0 / decimate=1 / interlaced=0 / constrained_intra=0 / bframes=16 / b_pyramid=2 / b_adapt=2 / b_bias=0 / direct=3 / weightb=1 / open_gop=0 / weightp=2 / keyint=250 / keyint_min=25 / scenecut=40 / intra_refresh=0 / rc_lookahead=60 / rc=crf / mbtree=0 / crf=18.8 / qcomp=0.60 / qpmin=10 / qpmax=51 / qpstep=4 / vbv_maxrate=50000 / vbv_bufsize=50000 / crf_max=0.0 / ip_ratio=1.40 / pb_ratio=1.30 / aq=1:1.10 / nal_hrd=noneLanguage : EnglishDefault : NoForced : NoColor primaries : BT.709-5, BT.1361, IEC 61966-2-4, SMPTE RP177Transfer characteristics : BT.709-5, BT.1361Matrix coefficients : BT.709-5, BT.1361, IEC 61966-2-4 709, SMPTE RP177

    Audio #1ID : 2Format : AC-3Format/Info : Audio Coding 3Mode extension : CM (complete main)Muxing mode : Header strippingCodec ID : A_AC3Duration : 2h 1mnBit rate mode : ConstantBit rate : 448 KbpsChannel(s) : 6 channelsChannel positions : Front: L C R, Side: L R, LFESampling rate : 48.0 KHzBit depth : 16 bitsCompression mode : LossyStream size : 388 MiB (7%)Title : DD 5.1 48 KHz 448 kbps[Dub+MVO]Language : RussianDefault : YesForced : No

    Audio #2ID : 3Format : AC-3Format/Info : Audio Coding 3Mode extension : CM (complete main)Muxing mode : Header strippingCodec ID : A_AC3Duration : 2h 1mnBit rate mode : ConstantBit rate : 448 KbpsChannel(s) : 6 channelsChannel positions : Front: L C R, Side: L R, LFESampling rate : 48.0 KHzBit depth : 16 bitsCompression mode : LossyStream size : 388 MiB (7%)Title : DD 5.1 48 KHz 448 kbps[MVO]Language : RussianDefault : NoForced : No

    Audio #3ID : 4Format : AC-3Format/Info : Audio Coding 3Mode extension : CM (complete main)Muxing mode : Header strippingCodec ID : A_AC3Duration : 2h 1mnBit rate mode : ConstantBit rate : 448 KbpsChannel(s) : 6 channelsChannel positions : Front: L C R, Side: L R, LFESampling rate : 48.0 KHzBit depth : 16 bitsCompression mode : LossyStream size : 388 MiB (7%)Title : DD 5.1 48 KHz 448 kbps[AVO Serbin]Language : RussianDefault : NoForced : No

    Audio #4ID : 5Format : AC-3Format/Info : Audio Coding 3Mode extension : CM (complete main)Muxing mode : Header strippingCodec ID : A_AC3Duration : 2h 1mnBit rate mode : ConstantBit rate : 448 KbpsChannel(s) : 6 channelsChannel positions : Front: L C R, Side: L R, LFESampling rate : 48.0 KHzBit depth : 16 bitsCompression mode : LossyStream size : 388 MiB (7%)Title : DD 5.1 48 KHz 448 kbps[Original]Language : EnglishDefault : NoForced : No

    Text #1ID : 6Format : UTF-8Codec ID : S_TEXT/UTF8Codec ID/Info : UTF-8 Plain TextLanguage : RussianDefault : NoForced : No

    Text #2ID : 7Format : UTF-8Codec ID : S_TEXT/UTF8Codec ID/Info : UTF-8 Plain TextLanguage : EnglishDefault : NoForced : No

    Menu00:00:00.000 : en:Commercials (Spoof)00:03:58.154 : en:Openings00:10:17.533 : en:The Story00:15:46.779 : en:On Location00:20:44.660 : en:Not the Set00:28:43.179 : en:Drop Them in the Shit00:35:07.563 : en:You Are My Hero, Sir00:41:16.348 : en:Plotting it Out00:47:16.124 : en:Need a Jelly Bean!00:50:50.964 : en:Where Are We?00:55:45.508 : en:Tracing the Map00:59:31.234 : en:On His Own01:03:47.198 : en:Captured!01:10:31.852 : en:The Black Tower01:12:59.416 : en:Recreating01:16:54.610 : en:Tracking01:21:29.134 : en:Award Winning01:25:42.637 : en:The Stars Above01:28:59.792 : en:The Rescue01:34:41.342 : en:Not According to Plan01:38:44.251 : en:Demolition01:45:07.551 : en:Mistakes01:51:14.209 : en:The Award Goes To...01:52:57.353 : en:End Credits

    piratbit.ru

    Скачать фильм Солдаты неудачи через торрент в хорошем качестве бесплатно HDRip

    Размер: 748 MB | Добавлен: 6 лет 2 мес. назад | Торрент скачан:300 раз
    Реклама Дарим 3000 рублей за регистрацию, не упусти свой шанс получить шикарный бонус!!!

    15-08-2011 09:16 Солдаты неудачи Скачать торрент  

    Солдаты неудачи / Tropic Thunder Director's Cut

    Год выпуска: 2008Страна: США, ГерманияЖанр: боевик, комедия, приключенияПродолжительность: 02:01:08Перевод: Профессиональный (полное дублирование) + Профессиональный (многоголосый, закадровый) на Расширенные моменты

    Режиссер: Бен Стиллер / Ben Stiller

    В ролях: Бен Стиллер, Джек Блэк, Роберт Дауни мл., Ник Нолти, Стив Кугэн, Джей Барушель, Дэнни МакБрайд, Брэндон Т. Джексон, Билл Хадерr, Брэндон Су Ху, Том Круз

    Описание: Камера. Мотор. Начали! В реальных джунглях проходят съемки суперблокбастера с участием больших звезд, среди которых: крутой герой боевиков, мастер туалетного юмора, чернокожий рэппер Альпа Чино и обладатель всех кинопремий, специально для фильма перекрасивший кожу в черный цвет.Когда у продюсеров закончились деньги и съемки были остановлены — актерам про это не сказали. Поэтому они с холостыми патронами с легкостью вступают в неравный бой с настоящими вооруженными до зубов бандитами-головорезами…

    Качество: HDRipФормат: AVIВидео кодек: XviDАудио кодек: MP3 Видео: 688x288 (2.39:1), 23.976 fps, XviD build 50 ~725 kbps avg, 0.15 bit/pixelАудио: 48 kHz, MPEG Layer 3, 2 ch, ~128.00 kbps avg

    Скачать Солдаты неудачи через торрент http://i19.fastpic.ru/big/2011/0414/7c/7ebe688692a4bd0ba637041dccc8217c.jpg Скачать фильм Солдаты неудачи через торрент бесплантно в хорошем качестве Описание: Камера. Мотор. Начали! В реальных джунглях проходят съемки суперблокбастера с участием больших звезд, среди которых: крутой герой ... 2011-08-15 09:16 4.9 10 17

    Loading...

    Loading...

    Рекламный пират

    15-08-2011 09:27 Солдаты неудачи Скачать торрент  

    аудио кодек MP3

    15-08-2011 11:08 Солдаты неудачи Скачать торрент  

    Смотрел еще год назад! Такая хрееень!(((

    15-08-2011 12:16 Солдаты неудачи Скачать торрент  

    Cetrin2012, ну на вкус и цвет.... мне кпримеру киношшка очень понравилась, позитивная))) а че еще кино нада))

    15-08-2011 12:18 Солдаты неудачи Скачать торрент  

    клевое кино))) смотреть всем 100%

    04-06-2012 11:08 Солдаты неудачи Скачать торрент  

    хороший фильм

    Дорогой пользователь! Огромная просьба, поблагодарите релизера, оцените раздачу и оставьте свои комментарий, если Вы скачали Солдаты неудачи через торрент бесплатно! Внесите свою лепту в развитие PiratBit!

    Комментировать посты могут только пользователи прошедшие не сложную регистрацию

    Солдаты неудачи через торрент Скачать бесплатно Солдаты неудачи Солдаты неудачи скачать торрент Солдаты неудачи смотреть онлайн Cкачать фильм Солдаты неудачи бесплатно Солдаты неудачи скачать торрент в хорошем качестве Солдаты неудачи смотреть онлайн бесплатно в хорошем качестве

    Вы не можете начинать темыВы не можете отвечать на сообщенияВы не можете редактировать свои сообщенияВы не можете удалять свои сообщенияВы не можете голосовать в опросахВы не можете прикреплять файлы к сообщениямВы можете скачивать файлы

    piratbit.ru


    Смотрите также