Скачать фильм совместная поездка через торрент в хорошем качестве


Скачать фильм Совместная поездка через торрент в хорошем качестве бесплатно BDRip-AVC

ОбщееУникальный идентификатор : 224005091338809422906833371886044935338 (0xA885CFB20AD94AE8BE9D3A1EDE2974AA)Полное имя : Sovmestnaia.Poezdka.2014.RUS.BDRip.x264.-HELLYWOOD.mkvФормат : MatroskaВерсия формата : Version 4 / Version 2Размер файла : 1,46 ГбайтПродолжительность : 1 ч. 39 м.Общий поток : 2100 Кбит/секНазвание фильма : HELLYWOOD - rip by potroksДата кодирования : UTC 2014-07-04 11:55:05Программа кодирования : mkvmerge v5.9.0 ('On The Loose') built on Dec 15 2012 16:39:58Библиотека кодирования : libebml v1.3.0 + libmatroska v1.4.0

ВидеоИдентификатор : 1Формат : AVCФормат/Информация : Advanced Video CodecПрофиль формата : [email protected]Параметр CABAC формата : ДаПараметр ReFrames формата : 12 кадровИдентификатор кодека : V_MPEG4/ISO/AVCПродолжительность : 1 ч. 39 м.Битрейт : 1714 Кбит/секШирина : 1008 пикселейВысота : 420 пикселейСоотношение сторон : 2,40:1Режим частоты кадров : ПостоянныйЧастота кадров : 23,976 кадра/секЦветовое пространство : YUVСубдискретизация насыщенности : 4:2:0Битовая глубина : 8 битТип развёртки : ПрогрессивнаяБит/(Пиксели*Кадры) : 0.169Размер потока : 1,17 Гбайт (80%)Заголовок : Ride AlongБиблиотека кодирования : x264 core 130 r2273 b3065e6Настройки программы : cabac=1 / ref=12 / deblock=1:-2:-1 / analyse=0x3:0x133 / me=umh / subme=11 / psy=1 / psy_rd=1.01:0.00 / mixed_ref=1 / me_range=32 / chroma_me=1 / trellis=2 / 8x8dct=1 / cqm=0 / deadzone=21,11 / fast_pskip=0 / chroma_qp_offset=-2 / threads=9 / lookahead_threads=6 / sliced_threads=0 / nr=0 / decimate=0 / interlaced=0 / bluray_compat=0 / constrained_intra=0 / bframes=13 / b_pyramid=2 / b_adapt=2 / b_bias=0 / direct=3 / weightb=1 / open_gop=0 / weightp=2 / keyint=250 / keyint_min=23 / scenecut=40 / intra_refresh=0 / rc_lookahead=60 / rc=2pass / mbtree=0 / bitrate=1714 / ratetol=1.0 / qcomp=0.70 / qpmin=0 / qpmax=69 / qpstep=4 / cplxblur=20.0 / qblur=0.5 / vbv_maxrate=20000 / vbv_bufsize=20000 / nal_hrd=none / ip_ratio=1.35 / pb_ratio=1.25 / aq=1:0.80Язык : EnglishDefault : ДаForced : Нет

АудиоИдентификатор : 2Формат : AC-3Формат/Информация : Audio Coding 3Расширение режима : CM (complete main)Параметр Endianness формата : BigИдентификатор кодека : A_AC3Продолжительность : 1 ч. 39 м.Вид битрейта : ПостоянныйБитрейт : 384 Кбит/секКаналы : 6 каналовРасположение каналов : Front: L C R, Side: L R, LFEЧастота : 48,0 КГцБитовая глубина : 16 битМетод сжатия : С потерямиРазмер потока : 274 Мбайт (18%)Заголовок : Dub | DD 5.1 @ 384 kbps - BD CEEЯзык : RussianDefault : ДаForced : Нет

Текст #1Идентификатор : 3Формат : UTF-8Идентификатор кодека : S_TEXT/UTF8Идентификатор кодека/Информация : UTF-8 Plain TextЗаголовок : форс.Язык : RussianDefault : ДаForced : Нет

Текст #2Идентификатор : 4Формат : UTF-8Идентификатор кодека : S_TEXT/UTF8Идентификатор кодека/Информация : UTF-8 Plain TextЗаголовок : полныеЯзык : RussianDefault : НетForced : Нет

Текст #3Идентификатор : 5Формат : UTF-8Идентификатор кодека : S_TEXT/UTF8Идентификатор кодека/Информация : UTF-8 Plain TextЗаголовок : FullЯзык : EnglishDefault : НетForced : Нет

Текст #4Идентификатор : 6Формат : UTF-8Идентификатор кодека : S_TEXT/UTF8Идентификатор кодека/Информация : UTF-8 Plain TextЗаголовок : SDHЯзык : EnglishDefault : НетForced : Нет

Текст #5Идентификатор : 7Формат : UTF-8Идентификатор кодека : S_TEXT/UTF8Идентификатор кодека/Информация : UTF-8 Plain TextЗаголовок : SDH-ColoredЯзык : EnglishDefault : НетForced : Нет

Меню00:05:09.183 : en:(01)00:05:09:18300:10:37.386 : en:(02)00:10:37:38600:14:40.921 : en:(03)00:14:40:92100:19:46.435 : en:(04)00:19:46:43500:25:03.418 : en:(05)00:25:03:41800:31:16.749 : en:(06)00:31:16:74900:35:46.394 : en:(07)00:35:46:39400:40:51.657 : en:(08)00:40:51:65700:44:31.085 : en:(09)00:44:31:08500:50:40.162 : en:(10)00:50:40:16200:54:49.995 : en:(11)00:54:49:99501:00:00.930 : en:(12)01:00:00:93001:06:13.135 : en:(13)01:06:13:13501:11:47.303 : en:(14)01:11:47:30301:18:44.553 : en:(15)01:18:44:55301:22:53.593 : en:(16)01:22:53:59301:26:27.974 : en:(17)01:26:27:97401:30:09.278 : en:(18)01:30:09:27801:35:27.346 : en:(19)01:35:27:34601:39:38.722 : en:(20)01:39:38:722

piratbit.ru

Скачать фильм Совместная поездка через торрент в хорошем качестве бесплатно BDRip-AVC

ОбщееУникальный идентификатор : 245574082705625589614805398181634807020 (0xB8BFD912E96341498099642B300E94EC)Полное имя : Sovmestnaia.Poezdka.2014.DUAL.BDRip.x264.-HELLYWOOD.mkvФормат : MatroskaВерсия формата : Version 4 / Version 2Размер файла : 2,18 ГбайтПродолжительность : 1 ч. 39 м.Общий поток : 3137 Кбит/секНазвание фильма : HELLYWOOD - rip by potroksДата кодирования : UTC 2014-07-04 11:48:04Программа кодирования : mkvmerge v5.9.0 ('On The Loose') built on Dec 15 2012 16:39:58Библиотека кодирования : libebml v1.3.0 + libmatroska v1.4.0

ВидеоИдентификатор : 1Формат : AVCФормат/Информация : Advanced Video CodecПрофиль формата : [email protected]Параметр CABAC формата : ДаПараметр ReFrames формата : 10 кадровИдентификатор кодека : V_MPEG4/ISO/AVCПродолжительность : 1 ч. 39 м.Битрейт : 2240 Кбит/секШирина : 1080 пикселейВысота : 450 пикселейСоотношение сторон : 2,40:1Режим частоты кадров : ПостоянныйЧастота кадров : 23,976 кадра/секЦветовое пространство : YUVСубдискретизация насыщенности : 4:2:0Битовая глубина : 8 битТип развёртки : ПрогрессивнаяБит/(Пиксели*Кадры) : 0.192Размер потока : 1,52 Гбайт (69%)Заголовок : Ride AlongБиблиотека кодирования : x264 core 130 r2273 b3065e6Настройки программы : cabac=1 / ref=10 / deblock=1:-2:-2 / analyse=0x3:0x133 / me=umh / subme=11 / psy=1 / psy_rd=1.03:0.03 / mixed_ref=1 / me_range=32 / chroma_me=1 / trellis=2 / 8x8dct=1 / cqm=0 / deadzone=21,11 / fast_pskip=0 / chroma_qp_offset=-3 / threads=9 / lookahead_threads=6 / sliced_threads=0 / nr=0 / decimate=0 / interlaced=0 / bluray_compat=0 / constrained_intra=0 / bframes=11 / b_pyramid=2 / b_adapt=2 / b_bias=0 / direct=3 / weightb=1 / open_gop=0 / weightp=2 / keyint=250 / keyint_min=23 / scenecut=40 / intra_refresh=0 / rc_lookahead=60 / rc=2pass / mbtree=0 / bitrate=2240 / ratetol=1.0 / qcomp=0.70 / qpmin=0 / qpmax=69 / qpstep=4 / cplxblur=20.0 / qblur=0.5 / vbv_maxrate=20000 / vbv_bufsize=20000 / nal_hrd=none / ip_ratio=1.35 / pb_ratio=1.25 / aq=1:0.80Язык : EnglishDefault : ДаForced : Нет

Аудио #1Идентификатор : 2Формат : AC-3Формат/Информация : Audio Coding 3Расширение режима : CM (complete main)Параметр Endianness формата : BigИдентификатор кодека : A_AC3Продолжительность : 1 ч. 39 м.Вид битрейта : ПостоянныйБитрейт : 448 Кбит/секКаналы : 6 каналовРасположение каналов : Front: L C R, Side: L R, LFEЧастота : 48,0 КГцБитовая глубина : 16 битМетод сжатия : С потерямиРазмер потока : 319 Мбайт (14%)Заголовок : Dub | DD 5.1 @ 448 kbps - BD CEEЯзык : RussianDefault : ДаForced : Да

Аудио #2Идентификатор : 3Формат : AC-3Формат/Информация : Audio Coding 3Расширение режима : CM (complete main)Параметр Endianness формата : BigИдентификатор кодека : A_AC3Продолжительность : 1 ч. 39 м.Вид битрейта : ПостоянныйБитрейт : 448 Кбит/секКаналы : 6 каналовРасположение каналов : Front: L C R, Side: L R, LFEЧастота : 48,0 КГцБитовая глубина : 16 битМетод сжатия : С потерямиРазмер потока : 319 Мбайт (14%)Заголовок : Original | DD 5.1 @ 448 kbpsЯзык : EnglishDefault : НетForced : Нет

Текст #1Идентификатор : 4Формат : UTF-8Идентификатор кодека : S_TEXT/UTF8Идентификатор кодека/Информация : UTF-8 Plain TextЗаголовок : форс.Язык : RussianDefault : ДаForced : Нет

Текст #2Идентификатор : 5Формат : UTF-8Идентификатор кодека : S_TEXT/UTF8Идентификатор кодека/Информация : UTF-8 Plain TextЗаголовок : полныеЯзык : RussianDefault : НетForced : Нет

Текст #3Идентификатор : 6Формат : UTF-8Идентификатор кодека : S_TEXT/UTF8Идентификатор кодека/Информация : UTF-8 Plain TextЗаголовок : FullЯзык : EnglishDefault : НетForced : Нет

Текст #4Идентификатор : 7Формат : UTF-8Идентификатор кодека : S_TEXT/UTF8Идентификатор кодека/Информация : UTF-8 Plain TextЗаголовок : SDHЯзык : EnglishDefault : НетForced : Нет

Текст #5Идентификатор : 8Формат : UTF-8Идентификатор кодека : S_TEXT/UTF8Идентификатор кодека/Информация : UTF-8 Plain TextЗаголовок : SDH-ColoredЯзык : EnglishDefault : НетForced : Нет

Меню00:05:09.183 : en:(01)00:05:09:18300:10:37.386 : en:(02)00:10:37:38600:14:40.921 : en:(03)00:14:40:92100:19:46.435 : en:(04)00:19:46:43500:25:03.418 : en:(05)00:25:03:41800:31:16.749 : en:(06)00:31:16:74900:35:46.394 : en:(07)00:35:46:39400:40:51.657 : en:(08)00:40:51:65700:44:31.085 : en:(09)00:44:31:08500:50:40.162 : en:(10)00:50:40:16200:54:49.995 : en:(11)00:54:49:99501:00:00.930 : en:(12)01:00:00:93001:06:13.135 : en:(13)01:06:13:13501:11:47.303 : en:(14)01:11:47:30301:18:44.553 : en:(15)01:18:44:55301:22:53.593 : en:(16)01:22:53:59301:26:27.974 : en:(17)01:26:27:97401:30:09.278 : en:(18)01:30:09:27801:35:27.346 : en:(19)01:35:27:34601:39:38.722 : en:(20)01:39:38:722

piratbit.ru

Скачать фильм Совместная поездка через торрент в хорошем качестве бесплатно Blu-ray

Размер: 26.93 GB | Добавлен: 3 года 3 мес. назад | Торрент скачан:86 раз
Реклама Дарим 3000 рублей за регистрацию, не упусти свой шанс получить шикарный бонус!!!

01-07-2014 18:43 Совместная поездка Скачать торрент  

Совместная поездка / Ride Along

Год выпуска: 2014Страна: СШАЖанр: Боевик, комедияПродолжительность: 01:39:38Перевод: Дубляж + ОригиналСубтитры: Русские, английскиеРежиссер: Тим СториВ ролях: Кевин Харт, Айс Кьюб, Джон Легуизэмо, Брюс Макгилл, Тика Самптер, Брайан Коллен, Лоренс Фишбёрн, Драгош Букур, Эрик Бенсон, Джей ФэроОписание: В жизни Бена Барбера все отлично: он работает охранником, играет в компьютерные игры, всегда сохраняет оптимистичный настрой и встречается с красоткой Анджелой, на которой намерен жениться. Проблема в его жизни только одна: помимо него в жизни Анджелы есть еще один важный мужчина – ее брат Джеймс, который ревностно охраняет честь сестры и отдавать ее замуж непонятно за кого не собирается. Увы, Бен для Джеймса – именно что непонятно кто, и даже просьба Анджелы поладить с ним и не судить строго не особенно его убеждают. Ведь Джеймс – не какой-то там придурковатый охранник, а самый настоящий крутой коп, работающий в полицейском управлении Атланты и ведущий серьезные расследования. Впрочем, этим двоим предстоит преодолеть разногласия и научиться работать в команде, причем не только ради счастья Анджелы. Дело в том, что Бен увязался с Джеймсом в патруль по улицам Атланты, и во время работы они натыкаются на улики, благодаря которым Джеймс может наконец завершить расследование, над которым трудится вот уже три года.Качество: Blu-rayФормат: BDMVВидео кодек: H.264Аудио кодек: AC3-DTS-HD MAВидео: MPEG-4 AVC, (1920x1080),32 200 Кбит/с, 23.976 кадра/секАудио#1: AC-3 6 ch,384 kbps (Rus) 48.0 KHz ДубляжАудио#2: DTS-HD MA-6 ch, 1509 kbps (Eng) 48.0 KHz ОригиналАудио#3: AC-3 2 ch,192 kbps (Eng) 48.0 KHz ОригиналАудио#4: AC-3 2 ch,192 kbps (Eng) 48.0 KHz Оригинал

Тип потока: ВидеоДлительность: 01:39:38Кодек: AVCКодек/описание: Advanced Video CodecКодек/профиль: [email protected]Кодек/ID: 27Кодек/CABAC: YesКодек/ReFrames: 4 framesРазмеры изображения: 1920 x 1080 (16:9)Частота кадров: 23.976 fpsБитрейт/макс: 35.0 MbpsБитрейт/тип: VBRЦветовое пространство: YUVТип развёртки: ProgressiveКолориметрия: 4:2:0Глубина: 8 bits: Тип потока: Звук #1Длительность: 01:39:38.975Кодек: AC-3Кодек/описание: Audio Coding 3Кодек/ID: 129Частота дискретизации: 48.0 KHzКаналов: 6 channelsБитрейт: 384 KbpsБитрейт/тип: ConstantРазмер потока: 274 MiB (1%)Глубина: 16 bitsМетод сжатия: Lossy: Тип потока: Звук #2Длительность: 01:39:38.976Кодек: DTSКодек/описание: Digital Theater SystemsКодек/профиль: MA / CoreРежим смешивания: Stream extensionКодек/ID: 134Частота дискретизации: 48.0 KHzКаналов: 6 channelsБитрейт: Unknown / 1 509 KbpsБитрейт/тип: VariableГлубина: 24 bitsМетод сжатия: Lossless / Lossy: Тип потока: Звук #3Длительность: 01:39:38.976Кодек: AC-3Кодек/описание: Audio Coding 3Кодек/профиль: Dolby DigitalКодек/ID: 129Частота дискретизации: 48.0 KHzКаналов: 2 channelsБитрейт: 192 KbpsБитрейт/тип: ConstantРазмер потока: 137 MiB (0%)Глубина: 16 bitsМетод сжатия: Lossy: Тип потока: Звук #4Длительность: 01:39:38.976Кодек: AC-3Кодек/описание: Audio Coding 3Кодек/профиль: Dolby DigitalКодек/ID: 129Частота дискретизации: 48.0 KHzКаналов: 2 channelsБитрейт: 192 KbpsБитрейт/тип: ConstantРазмер потока: 137 MiB (0%)Глубина: 16 bitsМетод сжатия: Lossy: Тип потока: Субтитры #1Формат: PGS: Тип потока: Субтитры #2Формат: PGS: Тип потока: Субтитры #3Формат: PGS

Скачать Совместная поездка через торрент http://i62.fastpic.ru/big/2014/0701/01/2bb9a30f040762c29558b38c0f2d7b01.jpg Скачать фильм Совместная поездка через торрент бесплантно в хорошем качестве Описание: В жизни Бена Барбера все отлично: он работает охранником, играет в компьютерные игры, всегда сохраняет оптимистичный настрой и ... 2014-07-01 18:43 9.3 10 4

Loading...

Loading...

% Раздел Тема Автор DL S | L
Фильмы (HD 720p, 1080p) (48-60 fps) [ 2.9 GB ] Совместная поездка / Ride Along [2014 BDRip 720p / 60 FPS ] от R.G. HD-Films slaventi-69 Скачать
Видео для КПК и Смартфонов [ 706 MB ] Совместная поездка / Ride Along [2013 BDRip / КПК] Skillters Скачать
Фильмы 2013 [DVDrip, WEB-DLRip, HDrip] [ 2.19 GB ] Совместная поездка / Ride Along [2014 BDRip ] coc900 Скачать
Фильмы 2014 [DVDrip, WEB-DLRip, HDrip] [ 1.46 GB ] Совместная поездка / Ride Along [2014 Тим Стори HDRip ] MihailHD Скачать
Фильмы 2013 [DVDrip, WEB-DLRip, HDrip] [ 2.18 GB ] Совместная поездка / Ride Along [2013 BDRip-AVC] DUB potroks Скачать
Фильмы 2013 [DVDrip, WEB-DLRip, HDrip] [ 1.46 GB ] Совместная поездка / Ride Along [2013 BDRip-AVC] DUB potroks Скачать
Фильмы [HD 720p, 1080p] (Хороший звук DUB, MVO) [ 6.17 GB ] Совместная поездка / Ride Along [2014 Тим Стори BDRip 720p ] Ворон Скачать

Рекламный пират

Дорогой пользователь! Огромная просьба, поблагодарите релизера, оцените раздачу и оставьте свои комментарий, если Вы скачали Совместная поездка через торрент бесплатно! Внесите свою лепту в развитие PiratBit!

Комментировать посты могут только пользователи прошедшие не сложную регистрацию

Совместная поездка через торрент Скачать бесплатно Совместная поездка Совместная поездка скачать торрент Совместная поездка смотреть онлайн Cкачать фильм Совместная поездка бесплатно Совместная поездка скачать торрент в хорошем качестве Совместная поездка смотреть онлайн бесплатно в хорошем качестве

Вы не можете начинать темыВы не можете отвечать на сообщенияВы не можете редактировать свои сообщенияВы не можете удалять свои сообщенияВы не можете голосовать в опросахВы не можете прикреплять файлы к сообщениямВы можете скачивать файлы

piratbit.ru

Совместная поездка / Ride Along [2013 BDRip / КПК] скачать через торрент

Размер: 706 MB | Добавлен: 1 год 9 мес. назад | Торрент скачан:41 раз
Реклама Дарим 3000 рублей за регистрацию, не упусти свой шанс получить шикарный бонус!!!

22-01-2016 19:44 Совместная поездка Скачать торрент  

Совместная поездка / Ride AlongГод выхода: 2013Жанр: боевик, комедияСтрана: СШАПродолжительность: 01:39:31Перевод: Профессиональный (полное дублирование) CEEСубтитры: нетРежиссер: Тим Стори / Tim StoryВ ролях: Айс Кьюб, Кевин Харт, Джон Легуизамо, Брюс МакГилл, Тика Самптер, Брайан Коллен, Лоренс Фишбёрн, Драгош Букур, Гари Оуэн, Джейкоб ЛатиморОписание: Охранник Бен отправляется вместе со своим шурином Джеймсом в патруль по Атланте, чтобы доказать, что он достоин жениться на Анджеле, сестре Джеймса. Качество: BDRipКодек: H.264Видео: 480 Х 320, 668 Kbps, 23.976 fps, 0.178 bit/pixelЗвук: AAC, 48 kHz, 2 ch,L R, ~ 320 kbps avg Скачать Совместная поездка через торрент http://i75.fastpic.ru/big/2016/0122/a5/499ba193879e3470652998c1d2fab1a5.jpeg Скачать фильм Совместная поездка через торрент бесплантно в хорошем качестве Описание: Охранник Бен отправляется вместе со своим шурином Джеймсом в патруль по Атланте, чтобы доказать, что он достоин жениться на ... 2016-01-22 19:44 10 10 2

Loading...

Loading...

% Раздел Тема Автор DL S | L
Фильмы (HD 720p, 1080p) (48-60 fps) [ 2.9 GB ] Совместная поездка / Ride Along [2014 BDRip 720p / 60 FPS ] от R.G. HD-Films slaventi-69 Скачать
Фильмы 2013 [DVDrip, WEB-DLRip, HDrip] [ 2.19 GB ] Совместная поездка / Ride Along [2014 BDRip ] coc900 Скачать
Фильмы 2014 [DVDrip, WEB-DLRip, HDrip] [ 1.46 GB ] Совместная поездка / Ride Along [2014 Тим Стори HDRip ] MihailHD Скачать
Фильмы 2013 [DVDrip, WEB-DLRip, HDrip] [ 2.18 GB ] Совместная поездка / Ride Along [2013 BDRip-AVC] DUB potroks Скачать
Фильмы 2013 [DVDrip, WEB-DLRip, HDrip] [ 1.46 GB ] Совместная поездка / Ride Along [2013 BDRip-AVC] DUB potroks Скачать
Фильмы [HD 720p, 1080p] (Хороший звук DUB, MVO) [ 6.17 GB ] Совместная поездка / Ride Along [2014 Тим Стори BDRip 720p ] Ворон Скачать
Фильмы (Blu-ray, BD-Remux, HDDVD) [ 26.93 GB ] Совместная поездка / Ride Along [2014 Blu-ray + Оригинал] Бумер Скачать

Рекламный пират

Дорогой пользователь! Огромная просьба, поблагодарите релизера, оцените раздачу и оставьте свои комментарий, если Вы скачали Совместная поездка через торрент бесплатно! Внесите свою лепту в развитие PiratBit!

Комментировать посты могут только пользователи прошедшие не сложную регистрацию

Совместная поездка через торрент Скачать бесплатно Совместная поездка Совместная поездка скачать торрент Совместная поездка смотреть онлайн Cкачать фильм Совместная поездка бесплатно Совместная поездка скачать торрент в хорошем качестве Совместная поездка смотреть онлайн бесплатно в хорошем качестве

Вы не можете начинать темыВы не можете отвечать на сообщенияВы не можете редактировать свои сообщенияВы не можете удалять свои сообщенияВы не можете голосовать в опросахВы не можете прикреплять файлы к сообщениямВы можете скачивать файлы

piratbit.ru

/ Ride Along (2014) BDRip 720p |

, , , .

: BDRip 720p: 1280x534 (2.40:1) at 23.976 fps, AVC at 2258 kbps avg, 0.138 bit/pixel: , (3, 6 ch, 640 /): (, ), : Blu-Ray

x264 [info]: frame I:1628 Avg QP:14.12 size: 71094x264 [info]: frame P:38047 Avg QP:17.30 size: 22150x264 [info]: frame B:103677 Avg QP:19.81 size: 7031

-------------------------

GeneralUnique ID : 208986825734720181570407407572107357384 (0x9D3966087426B010B602B4529A0B6CC8)Complete name : H:Ride.Along.2014.BD.720.Hot-Film.mkvFormat : MatroskaFormat version : Version 2File size : 2.46 GiBDuration : 01:39:39Overall bit rate : 3 540 KbpsEncoded date : UTC 2014-07-04 00:16:04Writing application : mkvmerge v5.8.0 ('No Sleep / Pillow') built on Sep 2 2012 15:37:04Writing library : libebml v1.2.3 + libmatroska v1.3.0Attachment : Yes

VideoID : 1Format : AVCFormat/Info : Advanced Video CodecFormat profile : [email protected]Format settings, CABAC : YesFormat settings, ReFrames : 9 framesCodec ID : V_MPEG4/ISO/AVCDuration : 1h 39mnBit rate : 2 258 KbpsWidth : 1 280 pixelsHeight : 534 pixelsDisplay aspect ratio : 2.40:1Frame rate mode : ConstantFrame rate : 23.976 fpsColor space : YUVChroma subsampling : 4:2:0Bit depth : 8 bitsScan type : ProgressiveBits/(Pixel*Frame) : 0.138Stream size : 1.52 GiB (62%)Writing library : x264 core 138 r2358 9e941d1Encoding settings : cabac=1 / ref=9 / deblock=1:-3:-3 / analyse=0x3:0x133 / me=umh / subme=11 / psy=1 / psy_rd=1.00:0.10 / mixed_ref=1 / me_range=32 / chroma_me=1 / trellis=2 / 8x8dct=1 / cqm=0 / deadzone=21,11 / fast_pskip=0 / chroma_qp_offset=-3 / threads=12 / lookahead_threads=2 / sliced_threads=0 / nr=0 / decimate=0 / interlaced=0 / bluray_compat=0 / constrained_intra=0 / bframes=8 / b_pyramid=2 / b_adapt=2 / b_bias=0 / direct=3 / weightb=1 / open_gop=0 / weightp=2 / keyint=240 / keyint_min=23 / scenecut=40 / intra_refresh=0 / rc_lookahead=40 / rc=2pass / mbtree=0 / bitrate=2258 / ratetol=1.0 / qcomp=0.60 / qpmin=0 / qpmax=69 / qpstep=4 / cplxblur=20.0 / qblur=0.5 / vbv_maxrate=50000 / vbv_bufsize=62500 / nal_hrd=none / ip_ratio=1.40 / pb_ratio=1.30 / aq=1:0.80Language : EnglishDefault : YesForced : No

Audio #1ID : 2Format : AC-3Format/Info : Audio Coding 3Mode extension : CM (complete main)Format settings, Endianness : BigCodec ID : A_AC3Duration : 1h 39mnBit rate mode : ConstantBit rate : 640 KbpsChannel(s) : 6 channelsChannel positions : Front: L C R, Side: L R, LFESampling rate : 48.0 KHzBit depth : 16 bitsCompression mode : LossyStream size : 456 MiB (18%)Title : DUBLanguage : RussianDefault : YesForced : No

Audio #2ID : 3Format : AC-3Format/Info : Audio Coding 3Mode extension : CM (complete main)Format settings, Endianness : BigCodec ID : A_AC3Duration : 1h 39mnBit rate mode : ConstantBit rate : 640 KbpsChannel(s) : 6 channelsChannel positions : Front: L C R, Side: L R, LFESampling rate : 48.0 KHzBit depth : 16 bitsCompression mode : LossyStream size : 456 MiB (18%)Title : OriginalLanguage : EnglishDefault : NoForced : No

Text #1ID : 4Format : UTF-8Codec ID : S_TEXT/UTF8Codec ID/Info : UTF-8 Plain TextTitle : ForcedLanguage : RussianDefault : YesForced : Yes

Text #2ID : 5Format : UTF-8Codec ID : S_TEXT/UTF8Codec ID/Info : UTF-8 Plain TextTitle : FullLanguage : RussianDefault : NoForced : No

Text #3ID : 6Format : UTF-8Codec ID : S_TEXT/UTF8Codec ID/Info : UTF-8 Plain TextTitle : OriginalLanguage : EnglishDefault : NoForced : No

Menu00:00:00.000 : :Chapter 0100:05:09.184 : :Chapter 0200:10:37.387 : :Chapter 0300:14:40.922 : :Chapter 0400:19:46.435 : :Chapter 0500:25:03.419 : :Chapter 0600:31:16.750 : :Chapter 0700:35:46.394 : :Chapter 0800:40:51.658 : :Chapter 0900:44:31.085 : :Chapter 1000:50:40.162 : :Chapter 1100:54:49.995 : :Chapter 1201:00:00.931 : :Chapter 1301:06:13.136 : :Chapter 1401:11:47.303 : :Chapter 1501:18:44.553 : :Chapter 1601:22:53.594 : :Chapter 1701:26:27.974 : :Chapter 1801:30:09.279 : :Chapter 1901:35:27.347 : :Chapter 20

filmtor.net


Смотрите также