Скачать фильм таинственная река через торрент в хорошем качестве бесплатно


Скачать фильм Таинственная река через торрент в хорошем качестве бесплатно 1080p

ОбщееУникальный идентификатор : 230665048755485896731056273179844096029 (0xAD8878F2A028D168A02946CB1689301D)Полное имя : D:\РЕМУКС!!!!!\Таинственная река.BDRemux..mkvФормат : MatroskaВерсия формата : Version 2Размер файла : 32,0 ГбайтПродолжительность : 2 ч. 17 м.Общий поток : 33,2 Мбит/секДата кодирования : UTC 2015-07-13 13:38:42Программа кодирования : mkvmerge v5.0.1 ('Es ist Sommer') built on Oct 9 2011 11:55:43Библиотека кодирования : libebml v1.2.2 + libmatroska v1.3.0

ВидеоИдентификатор : 1Формат : VC-1Профиль формата : [email protected]Идентификатор кодека : V_MS/VFW/FOURCC / WVC1Идентификатор кодека/Подсказка : MicrosoftПродолжительность : 2 ч. 17 м.Ширина : 1920 пикселейВысота : 1080 пикселейСоотношение сторон : 16:9Режим частоты кадров : ПостоянныйЧастота кадров : 23,976 (24000/1001) кадра/секЦветовое пространство : YUVСубдискретизация насыщенности : 4:2:0Битовая глубина : 8 битТип развёртки : ПрогрессивнаяМетод сжатия : С потерямиDefault : ДаForced : Нет

Аудио #1Идентификатор : 2Формат : DTSФормат/Информация : Digital Theater SystemsПрофиль формата : MA / CoreРежим : 16Параметр Endianness формата : BigИдентификатор кодека : A_DTSПродолжительность : 2 ч. 17 м.Вид битрейта : Переменный / ПостоянныйБитрейт : Неизвестно / 1509 Кбит/секКаналы : 6 каналовРасположение каналов : Front: L C R, Side: L R, LFEЧастота : 48,0 КГцЧастота кадров : 93,750 кадра/сек (512 SPF)Битовая глубина : 24 битМетод сжатия : Без потерь / LossyЗаголовок : DTS-HD MA, 5.1 / 48 kHz / 3507 kbps - оригиналЯзык : EnglishDefault : НетForced : Нет

Аудио #2Идентификатор : 3Формат : AC-3Формат/Информация : Audio Coding 3Параметр Endianness формата : BigИдентификатор кодека : A_AC3Продолжительность : 2 ч. 17 м.Вид битрейта : ПостоянныйБитрейт : 640 Кбит/секКаналы : 6 каналовРасположение каналов : Front: L C R, Side: L R, LFEЧастота : 48,0 КГцЧастота кадров : 31,250 кадров/сек (1536 SPF)Битовая глубина : 16 битМетод сжатия : С потерямиРазмер потока : 631 Мбайт (2%)Заголовок : AC3, 5.1, 640 kbps - немецкийЯзык : GermanServiceKind/String : Complete MainDefault : НетForced : Нет

Аудио #3Идентификатор : 4Формат : AC-3Формат/Информация : Audio Coding 3Параметр Endianness формата : BigИдентификатор кодека : A_AC3Продолжительность : 2 ч. 17 м.Вид битрейта : ПостоянныйБитрейт : 384 Кбит/секКаналы : 6 каналовРасположение каналов : Front: L C R, Side: L R, LFEЧастота : 48,0 КГцЧастота кадров : 31,250 кадров/сек (1536 SPF)Битовая глубина : 16 битМетод сжатия : С потерямиРазмер потока : 379 Мбайт (1%)Заголовок : AC3, 5.1, 384 kbps - дубляжЯзык : RussianServiceKind/String : Complete MainDefault : ДаForced : Нет

Аудио #4Идентификатор : 5Формат : AC-3Формат/Информация : Audio Coding 3Параметр Endianness формата : BigИдентификатор кодека : A_AC3Продолжительность : 2 ч. 17 м.Вид битрейта : ПостоянныйБитрейт : 384 Кбит/секКаналы : 6 каналовРасположение каналов : Front: L C R, Side: L R, LFEЧастота : 48,0 КГцЧастота кадров : 31,250 кадров/сек (1536 SPF)Битовая глубина : 16 битМетод сжатия : С потерямиРазмер потока : 379 Мбайт (1%)Заголовок : Rus 48 kHz, AC3 ~384.00 kbps avg - MVOЯзык : RussianServiceKind/String : Complete MainDefault : НетForced : Нет

Аудио #5Идентификатор : 6Формат : AC-3Формат/Информация : Audio Coding 3Параметр Endianness формата : BigИдентификатор кодека : A_AC3Продолжительность : 2 ч. 17 м.Вид битрейта : ПостоянныйБитрейт : 384 Кбит/секКаналы : 6 каналовРасположение каналов : Front: L C R, Side: L R, LFEЧастота : 48,0 КГцЧастота кадров : 31,250 кадров/сек (1536 SPF)Битовая глубина : 16 битМетод сжатия : С потерямиРазмер потока : 379 Мбайт (1%)Заголовок : Rus 48 kHz, AC3 ~384 kbps - Сергей ВизгуновЯзык : RussianServiceKind/String : Complete MainDefault : НетForced : Нет

Аудио #6Идентификатор : 7Формат : AC-3Формат/Информация : Audio Coding 3Параметр Endianness формата : BigИдентификатор кодека : A_AC3Продолжительность : 2 ч. 17 м.Вид битрейта : ПостоянныйБитрейт : 448 Кбит/секКаналы : 6 каналовРасположение каналов : Front: L C R, Side: L R, LFEЧастота : 48,0 КГцЧастота кадров : 31,250 кадров/сек (1536 SPF)Битовая глубина : 16 битМетод сжатия : С потерямиРазмер потока : 442 Мбайт (1%)Заголовок : Rus 48 kHz, AC3 ~448 kbps - Андрей ГавриловЯзык : RussianServiceKind/String : Complete MainDefault : НетForced : Нет

Аудио #7Идентификатор : 8Формат : AC-3Формат/Информация : Audio Coding 3Параметр Endianness формата : BigИдентификатор кодека : A_AC3Продолжительность : 2 ч. 17 м.Вид битрейта : ПостоянныйБитрейт : 448 Кбит/секКаналы : 6 каналовРасположение каналов : Front: L C R, Side: L R, LFEЧастота : 48,0 КГцЧастота кадров : 31,250 кадров/сек (1536 SPF)Битовая глубина : 16 битМетод сжатия : С потерямиРазмер потока : 442 Мбайт (1%)Заголовок : Rus 48 kHz, AC3 ~448.00 kbps avg - Юрий СербинЯзык : RussianServiceKind/String : Complete MainDefault : НетForced : Нет

Аудио #8Идентификатор : 9Формат : DTSФормат/Информация : Digital Theater SystemsРежим : 16Параметр Endianness формата : BigИдентификатор кодека : A_DTSПродолжительность : 2 ч. 17 м.Вид битрейта : ПостоянныйБитрейт : 1509 Кбит/секКаналы : 6 каналовРасположение каналов : Front: L C R, Side: L R, LFEЧастота : 48,0 КГцЧастота кадров : 93,750 кадра/сек (512 SPF)Битовая глубина : 24 битМетод сжатия : С потерямиРазмер потока : 1,45 Гбайт (5%)Заголовок : Русский (DTS, 6 ch, 1510 Кбитс) - Андрей ГавриловЯзык : RussianDefault : НетForced : Нет

Текст #1Идентификатор : 10Формат : UTF-8Идентификатор кодека : S_TEXT/UTF8Идентификатор кодека/Информация : UTF-8 Plain TextЗаголовок : РусскиеЯзык : RussianDefault : НетForced : Нет

Текст #2Идентификатор : 11Формат : UTF-8Идентификатор кодека : S_TEXT/UTF8Идентификатор кодека/Информация : UTF-8 Plain TextЗаголовок : АнглийскиеЯзык : EnglishDefault : НетForced : Нет

Меню00:00:00.000 : :Chapter 0100:03:18.489 : :Chapter 0200:06:07.784 : :Chapter 0300:08:05.902 : :Chapter 0400:12:21.615 : :Chapter 0500:14:36.542 : :Chapter 0600:18:38.408 : :Chapter 0700:23:32.077 : :Chapter 0800:28:04.849 : :Chapter 0900:32:45.630 : :Chapter 1000:35:03.851 : :Chapter 1100:40:37.226 : :Chapter 1200:42:41.600 : :Chapter 1300:47:00.943 : :Chapter 1400:51:26.792 : :Chapter 1500:53:58.276 : :Chapter 1601:00:09.480 : :Chapter 1701:05:17.371 : :Chapter 1801:07:59.492 : :Chapter 1901:10:52.873 : :Chapter 2001:15:30.901 : :Chapter 2101:17:22.554 : :Chapter 2201:23:14.990 : :Chapter 2301:26:24.262 : :Chapter 2401:30:53.573 : :Chapter 2501:36:32.536 : :Chapter 2601:40:12.089 : :Chapter 2701:42:46.118 : :Chapter 2801:45:33.452 : :Chapter 2901:49:29.688 : :Chapter 3001:55:41.309 : :Chapter 3101:57:36.674 : :Chapter 3202:00:10.786 : :Chapter 3302:05:49.500 : :Chapter 3402:10:15.891 : :Chapter 3502:12:52.839 : :Chapter 3602:17:56.559 : :Chapter 37

piratbit.ru

Таинственная река 2003 - скачать бесплатно через торрент в хорошем качестве. Без регистрации

Название: Таинственная река / Mystic River (2003) BDRipот HQCLUB
Качество видео: BDRip (источник: HDCLUB /Blu-Ray Remux/1080p)
Перевод: профессиональный (полное дублирование)
Формат видео: AVI
Видео: 720x304 (2.37:1), 23.976 fps, XviD build 50 ~1874 kbps avg, 0.36 bit/pixel
Аудио: + Профессиональный (многоголосый, закадровый)48 kHz, AC3 Dolby Digital, 3/2 (L,C,R,l,r) + LFE ch, ~384 kbps avg (DUB)48 kHz, AC3 Dolby Digital, 3/2 (L,C,R,l,r) + LFE ch, ~384 kbps avg (MVO) (отдельно)48 kHz, AC3 Dolby Digital, 3/2 (L,C,R,l,r) + LFE ch, ~384 kbps avg (AVO.GAVRILOV) (отдельно)48 kHz, AC3 Dolby Digital, 3/2 (L,C,R,l,r) + LFE ch, ~384 kbps avg (AVO.VIZGUNOV) (отдельно)48 kHz, AC3 Dolby Digital, 3/2 (L,C,R,l,r) + LFE ch, ~384 kbps avg (AVO.SERBIN) (отдельно)48 kHz, AC3 Dolby Digital, 3/2 (L,C,R,l,r) + LFE ch, ~384 kbps avg (MVO.UKR.1+1) (отдельно)48 kHz, AC3 Dolby Digital, 3/2 (L,C,R,l,r) + LFE ch, ~384 kbps avg (MVO.UKR.INTER) (отдельно)48 kHz, AC3 Dolby Digital, 3/2 (L,C,R,l,r) + LFE ch, ~384 kbps avg (ENG) (отдельно)
Скачать

Загрузка начнется в течение 5 сек.

2.18 GB

Название: Таинственная река / Mystic River (2003) BDRip от MediaClub | КПК
Качество видео: BDRip
Перевод: Дублированный
Видео: MPEG-4 AVC 500 Кбит/с, 320x128, 23.976 кадр/с
Аудио: Русский (AAC, 2 ch, 128 Кбит/с)
Скачать

Загрузка начнется в течение 5 сек.

624.92 MB

Название: Таинственная река / Mystic River (2003) BDRip 720p от Leonardo and Scarabey
Качество видео: BDRip 720p Исходник: Blu-ray
Перевод: Профессиональный (полное дублирование) Лицензия
Формат видео: MKV Видео кодек: MPEG-4 AVC Аудио кодек: AC3
Видео: AVC, 1280x532 (2.40:1) at 23.976 fps, AVC at 2578 kbps avg, 0.158 bit/pixel
Аудио: Russian; AC3; 384 Kbps; CBR; 6 ch; 16 bit; Dub, R5
Скачать

Загрузка начнется в течение 5 сек.

2.91 GB

Название: Таинственная река / Mystic river (2003) BDRip | P, A
Качество видео: BDRip
Перевод: Профессиональный многоголосый, авторский (одноголосый закадровый) С.Визгунов, авторский (одноголосый закадровый) А.Гаврилов, авторский (одноголосый закадровый) Ю.Сербин
Видео: XviD, 1890 Кбит/с, 720x304
Аудио: Rus: 48 kHz, AC3 Dolby Digital, 3/2 (L,C,R,l,r) + LFE ch, ~384 kbps - Сергей ВизгуновRus: 48 kHz, AC3 Dolby Digital, 3/2 (L,C,R,l,r) + LFE ch, ~448 kbps - Андрей ГавриловRus: 48 kHz, AC3 Dolby Digital, 6 ch, ~384.00 kbps avg - МногоголосыйRus: 48 kHz, AC3 Dolby Digital, 6 ch, ~448.00 kbps avg - Юрий СербинEng: 48 kHz, AC3 Dolby Digital, 6 ch, ~448.00 kbps avg (оригинал)
Скачать

Загрузка начнется в течение 5 сек.

3.86 GB

Название: Таинственная река / Mystic River (2003) BDRip-AVC
Качество видео: BDRip-AVC
Перевод: Профессиональный (полное дублирование)
Формат видео: MKV
Видео: 1072x448, 23.976 fps, ~1828 kbps
Аудио: 48 kHz, AC3 Dolby Digital, 6 channels, ~384 kbps
Скачать

Загрузка начнется в течение 5 сек.

2.12 GB

Название: Таинственная река / Mystic river (2003) BDRip 1080p от BT-Club
Качество видео: BDRip 1080p
Перевод: Дублированный, многоголосый закадровый, авторский
Видео: MPEG4-AVC, 1920х800, 8000 Кбит/сек, 23.976 кадр/сек
Аудио: AC-3, 384 Кбит/сек, 6 канала(ов), 48,0 КГц - МногоголосыйDTS, 1510 Кбит/сек, 6 канала(ов), 48,0 КГц - ГавриловDTS, 1510 Кбит/сек, 6 канала(ов), 48,0 КГц - ОригиналAC-3, 192 Кбит/сек, 2 канала(ов), 48,0 КГц - Дублированный
Скачать

Загрузка начнется в течение 5 сек.

11.17 GB

Название: Таинственная река / Mystic River (2003) BDRip 720p от NoLimits-Team
Качество видео: BDRip 720p (исходник Blu-ray Disc)
Перевод: Дублированный, Английский
Видео: 1280х534, 3 512 Кбит/сек, 23.976 кадр/сек, 2.40:1, AVC, x264, 0.214 Бит/(Пиксели*Кадры), 2-pass
Аудио: AC-3, 384 Кбит/сек, 6 канала(ов), 48,0 КГц - ДублированныйAC-3, 640 Кбит/сек, 6 канала(ов), 48,0 КГц - Английский
Скачать

Загрузка начнется в течение 5 сек.

4.37 GB

Название: Таинственная река / Mystic river (2003) HDRip от Scarabey | D
Качество видео: HDRip
Перевод: Дубляж
Формат видео: AVI
Видео: 640x272 (2.35:1), 23.976 fps, XviD build 73 ~656 kbps avg, 0.16 bit/pixel
Аудио: 48 kHz, MPEG Layer 3, 2 ch, ~128.00 kbps avg
Скачать

Загрузка начнется в течение 5 сек.

783.30 MB

Название: Таинственная река / Mystic river (2003) HDRip от Scarabey | D
Качество видео: HDRip
Перевод: Дубляж
Формат видео: AVI
Видео: 720x304 (2.37:1), 23.976 fps, XviD build 73 ~1862 kbps avg, 0.35 bit/pixel
Аудио: 48 kHz, AC3 Dolby Digital, 3/2 (L,C,R,l,r) + LFE ch, ~384 kbps
Скачать

Загрузка начнется в течение 5 сек.

2.17 GB

Название: Таинственная река / Mystic River (2003) BDRip 1080p от NoLimits-Team
Качество видео: BDRip 1080p (исходник Blu-ray Disc)
Перевод: Дублированный, Английский
Видео: 1920х800, 7 226 Кбит/сек, 23.976 кадр/сек, 2.40:1, AVC, x264, 0.196 Бит/(Пиксели*Кадры), 2-pass
Аудио: AC-3, 384 Кбит/сек, 6 канала(ов), 48,0 КГц - ДублированныйAC-3, 640 Кбит/сек, 6 канала(ов), 48,0 КГц - Английский
Скачать

Загрузка начнется в течение 5 сек.

7.95 GB

Название: Таинственная река / Mystic River (2003) BDRip от Youtracker | D
Качество видео: BDRip / источник: BDRemux
Перевод: Профессиональный (дублированный)
Видео: 720x304 (2.37:1), 23.976 fps, XviD build 73, 1874 kbps avg, 0.36 bit/pixel
Аудио: AC3 Dolby Digital, 48 kHz, 6 ch, 384 kbps | Dub
Скачать

Загрузка начнется в течение 5 сек.

2.18 GB

Название: Таинственная река / Mystic River (2003) BDRip от HELLYWOOD
Качество видео: BDRip (источник: -DaRkY-/ BD-Remux / 1080p)
Перевод: Профессиональный (полное дублирование) + оригинал (отдельно на narod.ru)
Формат видео: AVI
Видео: 720x304 (2.37:1), 23.976 fps, XviD build 65 ~1874 kbps avg, 0.36 bit/pixel
Аудио: 48 kHz, AC3 Dolby Digital, 3/2 (L,C,R,l,r) + LFE ch, ~384 kbps|DUB|48 kHz, AC3 Dolby Digital, 3/2 (L,C,R,l,r) + LFE ch, ~384 kbps|ENG| (отдельно)
Скачать

Загрузка начнется в течение 5 сек.

2.18 GB

Название: Таинственная река / Mystic River (2003) BDRip 1080p от Element team
Качество видео: BDRip 1080p
Перевод: Дубляж
Видео: 1920x800 at 23.976 fps, [email protected], 2pass, ~4 149 Kbps avg
Аудио: 48 kHz, AC3, 3/2 (L,C,R,l,r) + LFE ch, ~384.00 kbps avg
Скачать

Загрузка начнется в течение 5 сек.

4.37 GB

www.kinovit.net

Скачать фильм Таинственная река через торрент в хорошем качестве бесплатно HDRip by Dean24] [Дубляж

Размер: 2.18 GB | Добавлен: 2 года 2 мес. назад | Торрент скачан:132 раза
Реклама Дарим 3000 рублей за регистрацию, не упусти свой шанс получить шикарный бонус!!!

24-08-2015 09:36 Таинственная река Скачать торрент  

Таинственная река / Mystic River

Год выпуска: 2003Страна: США, АвстралияЖанр: триллер, драма, криминал, детективПродолжительность: 02:17:56Перевод: Дубляж, ЛицензияСубтитры: Нет

Режиссер: Клинт ИствудПродюссер: Клинт Иствуд, Роберт Лоренц, Брюс БерманСценарий: Брайан Хелгеленд, Деннис Лихейн

Бюджет: $25 000 000Премьера в мире: 23 мая 2003

В ролях: Шон Пенн, Тим Роббинс, Кевин Бейкон, Лоренс Фишбёрн, Марша Гей Харден, Лора Линни, Кевин Чэпмен, Том Гайри, Эмми Россам, Спенсер Трит Кларк

Описание: Джимми Маркум, Дейвид Бойл и Шон Девин — неразлучные приятели с детства. Они вместе играют в хоккей, взрослея на знакомых неспокойных улицах Бостона. Уже во взрослом возрасте судьба сталкивает их вместе перед лицом трагедии: зверского убийства дочери Джимми Маркума — Кэтти.

Качество: HDRip | BDRip 720pФормат: AVIВидео кодек: XviDАудио кодек: AC3Видео: 720x304 (2.37:1), 23.976 fps, XviD build 50 ~1874 kbps avg, 0.36 bit/pixelАудио: 48 kHz, AC3 Dolby Digital, 3/2 (L,C,R,l,r) + LFE ch, ~384 kbps

Автор рипа: Dean24

ОбщееПолное имя : D:\Мои документы\Фильмы\Сайт\Mystic River.HDRip.aviФормат : AVIФормат/Информация : Audio Video InterleaveПрофиль формата : OpenDMLРазмер файла : 2,18 ГбайтПродолжительность : 2 ч. 17 м.Общий поток : 2266 Кбит/секПрограмма кодирования : VirtualDubMod 1.5.10.3 | (build 2550/release)Библиотека кодирования : VirtualDubMod build 2550/release

ВидеоИдентификатор : 0Формат : MPEG-4 VisualПрофиль формата : Advanced [email protected]Параметр BVOP формата : 3Параметр QPel формата : НетПараметр GMC формата : Без точки переходаПараметр матрицы формата : Default (H.263)Идентификатор кодека : XVIDИдентификатор кодека/Подсказка : XviDПродолжительность : 2 ч. 17 м.Битрейт : 1870 Кбит/секШирина : 720 пикселейВысота : 304 пикселяСоотношение сторон : 2,35:1Частота кадров : 23,976 кадра/секЦветовое пространство : YUVСубдискретизация насыщенности : 4:2:0Битовая глубина : 8 битТип развёртки : ПрогрессивнаяМетод сжатия : С потерямиБит/(Пиксели*Кадры) : 0.356Размер потока : 1,80 Гбайт (83%)Библиотека кодирования : XviD 1.2.1 (UTC 2008-12-04)

АудиоИдентификатор : 1Формат : AC-3Формат/Информация : Audio Coding 3Расширение режима : CM (complete main)Параметр Endianness формата : BigИдентификатор кодека : 2000Продолжительность : 2 ч. 17 м.Вид битрейта : ПостоянныйБитрейт : 384 Кбит/секКаналы : 6 каналовРасположение каналов : Front: L C R, Side: L R, LFEЧастота : 48,0 КГцБитовая глубина : 16 битМетод сжатия : С потерямиРазмер потока : 379 Мбайт (17%)Выравнивание : Разделение по промежуткамПродолжительность промежутка : 42 мс. (1,00 видеокадр)Время предзагрузки промежутка : 500 мс.

Скачать Таинственная река через торрент http://i68.fastpic.ru/big/2015/0824/17/72ff16d20c066ad2c855976caff80117.jpg Скачать фильм Таинственная река через торрент бесплантно в хорошем качестве Описание: Джимми Маркум, Дейвид Бойл и Шон Девин — неразлучные приятели с детства. Они вместе играют в хоккей, взрослея на знакомых ... 2015-08-24 09:36 9.8 10 8

Loading...

Loading...

Рекламный пират

Дорогой пользователь! Огромная просьба, поблагодарите релизера, оцените раздачу и оставьте свои комментарий, если Вы скачали Таинственная река через торрент бесплатно! Внесите свою лепту в развитие PiratBit!

Комментировать посты могут только пользователи прошедшие не сложную регистрацию

Таинственная река через торрент Скачать бесплатно Таинственная река Таинственная река скачать торрент Таинственная река смотреть онлайн Cкачать фильм Таинственная река бесплатно Таинственная река скачать торрент в хорошем качестве Таинственная река смотреть онлайн бесплатно в хорошем качестве

Вы не можете начинать темыВы не можете отвечать на сообщенияВы не можете редактировать свои сообщенияВы не можете удалять свои сообщенияВы не можете голосовать в опросахВы не можете прикреплять файлы к сообщениямВы можете скачивать файлы

piratbit.ru

Скачать фильм Таинственная река через торрент в хорошем качестве бесплатно 1080p от _denis_100 / NNNB] DUB

Format                                   : MatroskaFormat version                           : Version 2File size                                : 9.43 GiBDuration                                 : 2h 17mnOverall bit rate                         : 9 789 KbpsMovie name                               : Mystic River.(2003).BDRip.1080p.[denis100]Encoded date                             : UTC 2016-01-11 13:24:41Writing application                      : mkvmerge v5.8.0 ('No Sleep / Pillow') built on Sep  2 2012 15:37:04Writing library                          : libebml v1.2.3 + libmatroska v1.3.0

VideoID                                       : 1Format                                   : AVCFormat/Info                              : Advanced Video CodecFormat profile                           : [email protected] settings, CABAC                   : YesFormat settings, ReFrames                : 5 framesCodec ID                                 : V_MPEG4/ISO/AVCDuration                                 : 2h 17mnBit rate                                 : 7 226 KbpsWidth                                    : 1 920 pixelsHeight                                   : 800 pixelsDisplay aspect ratio                     : 2.40:1Frame rate                               : 23.976 fpsColor space                              : YUVChroma subsampling                       : 4:2:0Bit depth                                : 8 bitsScan type                                : ProgressiveBits/(Pixel*Frame)                       : 0.196Stream size                              : 6.78 GiB (72%)Title                                    : Mystic River.(2003).BDRip.1080p.[denis100]Writing library                          : x264 core 133 r2334 a3ac64bEncoding settings                        : cabac=1 / ref=5 / deblock=1:0:0 / analyse=0x3:0x113 / me=umh / subme=11 / psy=1 / psy_rd=1.00:0.10 / mixed_ref=1 / me_range=32 / chroma_me=1 / trellis=2 / 8x8dct=1 / cqm=0 / deadzone=21,11 / fast_pskip=0 / chroma_qp_offset=-3 / threads=6 / lookahead_threads=1 / sliced_threads=0 / nr=0 / decimate=0 / interlaced=0 / bluray_compat=0 / constrained_intra=0 / bframes=5 / b_pyramid=2 / b_adapt=2 / b_bias=0 / direct=3 / weightb=1 / open_gop=0 / weightp=2 / keyint=240 / keyint_min=23 / scenecut=40 / intra_refresh=0 / rc_lookahead=60 / rc=2pass / mbtree=1 / bitrate=7226 / ratetol=1.0 / qcomp=0.60 / qpmin=0 / qpmax=69 / qpstep=4 / cplxblur=20.0 / qblur=0.5 / ip_ratio=1.40 / aq=1:0.95Language                                 : EnglishDefault                                  : YesForced                                   : No

Audio #1ID                                       : 2Format                                   : AC-3Format/Info                              : Audio Coding 3Mode extension                           : CM (complete main)Codec ID                                 : A_AC3Duration                                 : 2h 17mnBit rate mode                            : ConstantBit rate                                 : 384 KbpsChannel(s)                               : 6 channelsChannel positions                        : Front: L C R, Side: L R, LFESampling rate                            : 48.0 KHzBit depth                                : 16 bitsCompression mode                         : LossyStream size                              : 379 MiB (4%)Title                                    : DUBLanguage                                 : RussianDefault                                  : YesForced                                   : No

Audio #2ID                                       : 3Format                                   : AC-3Format/Info                              : Audio Coding 3Mode extension                           : CM (complete main)Codec ID                                 : A_AC3Duration                                 : 2h 17mnBit rate mode                            : ConstantBit rate                                 : 384 KbpsChannel(s)                               : 6 channelsChannel positions                        : Front: L C R, Side: L R, LFESampling rate                            : 48.0 KHzBit depth                                : 16 bitsCompression mode                         : LossyStream size                              : 379 MiB (4%)Title                                    : MVOLanguage                                 : RussianDefault                                  : NoForced                                   : No

Audio #3ID                                       : 4Format                                   : AC-3Format/Info                              : Audio Coding 3Mode extension                           : CM (complete main)Codec ID                                 : A_AC3Duration                                 : 2h 17mnBit rate mode                            : ConstantBit rate                                 : 384 KbpsChannel(s)                               : 6 channelsChannel positions                        : Front: L C R, Side: L R, LFESampling rate                            : 48.0 KHzBit depth                                : 16 bitsCompression mode                         : LossyStream size                              : 379 MiB (4%)Title                                    : AVO, SerbinLanguage                                 : RussianDefault                                  : NoForced                                   : No

Audio #4ID                                       : 5Format                                   : AC-3Format/Info                              : Audio Coding 3Mode extension                           : CM (complete main)Codec ID                                 : A_AC3Duration                                 : 2h 17mnBit rate mode                            : ConstantBit rate                                 : 384 KbpsChannel(s)                               : 6 channelsChannel positions                        : Front: L C R, Side: L R, LFESampling rate                            : 48.0 KHzBit depth                                : 16 bitsCompression mode                         : LossyStream size                              : 379 MiB (4%)Title                                    : AVO, GavrilovLanguage                                 : RussianDefault                                  : NoForced                                   : No

Audio #5ID                                       : 6Format                                   : AC-3Format/Info                              : Audio Coding 3Mode extension                           : CM (complete main)Codec ID                                 : A_AC3Duration                                 : 2h 17mnBit rate mode                            : ConstantBit rate                                 : 384 KbpsChannel(s)                               : 6 channelsChannel positions                        : Front: L C R, Side: L R, LFESampling rate                            : 48.0 KHzBit depth                                : 16 bitsCompression mode                         : LossyStream size                              : 379 MiB (4%)Title                                    : AVO, VizgunovLanguage                                 : RussianDefault                                  : NoForced                                   : No

Audio #6ID                                       : 7Format                                   : AC-3Format/Info                              : Audio Coding 3Mode extension                           : CM (complete main)Codec ID                                 : A_AC3Duration                                 : 2h 17mnBit rate mode                            : ConstantBit rate                                 : 640 KbpsChannel(s)                               : 6 channelsChannel positions                        : Front: L C R, Side: L R, LFESampling rate                            : 48.0 KHzBit depth                                : 16 bitsCompression mode                         : LossyStream size                              : 631 MiB (7%)Language                                 : EnglishDefault                                  : NoForced                                   : No

Text #1ID                                       : 8Format                                   : UTF-8Codec ID                                 : S_TEXT/UTF8Codec ID/Info                            : UTF-8 Plain TextLanguage                                 : RussianDefault                                  : NoForced                                   : No

Text #2ID                                       : 9Format                                   : UTF-8Codec ID                                 : S_TEXT/UTF8Codec ID/Info                            : UTF-8 Plain TextLanguage                                 : EnglishDefault                                  : NoForced                                   : No

Menu00:00:00.000                             : en:Three Friends00:03:18.490                             : en:Driven Away00:06:07.784                             : en:A Boy's Ordeal00:08:05.902                             : en:Someone's Father00:12:21.616                             : en:One of These Days00:14:36.542                             : en:Covered in Blood00:18:38.409                             : en:Missing00:23:32.077                             : en:World of Hurt00:28:04.850                             : en:Collected Marker00:32:45.630                             : en:My Daughter in There?!?00:35:03.852                             : en:Katie's Look00:40:37.226                             : en:Jimmy's Look; Lauren's Call00:42:41.601                             : en:Domestic Responsibilities00:47:00.943                             : en:Crying for Katie00:51:26.792                             : en:Questioning Brendan00:53:58.277                             : en:Getting My Head Right01:00:09.481                             : en:Serious Look at Dave01:05:17.372                             : en:Beloved Daughter01:07:59.492                             : en:Celeste in a Hurry01:10:52.874                             : en:Speaking for Katie01:15:30.901                             : en:The Liquor Store01:17:22.555                             : en:Like Vampires01:23:14.990                             : en:From Friend to Liability01:26:24.262                             : en:Bloody Explanation01:30:53.573                             : en:Hits Keep on Coming01:36:32.537                             : en:What Celeste Thinks01:40:12.089                             : en:Questioning Brendan01:42:46.118                             : en:The 911 Call01:45:33.452                             : en:Drinks With Dave01:49:29.688                             : en:No More Secrets01:55:41.309                             : en:"I Want Him Dead!"01:57:36.675                             : en:We Bury Our Sins02:00:10.787                             : en:The Last Time I Saw Dave02:05:49.500                             : en:The King's Wife02:10:15.891                             : en:Passing Parade02:12:52.840                             : en:End Credits

piratbit.ru

Скачать фильм Таинственная река через торрент в хорошем качестве бесплатно 720p от _denis_100 / NNNB] DUB

Format                                   : MatroskaFormat version                           : Version 2File size                                : 5.85 GiBDuration                                 : 2h 17mnOverall bit rate                         : 6 075 KbpsMovie name                               : Mystic River.(2003).BDRip.720p.[denis100]Encoded date                             : UTC 2016-01-10 08:23:13Writing application                      : mkvmerge v5.8.0 ('No Sleep / Pillow') built on Sep  2 2012 15:37:04Writing library                          : libebml v1.2.3 + libmatroska v1.3.0

VideoID                                       : 1Format                                   : AVCFormat/Info                              : Advanced Video CodecFormat profile                           : [email protected] settings, CABAC                   : YesFormat settings, ReFrames                : 12 framesCodec ID                                 : V_MPEG4/ISO/AVCDuration                                 : 2h 17mnBit rate                                 : 3 512 KbpsWidth                                    : 1 280 pixelsHeight                                   : 534 pixelsDisplay aspect ratio                     : 2.40:1Frame rate                               : 23.976 fpsColor space                              : YUVChroma subsampling                       : 4:2:0Bit depth                                : 8 bitsScan type                                : ProgressiveBits/(Pixel*Frame)                       : 0.214Stream size                              : 3.27 GiB (56%)Title                                    : Mystic River.(2003).BDRip.720p.[denis100]Writing library                          : x264 core 133 r2334 a3ac64bEncoding settings                        : cabac=1 / ref=12 / deblock=1:0:0 / analyse=0x3:0x113 / me=umh / subme=11 / psy=1 / psy_rd=1.00:0.10 / mixed_ref=1 / me_range=32 / chroma_me=1 / trellis=2 / 8x8dct=1 / cqm=0 / deadzone=21,11 / fast_pskip=0 / chroma_qp_offset=-3 / threads=6 / lookahead_threads=1 / sliced_threads=0 / nr=0 / decimate=0 / interlaced=0 / bluray_compat=0 / constrained_intra=0 / bframes=5 / b_pyramid=2 / b_adapt=2 / b_bias=0 / direct=3 / weightb=1 / open_gop=0 / weightp=2 / keyint=240 / keyint_min=23 / scenecut=40 / intra_refresh=0 / rc_lookahead=60 / rc=2pass / mbtree=1 / bitrate=3512 / ratetol=1.0 / qcomp=0.60 / qpmin=0 / qpmax=69 / qpstep=4 / cplxblur=20.0 / qblur=0.5 / ip_ratio=1.40 / aq=1:0.95Language                                 : EnglishDefault                                  : YesForced                                   : No

Audio #1ID                                       : 2Format                                   : AC-3Format/Info                              : Audio Coding 3Mode extension                           : CM (complete main)Codec ID                                 : A_AC3Duration                                 : 2h 17mnBit rate mode                            : ConstantBit rate                                 : 384 KbpsChannel(s)                               : 6 channelsChannel positions                        : Front: L C R, Side: L R, LFESampling rate                            : 48.0 KHzBit depth                                : 16 bitsCompression mode                         : LossyStream size                              : 379 MiB (6%)Title                                    : DUBLanguage                                 : RussianDefault                                  : YesForced                                   : No

Audio #2ID                                       : 3Format                                   : AC-3Format/Info                              : Audio Coding 3Mode extension                           : CM (complete main)Codec ID                                 : A_AC3Duration                                 : 2h 17mnBit rate mode                            : ConstantBit rate                                 : 384 KbpsChannel(s)                               : 6 channelsChannel positions                        : Front: L C R, Side: L R, LFESampling rate                            : 48.0 KHzBit depth                                : 16 bitsCompression mode                         : LossyStream size                              : 379 MiB (6%)Title                                    : MVOLanguage                                 : RussianDefault                                  : NoForced                                   : No

Audio #3ID                                       : 4Format                                   : AC-3Format/Info                              : Audio Coding 3Mode extension                           : CM (complete main)Codec ID                                 : A_AC3Duration                                 : 2h 17mnBit rate mode                            : ConstantBit rate                                 : 384 KbpsChannel(s)                               : 6 channelsChannel positions                        : Front: L C R, Side: L R, LFESampling rate                            : 48.0 KHzBit depth                                : 16 bitsCompression mode                         : LossyStream size                              : 379 MiB (6%)Title                                    : AVO, SerbinLanguage                                 : RussianDefault                                  : NoForced                                   : No

Audio #4ID                                       : 5Format                                   : AC-3Format/Info                              : Audio Coding 3Mode extension                           : CM (complete main)Codec ID                                 : A_AC3Duration                                 : 2h 17mnBit rate mode                            : ConstantBit rate                                 : 384 KbpsChannel(s)                               : 6 channelsChannel positions                        : Front: L C R, Side: L R, LFESampling rate                            : 48.0 KHzBit depth                                : 16 bitsCompression mode                         : LossyStream size                              : 379 MiB (6%)Title                                    : AVO, GavrilovLanguage                                 : RussianDefault                                  : NoForced                                   : No

Audio #5ID                                       : 6Format                                   : AC-3Format/Info                              : Audio Coding 3Mode extension                           : CM (complete main)Codec ID                                 : A_AC3Duration                                 : 2h 17mnBit rate mode                            : ConstantBit rate                                 : 384 KbpsChannel(s)                               : 6 channelsChannel positions                        : Front: L C R, Side: L R, LFESampling rate                            : 48.0 KHzBit depth                                : 16 bitsCompression mode                         : LossyStream size                              : 379 MiB (6%)Title                                    : AVO, VizgunovLanguage                                 : RussianDefault                                  : NoForced                                   : No

Audio #6ID                                       : 7Format                                   : AC-3Format/Info                              : Audio Coding 3Mode extension                           : CM (complete main)Codec ID                                 : A_AC3Duration                                 : 2h 17mnBit rate mode                            : ConstantBit rate                                 : 640 KbpsChannel(s)                               : 6 channelsChannel positions                        : Front: L C R, Side: L R, LFESampling rate                            : 48.0 KHzBit depth                                : 16 bitsCompression mode                         : LossyStream size                              : 631 MiB (11%)Language                                 : EnglishDefault                                  : NoForced                                   : No

Text #1ID                                       : 8Format                                   : UTF-8Codec ID                                 : S_TEXT/UTF8Codec ID/Info                            : UTF-8 Plain TextLanguage                                 : RussianDefault                                  : NoForced                                   : No

Text #2ID                                       : 9Format                                   : UTF-8Codec ID                                 : S_TEXT/UTF8Codec ID/Info                            : UTF-8 Plain TextLanguage                                 : EnglishDefault                                  : NoForced                                   : No

Menu00:00:00.000                             : en:Three Friends00:03:18.490                             : en:Driven Away00:06:07.784                             : en:A Boy's Ordeal00:08:05.902                             : en:Someone's Father00:12:21.616                             : en:One of These Days00:14:36.542                             : en:Covered in Blood00:18:38.409                             : en:Missing00:23:32.077                             : en:World of Hurt00:28:04.850                             : en:Collected Marker00:32:45.630                             : en:My Daughter in There?!?00:35:03.852                             : en:Katie's Look00:40:37.226                             : en:Jimmy's Look; Lauren's Call00:42:41.601                             : en:Domestic Responsibilities00:47:00.943                             : en:Crying for Katie00:51:26.792                             : en:Questioning Brendan00:53:58.277                             : en:Getting My Head Right01:00:09.481                             : en:Serious Look at Dave01:05:17.372                             : en:Beloved Daughter01:07:59.492                             : en:Celeste in a Hurry01:10:52.874                             : en:Speaking for Katie01:15:30.901                             : en:The Liquor Store01:17:22.555                             : en:Like Vampires01:23:14.990                             : en:From Friend to Liability01:26:24.262                             : en:Bloody Explanation01:30:53.573                             : en:Hits Keep on Coming01:36:32.537                             : en:What Celeste Thinks01:40:12.089                             : en:Questioning Brendan01:42:46.118                             : en:The 911 Call01:45:33.452                             : en:Drinks With Dave01:49:29.688                             : en:No More Secrets01:55:41.309                             : en:"I Want Him Dead!"01:57:36.675                             : en:We Bury Our Sins02:00:10.787                             : en:The Last Time I Saw Dave02:05:49.500                             : en:The King's Wife02:10:15.891                             : en:Passing Parade02:12:52.840                             : en:End Credits

piratbit.ru


Смотрите также