Скачать фильм тайное окно через торрент в хорошем качестве


Скачать фильм Тайное Окно через торрент в хорошем качестве бесплатно BDRip

Размер: 1.45 GB | Добавлен: 5 лет 8 мес. назад | Торрент скачан:1285 раз
Реклама Дарим 3000 рублей за регистрацию, не упусти свой шанс получить шикарный бонус!!!

02-02-2012 10:41 Тайное Окно Скачать торрент  

Тайное Окно / Secret Windowஜ═════════════════════════════ஜ۩۞۩ஜ══════════════════════════════ஜ Год выпуска: 2004Страна: СШАЖанр: Ужасы, Мистика, ТриллерПродолжительность: 01:35:55Перевод: Профессиональный (полное дублирование)

Режиссер: Дэвид КеппПродюссер: Гэвин Полон, Эзра СвердлоуСценарий: Дэвид Кепп, Стивен КингБюджет: $40 000 000Премьера в мире: 12 марта 2004

В ролях: Джонни Депп, Джон Туртурро, Мария Белло, Тимоти Хаттон, Чарльз Даттон, Лен Кариу, Джоан Хини, Джон Данн-Хилл, Власта Врана, Мэтт Холлэнд, Gillian Ferrabee, Бронуэн Мантел, Elizabeth Marleau, Kyle Allatt, Ричард Джутрас, Kevin Woodhouse, Vito DeFilippo, Сара Аллен, Изабе

Описание: Фильм представляет собой экранизацию романа самого известного автора триллеров — Стивена Кинга. На этот раз картина повествует о талантливом и успешном писателе Морте Рейни, который переживает не самые лучшие времена в своей жизни. После того как он застал свою жену в постели с другим мужчиной и пережил утомительные формальности развода, Морт решает удалиться от дел, переехать за город и в тишине сельской жизни бороться с творческим кризисом, постигшим его.И все было хорошо до тех пор, пока однажды ночью в его дом не ворвался незнакомец, обвинивший Морта в плагиате. Джон Шутер был слишком похож на психопата, а его пистолет — на настоящий, чтобы Морту пришла в голову идея с ним спорить. И когда писатель попытался убедить собеседника в своей правоте, показав ему рукописи книги, он столкнулся с небольшой проблемой — рукопись бесследно исчезла.Качество: BDRipФормат: AVIВидео кодек: XviDАудио кодек: AC3Видео: 720x304 (2.37:1), 23.976 fps, XviD build 50 ~1713 kbps avg, 0.33 bit/pixelАудио#1: 48 kHz, AC3, 3/2 (L,C,R,l,r) + LFE ch, ~448.00 kbps avgАудио#2: 48 kHz, AC3, 3/2 (L,C,R,l,r) + LFE ch, ~448.00 kbps avg (MVO)Аудио#3: 48 kHz, AC3, 3/2 (L,C,R,l,r) + LFE ch, ~448.00 kbps avg (ENG)Релиз от: Trust

ஜ═════════════════════════════ஜ۩۞۩ஜ══════════════════════════════ஜ

Скачать Тайное Окно через торрент http://i19.fastpic.ru/big/2011/0402/45/6cf75d76b7b7f651b51d79ac438a1f45.jpg Скачать фильм Тайное Окно через торрент бесплантно в хорошем качестве Описание: Фильм представляет собой экранизацию романа самого известного автора триллеров — Стивена Кинга. На этот раз картина повествует о ... 2012-02-02 10:41 9.8 10 20

Loading...

Loading...

Рекламный пират

10-03-2012 17:46 Тайное Окно Скачать торрент  

фильм понравился!

Дорогой пользователь! Огромная просьба, поблагодарите релизера, оцените раздачу и оставьте свои комментарий, если Вы скачали Тайное Окно через торрент бесплатно! Внесите свою лепту в развитие PiratBit!

Комментировать посты могут только пользователи прошедшие не сложную регистрацию

Тайное Окно через торрент Скачать бесплатно Тайное Окно Тайное Окно скачать торрент Тайное Окно смотреть онлайн Cкачать фильм Тайное Окно бесплатно Тайное Окно скачать торрент в хорошем качестве Тайное Окно смотреть онлайн бесплатно в хорошем качестве

Вы не можете начинать темыВы не можете отвечать на сообщенияВы не можете редактировать свои сообщенияВы не можете удалять свои сообщенияВы не можете голосовать в опросахВы не можете прикреплять файлы к сообщениямВы можете скачивать файлы

piratbit.ru

Скачать фильм Тайное окно через торрент в хорошем качестве бесплатно HDRip by Dean24

Размер: 1.46 GB | Добавлен: 1 год 11 мес. назад | Торрент скачан:43 раза
Реклама Дарим 3000 рублей за регистрацию, не упусти свой шанс получить шикарный бонус!!!

21-11-2015 22:34 Тайное окно Скачать торрент  

Тайное окно / Secret Window

Год выпуска: 2004Жанр: триллер, детективПродолжительность: 01:35:55Перевод: Дубляж, Лицензия | НевафильмСубтитры: Нет

Режиссер: Дэвид КеппПродюссер: Гэвин Полон, Эзра СвердлоуСценарий: Дэвид Кепп, Стивен Кинг

Бюджет: $40 000 000Премьера в мире: 12 марта 2004

В ролях: Джонни Депп, Джон Туртурро, Мария Белло, Тимоти Хаттон, Чарльз С. Даттон, Лен Кариу, Джоан Хини, Джон Данн-Хилл, Власта Врана, Мэтт Холлэнд, Александр Баргман, Юрий Лазарев, Александра Кожевникова, Станислав Концевич, Вадим Гущин

Описание: Писатель Морт Рейни живет в доме на берегу. Ещё недавно у него была жена и карьера писателя, сейчас с женой он встречается только для того, чтобы в очередной раз отказаться подписать документы о разводе. С творчеством у Морта тоже не очень гладко, он начинает писать и тут же стирает написанное. Все дни напролет Морт только спит или смотрит на экран компьютера.Но в этой его размеренной, тоскливой жизни появляется странный человек в черной шляпе. Назвавшись Кокни Шутером, он обвиняет Рейни в плагиате. Морт пытается вспомнить, как он писал названный Шутером рассказ, не мог ли он действительно взять чужую идею. Выясняя все факты, Рейни узнает, что Шутер написал свой рассказ через 2 года после его публикации в журнале. Морту нужно лишь найти копию журнала, и Шутер уйдет. Но до тех пор странный человек в черной шляпе будет преследовать писателя и его жену.

Качество: HDRip | BDRip 720pФормат: AVIВидео кодек: XviDАудио кодек: AC3Видео: 720x304 (2.37:1), 23.976 fps, XviD build 50 ~1781 kbps avg, 0.34 bit/pixelАудио: 48 kHz, AC3 Dolby Digital, 3/2 (L,C,R,l,r) + LFE ch, ~384 kbps

Автор рипа: Dean24

| ОбщееПолное имя : D:\Мои документы\Фильмы\Сайт\Secret.Window.HDRip.aviФормат : AVIФормат/Информация : Audio Video InterleaveРазмер файла : 1,46 ГбайтПродолжительность : 1 ч. 35 м.Общий поток : 2175 Кбит/секПрограмма кодирования : VirtualDubMod 1.5.10.3 | www.virtualdub-fr.org || (build 2550/release)Библиотека кодирования : VirtualDubMod build 2550/release

ВидеоИдентификатор : 0Формат : MPEG-4 VisualПрофиль формата : Advanced [email protected]Параметр BVOP формата : 3Параметр QPel формата : НетПараметр GMC формата : Без точки переходаПараметр матрицы формата : Default (H.263)Идентификатор кодека : XVIDИдентификатор кодека/Подсказка : XviDПродолжительность : 1 ч. 35 м.Битрейт : 1782 Кбит/секШирина : 720 пикселейВысота : 304 пикселяСоотношение сторон : 2,35:1Частота кадров : 23,976 кадра/секЦветовое пространство : YUVСубдискретизация насыщенности : 4:2:0Битовая глубина : 8 битТип развёртки : ПрогрессивнаяМетод сжатия : С потерямиБит/(Пиксели*Кадры) : 0.339Размер потока : 1,19 Гбайт (82%)Библиотека кодирования : XviD 1.2.1 (UTC 2008-12-04)

АудиоИдентификатор : 1Формат : AC-3Формат/Информация : Audio Coding 3Расширение режима : CM (complete main)Параметр Endianness формата : BigИдентификатор кодека : 2000Продолжительность : 1 ч. 35 м.Вид битрейта : ПостоянныйБитрейт : 384 Кбит/секКаналы : 6 каналовРасположение каналов : Front: L C R, Side: L R, LFEЧастота : 48,0 КГцБитовая глубина : 16 битМетод сжатия : С потерямиРазмер потока : 263 Мбайт (18%)Выравнивание : Разделение по промежуткамПродолжительность промежутка : 42 мс. (1,00 видеокадр)Время предзагрузки промежутка : 500 мс.

Скачать Тайное окно через торрент http://i73.fastpic.ru/big/2015/1122/39/ebf616bc5add5d755b6272181cc6ec39.png Скачать фильм Тайное окно через торрент бесплантно в хорошем качестве Описание: Писатель Морт Рейни живет в доме на берегу. Ещё недавно у него была жена и карьера писателя, сейчас с женой он встречается только ... 2015-11-21 22:34 10 10 5

Loading...

Loading...

Рекламный пират

Дорогой пользователь! Огромная просьба, поблагодарите релизера, оцените раздачу и оставьте свои комментарий, если Вы скачали Тайное окно через торрент бесплатно! Внесите свою лепту в развитие PiratBit!

Комментировать посты могут только пользователи прошедшие не сложную регистрацию

Тайное окно через торрент Скачать бесплатно Тайное окно Тайное окно скачать торрент Тайное окно смотреть онлайн Cкачать фильм Тайное окно бесплатно Тайное окно скачать торрент в хорошем качестве Тайное окно смотреть онлайн бесплатно в хорошем качестве

Вы не можете начинать темыВы не можете отвечать на сообщенияВы не можете редактировать свои сообщенияВы не можете удалять свои сообщенияВы не можете голосовать в опросахВы не можете прикреплять файлы к сообщениямВы можете скачивать файлы

piratbit.ru

Скачать фильм Тайное окно через торрент в хорошем качестве бесплатно BDRip

Размер: 1.46 GB | Добавлен: 7 лет 1 мес. назад | Торрент скачан:103 раза
Реклама Дарим 3000 рублей за регистрацию, не упусти свой шанс получить шикарный бонус!!!

16-09-2010 13:22 Тайное окно Скачать торрент  

Тайное окно / Secret Window

Год выпуска: 2004Страна: СШАЖанр: триллер, детектив, ужасыПродолжительность: 01:35:55Перевод: Профессиональный (полное дублирование)

Режиссер: Дэвид КеппПродюссер: Гэвин Полон, Эзра СвердлоуСценарий: Стивен Кинг, Дэвид Кепп

Бюджет: $40 000 000Премьера в мире: 12 марта 2004

PG-13

-Детям до 13 лет просмотр не желателенМировой рейтинг IMDB 6.50 (53 760)

В ролях: Джонни Депп, Джон Туртурро, Мария Белло, Тимоти Хаттон, Чарльз С. Даттон, Лен Кариу, Джоан Хини, Джон Данн-Хилл, Власта Врана, Мэтт Холлэ

Описание: Фильм представляет собой экранизацию романа самого известного автора триллеров  Стивена Кинга. На этот раз картина повествует о талантливом и успешном писателе Морте Рейни, который переживает не самые лучшие времена в своей жизни. После того как он застал свою жену в постели с другим мужчиной и пережил утомительные формальности развода, Морт решает удалиться от дел, переехать за город и в тишине сельской жизни бороться с творческим кризисом, постигшим его. И все было хорошо до тех пор, пока однажды ночью в его дом не ворвался незнакомец, обвинивший Морта в плагиате. Джон Шутер был слишком похож на психопата, а его пистолет  на настоящий, чтобы Морту пришла в голову идея с ним спорить. И когда писатель попытался убедить собеседника в своей правоте, показав ему рукописи книги, он столкнулся с небольшой проблемой  рукопись бесследно исчезла.

Качество: BDRipФормат: AVIВидео кодек: XviDАудио кодек: AC3Видео: 720x304 (2.37:1), 23.976 fps, XviD MPEG-4 ~1714 kbps avg, 0.33 bit/pixelАудио: 48 kHz, AC3 Dolby Digital, 3/2 (L,C,R,l,r) + LFE ch, ~448 kbps

Скачать Тайное окно через торрент http://s60.radikal.ru/i168/1009/03/03ec81c79e96.jpg Скачать фильм Тайное окно через торрент бесплантно в хорошем качестве Описание: Фильм представляет собой экранизацию романа самого известного автора триллеров  Стивена Кинга. На этот раз картина повествует ... 2010-09-16 13:22 4.9 10 11

Loading...

Loading...

Рекламный пират

16-09-2010 16:28 Тайное окно Скачать торрент  

Я б дал название жанру данного фильма - психологический триллер...

Дорогой пользователь! Огромная просьба, поблагодарите релизера, оцените раздачу и оставьте свои комментарий, если Вы скачали Тайное окно через торрент бесплатно! Внесите свою лепту в развитие PiratBit!

Комментировать посты могут только пользователи прошедшие не сложную регистрацию

Тайное окно через торрент Скачать бесплатно Тайное окно Тайное окно скачать торрент Тайное окно смотреть онлайн Cкачать фильм Тайное окно бесплатно Тайное окно скачать торрент в хорошем качестве Тайное окно смотреть онлайн бесплатно в хорошем качестве

Вы не можете начинать темыВы не можете отвечать на сообщенияВы не можете редактировать свои сообщенияВы не можете удалять свои сообщенияВы не можете голосовать в опросахВы не можете прикреплять файлы к сообщениямВы можете скачивать файлы

piratbit.ru

/ Secret Window ( / David Koepp) [2004 ., , BDRip-AVC] Dub + Original + Sub (rus, eng)

---[NoImage] yuv [info]: 1280x534p 1:1 @ 10000000/417083 fps (cfr) ---[NoImage] x264 [info]: using SAR=1/1 ---[NoImage] x264 [info]: using cpu capabilities: MMX2 SSE2Fast SSSE3 FastShuffle SSE4.2 ---[NoImage] x264 [info]: profile High, level 4.1 ---[NoImage] x264 [info]: frame I:980 Avg QP:17.10 size: 65171 PSNR Mean Y:46.18 U:49.83 V:50.95 Avg:47.12 Global:46.68 ---[NoImage] x264 [info]: frame P:24528 Avg QP:18.37 size: 27747 PSNR Mean Y:44.48 U:48.86 V:50.21 Avg:45.50 Global:44.87 ---[NoImage] x264 [info]: frame B:112492 Avg QP:19.84 size: 9625 PSNR Mean Y:43.72 U:48.49 V:49.97 Avg:44.81 Global:44.26 ---[NoImage] x264 [info]: consecutive B-frames: 0.4% 1.2% 3.6% 11.0% 9.3% 53.3% 4.4% 1.6% 2.0% 0.7% 1.0% 10.5% 0.4% 0.2% 0.1% 0.0% 0.0% ---[NoImage] x264 [info]: mb I I16..4: 3.7% 85.4% 10.9% ---[NoImage] x264 [info]: mb P I16..4: 0.7% 8.5% 0.9% P16..4: 54.3% 28.8% 5.0% 0.2% 0.1% skip: 1.6% ---[NoImage] x264 [info]: mb B I16..4: 0.0% 0.5% 0.1% B16..8: 52.9% 1.2% 2.1% direct: 8.8% skip:34.4% L0:42.8% L1:50.7% BI: 6.5% ---[NoImage] x264 [info]: 8x8 transform intra:85.1% inter:67.6% ---[NoImage] x264 [info]: direct mvs spatial:100.0% temporal:0.0% ---[NoImage] x264 [info]: coded y,uvDC,uvAC intra: 91.4% 87.1% 57.4% inter: 30.0% 32.3% 1.3% ---[NoImage] x264 [info]: i16 v,h,dc,p: 26% 23% 7% 45% ---[NoImage] x264 [info]: i8 v,h,dc,ddl,ddr,vr,hd,vl,hu: 13% 7% 3% 10% 15% 14% 14% 11% 12% ---[NoImage] x264 [info]: i4 v,h,dc,ddl,ddr,vr,hd,vl,hu: 11% 6% 2% 11% 17% 16% 14% 12% 12% ---[NoImage] x264 [info]: Weighted P-Frames: Y:3.3% ---[NoImage] x264 [info]: ref P L0: 41.9% 17.0% 10.8% 7.1% 5.7% 4.4% 3.7% 2.4% 2.0% 1.8% 1.6% 1.6% 0.1% 0.0% ---[NoImage] x264 [info]: ref B L0: 69.4% 12.2% 6.2% 3.2% 2.5% 2.0% 1.7% 1.1% 1.0% 0.6% 0.2% ---[NoImage] x264 [info]: ref B L1: 91.9% 8.1% ---[NoImage] x264 [info]: SSIM Mean Y:0.9763309 ---[NoImage] x264 [info]: PSNR Mean Y:43.874 U:48.564 V:50.019 Avg:44.947 Global:44.376 kb/s:2539.59 ---[NoImage] encoded 138000 frames, 8.25 fps, 2539.59 kb/s

Video

ID : 1 Format : AVC Format/Info : Advanced Video Codec Format profile : [email protected] Format settings, CABAC : Yes Format settings, ReFrames : 12 frames Muxing mode : Container [email protected] Codec ID : V_MPEG4/ISO/AVC Duration : 1h 35mn Bit rate : 2 473 Kbps Width : 1 280 pixels Height : 534 pixels Display aspect ratio : 2.35:1 Frame rate : 23.976 fps Resolution : 8 bits Colorimetry : 4:2:0 Scan type : Progressive Bits/(Pixel*Frame) : 0.151 Stream size : 1.66 GiB (72%) Title : Secret Window Writing library : x264 core 85 r1442kGIT 781d300 Encoding settings : cabac=1 / ref=12 / deblock=1:-2:-2 / analyse=0x3:0x133 / me=umh / subme=9 / psy=1 / psy_rd=1.10:0.00 / mixed_ref=1 / me_range=64 / chroma_me=1 / trellis=2 / 8x8dct=1 / cqm=0 / deadzone=21,11 / fast_pskip=0 / chroma_qp_offset=-2 / threads=9 / sliced_threads=0 / nr=0 / decimate=1 / mbaff=0 / interlaced=0 / constrained_intra=0 / bframes=16 / b_pyramid=2 / b_adapt=2 / b_bias=0 / direct=3 / wpredb=1 / wpredp=2 / keyint=250 / keyint_min=25 / scenecut=40 / intra_refresh=0 / rc_lookahead=60 / rc=crf / mbtree=0 / crf=19.5 / qcomp=0.60 / qpmin=10 / qpmax=51 / qpstep=4 / vbv_maxrate=50000 / vbv_bufsize=50000 / ip_ratio=1.40 / pb_ratio=1.30 / aq=1:1.10 / pulldown=0 / nal_hrd=0 Language : English

Audio #1

ID : 2 Format : AC-3 Format/Info : Audio Coding 3 Codec ID : A_AC3 Duration : 1h 35mn Bit rate mode : Constant Bit rate : 448 Kbps Channel(s) : 6 channels Channel positions : Front: L C R, Surround: L R, LFE Sampling rate : 48.0 KHz Stream size : 307 MiB (13%) Title : DD 5.1 48 KHz 448 kbps[Dub] Language : Russian

Audio #2

ID : 3 Format : AC-3 Format/Info : Audio Coding 3 Codec ID : A_AC3 Duration : 1h 35mn Bit rate mode : Constant Bit rate : 448 Kbps Channel(s) : 6 channels Channel positions : Front: L C R, Surround: L R, LFE Sampling rate : 48.0 KHz Stream size : 307 MiB (13%) Title : DD 5.1 48 KHz 448 kbps[Original] Language : English

Text #1

ID : 4 Format : UTF-8 Codec ID : S_TEXT/UTF8 Codec ID/Info : UTF-8 Plain Text Language : Russian

Text #2

ID : 5 Format : UTF-8 Codec ID : S_TEXT/UTF8 Codec ID/Info : UTF-8 Plain Text Language : English

unionpeer.com


Смотрите также