Скачать фильм темный город через торрент в хорошем качестве


Скачать фильм Темный город через торрент в хорошем качестве бесплатно BDRip-AVC 60fps от R.G. HD-Films

GeneralUnique ID                                : 208526996233393241633143844993996142908 (0x9CE0D6B02FE51DC78464A2EA55BFB93C)Complete name                            : H:\torrent\film\Dark City\Dark City.1998.Directors_Cut.BDRip-AVC.60fps.mkvFormat                                   : MatroskaFormat version                           : Version 4 / Version 2File size                                : 3.82 GiBDuration                                 : 1h 51mnOverall bit rate                         : 4 901 KbpsMovie name                               : Dark City (1998) [Directors Cut]  BDRip-AVC 60fps - R.G. HD-FilmsEncoded date                             : UTC 2015-08-19 10:43:48Writing application                      : mkvmerge v8.3.0 ('Over the Horizon') 64bitWriting library                          : libebml v1.3.1 + libmatroska v1.4.2Attachment                               : Yes

VideoID                                       : 1Format                                   : AVCFormat/Info                              : Advanced Video CodecFormat profile                           : [email protected] settings, CABAC                   : YesFormat settings, ReFrames                : 12 framesCodec ID                                 : V_MPEG4/ISO/AVCDuration                                 : 1h 51mnBit rate                                 : 4 000 KbpsWidth                                    : 1 024 pixelsHeight                                   : 432 pixelsDisplay aspect ratio                     : 2.35:1Frame rate                               : 59.940 fpsColor space                              : YUVChroma subsampling                       : 4:2:0Bit depth                                : 8 bitsScan type                                : ProgressiveBits/(Pixel*Frame)                       : 0.151Stream size                              : 3.05 GiB (80%)Writing library                          : x264 core 146 r2538 121396cEncoding settings                        : cabac=1 / ref=12 / deblock=1:-3:-3 / analyse=0x3:0x113 / me=umh / subme=10 / psy=1 / psy_rd=1.00:0.10 / mixed_ref=1 / me_range=32 / chroma_me=1 / trellis=2 / 8x8dct=1 / cqm=0 / deadzone=21,11 / fast_pskip=0 / chroma_qp_offset=-3 / threads=6 / lookahead_threads=2 / sliced_threads=0 / nr=0 / decimate=1 / interlaced=0 / bluray_compat=0 / constrained_intra=0 / bframes=8 / b_pyramid=2 / b_adapt=2 / b_bias=0 / direct=3 / weightb=1 / open_gop=0 / weightp=2 / keyint=240 / keyint_min=23 / scenecut=40 / intra_refresh=0 / rc=2pass / mbtree=0 / bitrate=4000 / ratetol=1.0 / qcomp=0.60 / qpmin=0 / qpmax=69 / qpstep=4 / cplxblur=20.0 / qblur=0.5 / ip_ratio=1.40 / pb_ratio=1.30 / aq=1:1.00Language                                 : EnglishDefault                                  : YesForced                                   : No

Audio #1ID                                       : 2Format                                   : AC-3Format/Info                              : Audio Coding 3Mode extension                           : CM (complete main)Codec ID                                 : A_AC3Duration                                 : 1h 51mnBit rate mode                            : ConstantBit rate                                 : 448 KbpsChannel(s)                               : 6 channelsChannel positions                        : Front: L C R, Side: L R, LFESampling rate                            : 48.0 KHzBit depth                                : 16 bitsCompression mode                         : LossyStream size                              : 358 MiB (9%)Title                                    : MVO КиноманияLanguage                                 : RussianDefault                                  : YesForced                                   : No

Audio #2ID                                       : 3Format                                   : AC-3Format/Info                              : Audio Coding 3Mode extension                           : CM (complete main)Codec ID                                 : A_AC3Duration                                 : 1h 51mnBit rate mode                            : ConstantBit rate                                 : 448 KbpsChannel(s)                               : 6 channelsChannel positions                        : Front: L C R, Side: L R, LFESampling rate                            : 48.0 KHzBit depth                                : 16 bitsCompression mode                         : LossyStream size                              : 358 MiB (9%)Title                                    : OriginalLanguage                                 : EnglishDefault                                  : NoForced                                   : No

Text #1ID                                       : 4Format                                   : UTF-8Codec ID                                 : S_TEXT/UTF8Codec ID/Info                            : UTF-8 Plain TextTitle                                    : Full - КиноманияLanguage                                 : RussianDefault                                  : NoForced                                   : No

Text #2ID                                       : 5Format                                   : UTF-8Codec ID                                 : S_TEXT/UTF8Codec ID/Info                            : UTF-8 Plain TextTitle                                    : FullLanguage                                 : EnglishDefault                                  : NoForced                                   : No

Menu00:00:00.000                             : en:The Stranger00:02:00.077                             : en:John Murdoch00:07:20.021                             : en:Dr. Schreber's Office00:12:09.519                             : en:Automat00:19:22.286                             : en:He Can Tune!00:23:00.751                             : en:Who Am I?00:27:40.864                             : en:Thinking in Circles00:34:35.447                             : en:Tuning Begins00:48:26.652                             : en:Imprinted Memories00:57:14.179                             : en:Search for Murdoch01:05:31.677                             : en:Tuning Time Again01:11:08.720                             : en:Do You Remember?01:16:27.872                             : en:"Sleep"01:19:31.265                             : en:Dark Secrets01:29:16.809                             : en:Final Imprint01:40:04.497                             : en:To Shell Beach01:45:08.301                             : en:End Credits01:51:43.488                             : en:The End

piratbit.ru

Темный Город 1998 - скачать бесплатно через торрент в хорошем качестве. Без регистрации

Название: Темный Город / Dark City (1998) HDRip от Scarabey | P | Театральная версия
Качество видео: HDRip
Перевод: Профессиональный (многоголосый, закадровый) [Киномания]
Видео: 688x288 (2.39:1), 23.976 fps, XviD build 73 ~898 kbps avg, 0.19 bit/pixel
Аудио: 48 kHz, MPEG Layer 3, 2 ch, ~128.00 kbps avg
Скачать

Загрузка начнется в течение 5 сек.

744.69 MB

Название: Темный город / Dark City (1999) BDRip 1080p от MediaClub | Director's Cut | P, A
Качество видео: BDRip 1080p
Перевод: Профессиональный многоголосый, авторский
Видео: x264 MPEG-4 AVC, 6000 Кбит/с, 1920х812, 23.976 кадр/с
Аудио: Русский (AC3, 6 ch, 640 Кбит/с) / Авторский одноголосый (Юрий Живов)Русский (AC3, 6 ch, 640 Кбит/с) / Авторский одноголосый (Юрий Сербин)Украинский (AC3, 6 ch, 448 Кбит/с) / Профессиональный многоголосый (ICTV)Английский (AC3, 6 ch, 640 Кбит/с)
Скачать

Загрузка начнется в течение 5 сек.

7.03 GB

Название: Темный Город / Dark City (1998) HDRip от Scarabey | P | Режиссёрская версия
Качество видео: HDRip
Перевод: Профессиональный (многоголосый, закадровый)
Видео: 640x272 (2.35:1), 23.976 fps, XviD build 73 ~795 kbps avg, 0.19 bit/pixel
Аудио: 48 kHz, MPEG Layer 3, 2 ch, ~128.00 kbps avg
Скачать

Загрузка начнется в течение 5 сек.

745.69 MB

Название: Темный город / Dark City (1998) BDRip 720p | Театральная версия / Theatrical cut
Качество видео: BDRip
Перевод: Профессиональный (многоголосый, закадровый)( Киномания ) + Авторский ( Живов ) + Оригинальный
Видео: AVC, 1280x544 (2.35:1), 5123 kbps, 23,976 fps, 0,307 bpp
Аудио: русский / AC3 / 5.1 / 48 kHz / 448 kbpsрусский / AC3 / 5.1 / 48 kHz / 448 kbpsанглийский / AC3 / 5.1 / 48 kHz / 448 kbps
Скачать

Загрузка начнется в течение 5 сек.

4.63 GB

Название: Темный Город / Dark City (1998) HDRip от Scarabey | P | Режиссёрская версия
Качество видео: HDRip
Перевод: Профессиональный (многоголосый, закадровый) [Киномания]
Видео: 720x304 (2.37:1), 23.976 fps, XviD build 73 ~1669 kbps avg, 0.32 bit/pixel
Аудио: 48 kHz, AC3 Dolby Digital, 3/2 (L,C,R,l,r) + LFE ch, ~384 kbps
Скачать

Загрузка начнется в течение 5 сек.

1.45 GB

Название: Темный Город / Dark City (1998) HDRip от Scarabey | P | Режиссёрская версия
Качество видео: HDRip
Перевод: Профессиональный (многоголосый, закадровый)
Видео: 720x304 (2.37:1), 23.976 fps, XviD build 73 ~1398 kbps avg, 0.27 bit/pixel
Аудио: 48 kHz, AC3 Dolby Digital, 3/2 (L,C,R,l,r) + LFE ch, ~448.00 kbps avg
Скачать

Загрузка начнется в течение 5 сек.

1.45 GB

Название: Темный город / Dark City (1998) BDRip-AVC | iPad | P,P1 | Театральная версия
Качество видео: BDRip-AVC
Перевод: Русский профессиональный многоголосый закадровый, одноголосый закадровый
Видео: H.264 1024x428 (2.40:1) at 23.976 fps, AVC at 1860 kbps
Аудио: 1: АAС 2.0 128 kbps - Русский профессиональный многоголосый закадровый
Скачать

Загрузка начнется в течение 5 сек.

1.59 GB

Название: Темный город / Dark City (1998) BDRip-AVC | iPad | P,P1 | Режиссерская версия
Качество видео: BDRip-AVC
Перевод: Русский профессиональный многоголосый закадровый, одноголосый закадровый
Видео: H.264 1024x428 (2.40:1) at 23.976 fps, AVC at 1800 kbps
Аудио: 1: АAС 2.0 136 kbps - Русский профессиональный многоголосый закадровый
Скачать

Загрузка начнется в течение 5 сек.

1.73 GB

Название: Темный город / Dark City (1998) BDRip 1080p | Режиссерская версия / Director's Cut
Качество видео: BDRip 1080p
Перевод: Профессиональный (многоголосый, закадровый)[Киномания] + Оригинал
Видео: x264 1920x808, 6494 Kbps, 23.976 fps
Аудио: AC-3, 6 ch, 448 kbps (Rus)AC-3, 6 ch, 448 kbps (Eng)
Скачать

Загрузка начнется в течение 5 сек.

5.77 GB

Название: Темный Город / Dark City (1998) HDRip | P | Режиссёрская версия / Director's cut
Качество видео: HDRip
Перевод: Профессиональный (многоголосый, закадровый) Киномания
Формат видео: AVI
Видео: XviD 720x304 (2.37:1), 23.976 fps, XviD build 50 ~1412 kbps avg, 0.27 bit/pixel
Аудио: AC3 48 kHz, AC3 Dolby Digital, 3/2 (L,C,R,l,r) + LFE ch, ~448 kbps
Скачать

Загрузка начнется в течение 5 сек.

1.46 GB

www.kinovit.net

Скачать фильм Темный город через торрент в хорошем качестве бесплатно 1080p

GeneralUnique ID                                : 249306225996171066168772936574993438203 (0xBB8EA1F1DD7C55AC86F82BB8EC4415FB)Complete name                            : H:\torrent\film\Dark City\Dark City.Directors Cut.1998.BDRip.1080p.mkvFormat                                   : MatroskaFormat version                           : Version 4 / Version 2File size                                : 8.27 GiBDuration                                 : 1h 51mnOverall bit rate                         : 10.6 MbpsMovie name                               : Dark City (1998) [Directors Cut]  BDRip 1080pEncoded date                             : UTC 2015-08-04 17:53:16Writing application                      : mkvmerge v7.9.0 ('Birds') 64bitWriting library                          : libebml v1.3.1 + libmatroska v1.4.2Attachment                               : Yes

VideoID                                       : 1Format                                   : AVCFormat/Info                              : Advanced Video CodecFormat profile                           : [email protected] settings, CABAC                   : YesFormat settings, ReFrames                : 5 framesCodec ID                                 : V_MPEG4/ISO/AVCDuration                                 : 1h 51mnBit rate                                 : 8 221 KbpsWidth                                    : 1 920 pixelsHeight                                   : 812 pixelsDisplay aspect ratio                     : 2.35:1Frame rate                               : 23.976 fpsColor space                              : YUVChroma subsampling                       : 4:2:0Bit depth                                : 8 bitsScan type                                : ProgressiveBits/(Pixel*Frame)                       : 0.220Stream size                              : 6.25 GiB (76%)Writing library                          : x264 core 65 r1057M 5f8a149Encoding settings                        : cabac=1 / ref=5 / deblock=1:-3:-3 / analyse=0x3:0x113 / me=umh / subme=9 / psy_rd=1.0:0.0 / mixed_ref=1 / me_range=32 / chroma_me=1 / trellis=0 / 8x8dct=1 / cqm=2 / deadzone=6,4 / chroma_qp_offset=-2 / threads=6 / nr=0 / decimate=1 / mbaff=0 / bframes=3 / b_pyramid=1 / b_adapt=2 / b_bias=0 / direct=3 / wpredb=1 / keyint=240 / keyint_min=24 / scenecut=40(pre) / rc=2pass / bitrate=8221 / ratetol=1.0 / qcomp=0.60 / qpmin=10 / qpmax=51 / qpstep=4 / cplxblur=20.0 / qblur=0.5 / ip_ratio=1.40 / pb_ratio=1.30 / aq=1:1.00Language                                 : EnglishDefault                                  : YesForced                                   : No

Audio #1ID                                       : 2Format                                   : AC-3Format/Info                              : Audio Coding 3Mode extension                           : CM (complete main)Codec ID                                 : A_AC3Duration                                 : 1h 51mnBit rate mode                            : ConstantBit rate                                 : 640 KbpsChannel(s)                               : 6 channelsChannel positions                        : Front: L C R, Side: L R, LFESampling rate                            : 48.0 KHzBit depth                                : 16 bitsCompression mode                         : LossyStream size                              : 511 MiB (6%)Title                                    : MVO - КиноманияLanguage                                 : RussianDefault                                  : YesForced                                   : No

Audio #2ID                                       : 3Format                                   : AC-3Format/Info                              : Audio Coding 3Mode extension                           : CM (complete main)Codec ID                                 : A_AC3Duration                                 : 1h 51mnBit rate mode                            : ConstantBit rate                                 : 640 KbpsChannel(s)                               : 6 channelsChannel positions                        : Front: L C R, Side: L R, LFESampling rate                            : 48.0 KHzBit depth                                : 16 bitsCompression mode                         : LossyStream size                              : 511 MiB (6%)Title                                    : AVO - Ю. СербинLanguage                                 : RussianDefault                                  : NoForced                                   : No

Audio #3ID                                       : 4Format                                   : AC-3Format/Info                              : Audio Coding 3Mode extension                           : CM (complete main)Codec ID                                 : A_AC3Duration                                 : 1h 51mnBit rate mode                            : ConstantBit rate                                 : 448 KbpsChannel(s)                               : 6 channelsChannel positions                        : Front: L C R, Side: L R, LFESampling rate                            : 48.0 KHzBit depth                                : 16 bitsCompression mode                         : LossyStream size                              : 358 MiB (4%)Title                                    : MVO - ICTVLanguage                                 : UkrainianDefault                                  : NoForced                                   : No

Audio #4ID                                       : 5Format                                   : AC-3Format/Info                              : Audio Coding 3Mode extension                           : CM (complete main)Codec ID                                 : A_AC3Duration                                 : 1h 51mnBit rate mode                            : ConstantBit rate                                 : 640 KbpsChannel(s)                               : 6 channelsChannel positions                        : Front: L C R, Side: L R, LFESampling rate                            : 48.0 KHzBit depth                                : 16 bitsCompression mode                         : LossyStream size                              : 511 MiB (6%)Title                                    : ОригиналLanguage                                 : EnglishDefault                                  : NoForced                                   : No

Text #1ID                                       : 6Format                                   : UTF-8Codec ID                                 : S_TEXT/UTF8Codec ID/Info                            : UTF-8 Plain TextTitle                                    : Full - КиноманияLanguage                                 : RussianDefault                                  : NoForced                                   : No

Text #2ID                                       : 7Format                                   : UTF-8Codec ID                                 : S_TEXT/UTF8Codec ID/Info                            : UTF-8 Plain TextTitle                                    : FullLanguage                                 : RussianDefault                                  : NoForced                                   : No

Text #3ID                                       : 8Format                                   : UTF-8Codec ID                                 : S_TEXT/UTF8Codec ID/Info                            : UTF-8 Plain TextTitle                                    : FullLanguage                                 : EnglishDefault                                  : NoForced                                   : No

Text #4ID                                       : 9Format                                   : UTF-8Codec ID                                 : S_TEXT/UTF8Codec ID/Info                            : UTF-8 Plain TextTitle                                    : Full SDHLanguage                                 : EnglishDefault                                  : NoForced                                   : No

Menu00:00:00.000                             : en:The Stranger00:02:00.077                             : en:John Murdoch00:07:20.021                             : en:Dr. Schreber's Office00:12:09.519                             : en:Automat00:19:22.286                             : en:He Can Tune!00:23:00.751                             : en:Who Am I?00:27:40.864                             : en:Thinking in Circles00:34:35.447                             : en:Tuning Begins00:48:26.652                             : en:Imprinted Memories00:57:14.179                             : en:Search for Murdoch01:05:31.677                             : en:Tuning Time Again01:11:08.720                             : en:Do You Remember?01:16:27.872                             : en:"Sleep"01:19:31.265                             : en:Dark Secrets01:29:16.809                             : en:Final Imprint01:40:04.497                             : en:To Shell Beach01:45:08.301                             : en:End Credits01:51:43.488                             : en:The End

piratbit.ru

/ Dark City (1998) BDRip 720p

: (John Murdoch), ո (Inspector Frank Bumstead), (Dr. Daniel P. Schreber), (Emma Murdoch), ' (Mr. Hand), (Mr. Book), (Mr. Wall), (Walenski), (Karl Harris), (Husselbeck), (May), (Stromboli)

: , , . , , , .

: AVC, 1280x544 (2.35:1), 5123 kbps, 23,976 fps, 0,307 bpp 1: / AC3 / 5.1 / 48 kHz / 448 kbps 2: / AC3 / 5.1 / 48 kHz / 448 kbps 3: / AC3 / 5.1 / 48 kHz / 448 kbps :

--------------------------------------------------------------------------------x264 [info]: frame I:3328 Avg QP:12.55 size: 86228x264 [info]: frame P:103933 Avg QP:15.00 size: 31558x264 [info]: frame B:37292 Avg QP:18.45 size: 10502--------------------------------------------------------------------------------Format : MatroskaFormat version : Version 2File size : 4.63 GiBDuration : 1h 40mnOverall bit rate : 6 599 KbpsMovie name : = / Dark City BDRip 720p by SC Kosmos =Encoded date : UTC 2015-01-28 09:18:02Writing application : mkvmerge v3.3.0 ('Language') gebaut am Mar 24 2010 14:59:24Writing library : libebml v0.8.0 + libmatroska v0.9.0

VideoID : 1Format : AVCFormat/Info : Advanced Video CodecFormat profile : [email protected]Format settings, CABAC : YesFormat settings, ReFrames : 8 framesCodec ID : V_MPEG4/ISO/AVCDuration : 1h 40mnBit rate : 5 124 KbpsWidth : 1 280 pixelsHeight : 544 pixelsDisplay aspect ratio : 2.35:1Frame rate : 23.976 fpsColor space : YUVChroma subsampling : 4:2:0Bit depth : 8 bitsScan type : ProgressiveBits/(Pixel*Frame) : 0.307Stream size : 3.60 GiB (78%)Title : / Dark City BDRip 720p by SC KosmosWriting library : x264 core 144 r2525 40bb568Encoding settings : cabac=1 / ref=8 / deblock=1:-2:-2 / analyse=0x3:0x113 / me=umh / subme=11 / psy=1 / psy_rd=1.00:0.00 / mixed_ref=1 / me_range=32 / chroma_me=1 / trellis=2 / 8x8dct=1 / cqm=0 / deadzone=21,11 / fast_pskip=0 / chroma_qp_offset=-2 / threads=12 / lookahead_threads=1 / sliced_threads=0 / nr=0 / decimate=1 / interlaced=0 / bluray_compat=0 / constrained_intra=0 / bframes=8 / b_pyramid=2 / b_adapt=1 / b_bias=0 / direct=3 / weightb=1 / open_gop=0 / weightp=2 / keyint=240 / keyint_min=23 / scenecut=40 / intra_refresh=0 / rc_lookahead=40 / rc=crf / mbtree=0 / crf=18.5 / qcomp=0.60 / qpmin=0 / qpmax=69 / qpstep=4 / vbv_maxrate=62500 / vbv_bufsize=78125 / crf_max=0.0 / nal_hrd=none / filler=0 / ip_ratio=1.40 / pb_ratio=1.30 / aq=1:1.00Language : EnglishDefault : NoForced : No

Audio #1ID : 2Format : AC-3Format/Info : Audio Coding 3Mode extension : CM (complete main)Codec ID : A_AC3Duration : 1h 40mnBit rate mode : ConstantBit rate : 448 KbpsChannel(s) : 6 channelsChannel positions : Front: L C R, Side: L R, LFESampling rate : 48.0 KHzBit depth : 16 bitsCompression mode : LossyStream size : 322 MiB (7%)Title : MVO ( )Language : RussianDefault : YesForced : No

Audio #2ID : 3Format : AC-3Format/Info : Audio Coding 3Mode extension : CM (complete main)Codec ID : A_AC3Duration : 1h 40mnBit rate mode : ConstantBit rate : 448 KbpsChannel(s) : 6 channelsChannel positions : Front: L C R, Side: L R, LFESampling rate : 48.0 KHzBit depth : 16 bitsCompression mode : LossyStream size : 322 MiB (7%)Title : AVO ( )Language : RussianDefault : NoForced : No

Audio #3ID : 4Format : AC-3Format/Info : Audio Coding 3Mode extension : CM (complete main)Codec ID : A_AC3Duration : 1h 40mnBit rate mode : ConstantBit rate : 448 KbpsChannel(s) : 6 channelsChannel positions : Front: L C R, Side: L R, LFESampling rate : 48.0 KHzBit depth : 16 bitsCompression mode : LossyStream size : 322 MiB (7%)Language : EnglishDefault : NoForced : No

Text #1ID : 5Format : UTF-8Codec ID : S_TEXT/UTF8Codec ID/Info : UTF-8 Plain TextLanguage : RussianDefault : NoForced : No

Text #2ID : 6Format : UTF-8Codec ID : S_TEXT/UTF8Codec ID/Info : UTF-8 Plain TextLanguage : EnglishDefault : NoForced : No

Menu00:00:00.000 : en:00:00:00.00000:02:54.007 : en:00:02:54.00700:07:18.271 : en:00:07:18.27100:11:32.525 : en:00:11:32.52500:16:34.827 : en:00:16:34.82700:19:45.017 : en:00:19:45.01700:25:00.708 : en:00:25:00.70800:29:51.206 : en:00:29:51.20600:41:42.917 : en:00:41:42.91700:49:35.181 : en:00:49:35.18100:55:46.552 : en:00:55:46.55201:01:23.513 : en:01:01:23.51301:06:22.395 : en:01:06:22.39501:09:17.987 : en:01:09:17.98701:18:21.530 : en:01:18:21.53001:28:57.165 : en:01:28:57.16501:34:02.595 : en:01:34:02.595

filmtor.net

Скачать фильм Тёмный мир: Равновесие (2013) через торрент

10 февраля 2016 16:25 Темный мир: Равновесие [01-12 из 12] (2014) WEB-DLRip от Generalfilm .torrent   [Информация о файле (нажмите для просмотра)] Перевод: не требуетсяКодек: XviDКачество: WEB-DLRipВидео: ~ 1534 Кбит/с, 720x400Звук: AC3, 2ch, 192 Кбит/с 7,27 Gb 54 8 10 февраля 2016 16:25 Тёмный мир: Равновесие [01-12 из 12] (2014) WEB-DL 720p от qqss44 .torrent   13,21 Gb 30 6 10 февраля 2016 16:25 Тёмный мир: Равновесие (2013) BDRip от HQCLUB | Лицензия .torrent   [Информация о файле (нажмите для просмотра)] Субтитры: нетФормат: AVIКачество: BDRip (источник:Видео: 704x400 (1.76:1), 23.976 fps, XviD build 65 ~1724 kbps avg, 0.26 bit/pixelАудио: 48 kHz, AC3 Dolby Digital, 3/2 (L,C,R,l,r) + LFE ch, ~448 kbps avg 1,45 Gb 78 4 10 февраля 2016 16:25 Тёмный мир: Равновесие (2013) HDRip от Шкипер .torrent   [Информация о файле (нажмите для просмотра)] Перевод: Не требуетсяКодек: XviDКачество: HDRipВидео: 624x352 (1.77:1), 23.976 fps, XviD build 73 ~962 kbps avg, 0.18 bit/pixelЗвук: 48 kHz, MPEG Layer 3, 2 ch, ~128.00 kbps avgСубтитры: Нет 746,06 Mb 15 2 10 февраля 2016 16:25 Тёмный мир: Равновесие (2013) BDRip 720p | GER Transfer .torrent   [Информация о файле (нажмите для просмотра)] Перевод: Оригинал (лицензия)Кодек: x264Качество: BDRip (источник: Blu-ray Disc)Видео: 1280x720 (16:9), 23.976 fps, 4120 kbpsАудио: AC-3, 6 ch, 448 kbpsВидео: Идентификатор : 1 Формат : AVC Формат/Информация : Advanced Video Codec Профиль формата : [email protected] Параметр CABAC формата : Да Параметр ReFrames формата : 8 кадров Идентификатор кодека : V_MPEG4/ISO/AVC Продолжительность : 1 ч. 35 м. Битрейт : 4121 Кбит/сек Ширина : 1280 пикселей Высота : 720 пикселей Соотношение сторон : 16:9 Режим частоты кадров : Постоянный Частота кадров : 23,976 кадра/сек Цветовое пространство : YUV Субдискретизация насыщенности : 4:2:0 Битовая глубина : 8 бит Тип развёртки : Прогрессивная Бит/(Пиксели*Кадры) : 0.187 Размер потока : 2,69 Гбайт (88%) Заголовок : Release by AlexKa Библиотека кодирования : x264 core 144 r2525 40bb568 Настройки программы : cabac=1 / ref=8 / deblock=1:-3:-3 / analyse=0x3:0x133 / me=umh / subme=11 / psy=1 / psy_rd=1.00:0.00 / mixed_ref=1 / me_range=32 / chroma_me=1 / trellis=2 / 8x8dct=1 / cqm=0 / deadzone=21,11 / fast_pskip=0 / chroma_qp_offset=-2 / threads=12 / lookahead_threads=1 / sliced_threads=0 / nr=0 / decimate=0 / interlaced=0 / bluray_compat=0 / constrained_intra=0 / bframes=6 / b_pyramid=2 / b_adapt=2 / b_bias=0 / direct=3 / weightb=1 / open_gop=0 / weightp=2 / keyint=240 / keyint_min=23 / scenecut=40 / intra_refresh=0 / rc=2pass / mbtree=0 / bitrate=4121 / ratetol=1.0 / qcomp=0.60 / qpmin=0 / qpmax=69 / qpstep=4 / cplxblur=20.0 / qblur=0.5 / ip_ratio=1.40 / pb_ratio=1.30 / aq=1:0.70 Язык : RussianАудио: Идентификатор : 2 Формат : AC-3 Формат/Информация : Audio Coding 3 Расширение режима : CM (complete main) Параметр Endianness формата : Big Идентификатор кодека : A_AC3 Продолжительность : 1 ч. 35 м. Вид битрейта : Постоянный Битрейт : 448 Кбит/сек Каналы : 6 каналов Расположение каналов : Front: L C R, Side: L R, LFE Частота : 48,0 КГц Битовая глубина : 16 бит Метод сжатия : С потерями Размер потока : 306 Мбайт (10%) Заголовок : Rus Язык : Russian 3,04 Gb 20 4 10 февраля 2016 16:25 Тёмный мир: Равновесие (2013) НDRip от AleksSin | Лицензия .torrent   [Информация о файле (нажмите для просмотра)] Перевод: Не требуется[лицензия]Кодек: XviDКачество: НDRip(Исх. BDRip 720p)Видео: 704x384 (1.83:1), 23.976 fps, XviD build 73 ~1725 kbps avg, 0.27 bit/pixelЗвук: 48 kHz, AC3 Dolby Digital, 3/2 (L,C,R,l,r) + LFE ch, ~448.00 kbps avgСубтитры: нетВидео: Идентификатор : 0 Формат : MPEG-4 Visual Профиль формата : Advanced [email protected] Параметр BVOP формата : 1 Параметр QPel формата : Нет Параметр GMC формата : Без точки перехода Параметр матрицы формата : Выборочная Идентификатор кодека : XVID Идентификатор кодека/Подсказка : XviD Продолжительность : 1 ч. 35 м. Битрейт : 1725 Кбит/сек Ширина : 704 пикс. Высота : 384 пикс. Соотношение сторон : 16:9 Частота кадров : 23,976 кадр/сек Цветовое пространство : YUV Подвыборка цветности : 4:2:0 Битовая глубина : 8 бит Тип развёртки : Прогрессивная Метод сжатия : С потерями Бит/(Пиксели*Кадры) : 0.266 Размер потока : 1,15 Гбайт (79%) Библиотека кодирования : XviD 73Аудио: Идентификатор : 1 Формат : AC-3 Формат/Информация : Audio Coding 3 Расширение режима : CM (complete main) Идентификатор кодека : 2000 Продолжительность : 1 ч. 35 м. Вид битрейта : Постоянный Битрейт : 448 Кбит/сек Каналы : 6 каналов Расположение каналов : Front: L C R, Side: L R, LFE Частота : 48,0 КГц Битовая глубина : 16 бит Метод сжатия : С потерями Размер потока : 306 Мбайт (21%) Выравнивание : Разделение по промежуткам Продолжительность промежутка : 42 мс. (1,00 видеокадр) Время предзагрузки промежутка : 500 ms 1,45 Gb 10 2 10 февраля 2016 16:25 Тёмный мир: Равновесие (2013) BDRip 720p | Лицензия .torrent   [Информация о файле (нажмите для просмотра)] Перевод: Не требуетсяКодек: x264Качество: BDRip 720pВидео: MPEG-4 AVC, 4350 Кбит/с, 1280x720, 23,976 fpsЗвук: Rus, DTS, 1510 kb/s (6 ch), 48 kHz Ger, DTS, 1510 kb/s (6 ch), 48 kHzСубтитры: немецкие 4 Gb 9 1 10 февраля 2016 16:25 Тёмный мир: Равновесие (2013) BDRip-AVC от HELLYWOOD | Ger-Transfer | Лицензия .torrent   [Информация о файле (нажмите для просмотра)] Перевод: Оригинал [лицензия Blu-Ray]Субтитры: Немецкие (полные + форс.)Качество: BDRip-AVCФормат: MKVВидео: x.264, 1008x566 (16:9), 23,976 fps, 2382 kbps, 0.174 bit/pixelАудио#1: 48 kHz, AC3 Dolby Digital, 3/2 (L,C,R,l,r) + LFE ch, 448.00 kbps |RUSАудио#2: 48 kHz, AC3 Dolby Digital, 3/2 (L,C,R,l,r) + LFE ch, 448.00 kbps |GER 2,18 Gb 16 1 10 февраля 2016 16:25 Тёмный мир: Равновесие (2013) BDRemux 1080р от ExKinoRay | Ger Transfer | Лицензия .torrent   [Информация о файле (нажмите для просмотра)] Качество: Blu-Ray Remux (1080p)Видео: MPEG-4 AVC, 22303 Кбит/с, 1920x1080, 23.976 кадр/сАудио: Русский (AC3, 6 ch, 640 Кбит/c), (DTS-HD MA, 6 ch, 1635 Кбит/с), немецкий (DTS-HD MA, 6 ch, 1684 Кбит/с)Субтитры: НемецкиеВидео: Идентификатор : 1 Формат : AVC Формат/Информация : Advanced Video Codec Профиль формата : [email protected] Параметр CABAC формата : Да Параметр ReFrames формата : 2 кадра Идентификатор кодека : V_MPEG4/ISO/AVC Продолжительность : 1 ч. 35 м. Вид битрейта : Переменный Максимальный битрейт : 30,2 Мбит/сек Ширина : 1920 пикселей Высота : 1080 пикселей Соотношение сторон : 16:9 Режим частоты кадров : Постоянный Частота кадров : 23,976 кадра/сек Цветовое пространство : YUV Субдискретизация насыщенности : 4:2:0 Битовая глубина : 8 бит Тип развёртки : Прогрессивная Default : Да Forced : НетАудио #1: Идентификатор : 2 Формат : AC-3 Формат/Информация : Audio Coding 3 Расширение режима : CM (complete main) Параметр Endianness формата : Big Идентификатор кодека : A_AC3 Продолжительность : 1 ч. 35 м. Вид битрейта : Постоянный Битрейт : 640 Кбит/сек Каналы : 6 каналов Расположение каналов : Front: L C R, Side: L R, LFE Частота : 48,0 КГц Битовая глубина : 16 бит Метод сжатия : С потерями Размер потока : 437 Мбайт (2%) Язык : Russian Default : Да Forced : НетАудио #2: Идентификатор : 3 Формат : DTS Формат/Информация : Digital Theater Systems Профиль формата : MA / Core Режим : 16 Параметр Endianness формата : Big Идентификатор кодека : A_DTS Продолжительность : 1 ч. 35 м. Вид битрейта : Переменный Битрейт : Неизвестно / 768 Кбит/сек Каналы : 6 каналов Расположение каналов : Front: L C R, Side: L R, LFE Частота : 48,0 КГц Битовая глубина : 16 бит Метод сжатия : Без потерь / Lossy Язык : Russian Default : Нет Forced : НетАудио #3: Идентификатор : 4 Формат : DTS Формат/Информация : Digital Theater Systems Профиль формата : MA / Core Режим : 16 Параметр Endianness формата : Big Идентификатор кодека : A_DTS Продолжительность : 1 ч. 35 м. Вид битрейта : Переменный Битрейт : Неизвестно / 768 Кбит/сек Каналы : 6 каналов Расположение каналов : Front: L C R, Side: L R, LFE Частота : 48,0 КГц Битовая глубина : 16 бит Метод сжатия : Без потерь / Lossy Язык : German Default : Нет Forced : Нет 17,5 Gb 4 3 10 февраля 2016 16:25 Тёмный мир: Равновесие (2013) HDTV 1080i от MediaClub .torrent   [Информация о файле (нажмите для просмотра)] Кодек: MPEG-4 AVCКачество: HDTV 1080iВидео: 8148 Кбит/с, 1920x1080, 25.000 кадр/сЗвук: Русский (АС3, 6 ch, 448 Кбит/с)Видео: Идентификатор : 302 (0x12E) Идентификатор меню : 20102 (0x4E86) Формат : AVC Формат/Информация : Advanced Video Codec Профиль формата : [email protected] Параметр CABAC формата : Да Параметр ReFrames формата : 4 кадра Идентификатор кодека : 27 Продолжительность : 1 ч. 31 м. Битрейт : 8148 Кбит/сек Ширина : 1920 пикселей Высота : 1080 пикселей Соотношение сторон : 16:9 Частота кадров : 25,000 кадров/сек Стандарт вещания : Component Цветовое пространство : YUV Субдискретизация насыщенности : 4:2:0 Битовая глубина : 8 бит Тип развёртки : Чересстрочная Порядок развёртки : Верхнее поле первое Бит/(Пиксели*Кадры) : 0.157 Размер потока : 5,21 Гбайт (90%) Основные цвета : BT.709 Характеристики трансфера : BT.709 Коэффициенты матрицы : BT.709Аудио: Идентификатор : 402 (0x192) Идентификатор меню : 20102 (0x4E86) Формат : AC-3 Формат/Информация : Audio Coding 3 Расширение режима : CM (complete main) Параметр Endianness формата : Big Идентификатор кодека : 6 Продолжительность : 1 ч. 31 м. Вид битрейта : Постоянный Битрейт : 448 Кбит/сек Каналы : 6 каналов Расположение каналов : Front: L C R, Side: L R, LFE Частота : 48,0 КГц Битовая глубина : 16 бит Метод сжатия : С потерями Задержка видео : -1 с. 8 мс. Размер потока : 293 Мбайт (5%) Язык : Russian Язык, дополнительно : Clean effects 5,79 Gb 14 5 10 февраля 2016 16:25 Тёмный мир: Равновесие [01-12 из 12] (2014) WEB-DLRip от ExKinoRay .torrent   [Информация о файле (нажмите для просмотра)] Качество: WEB-DLRipВидео: MPEG-4 AVC, ~ 1200 Кбит/с, 704x396Аудио: AAC, 2 ch, 192 Кбит/сВидео: Идентификатор : 1 Формат : AVC Формат/Информация : Advanced Video Codec Профиль формата : [email protected] Параметр CABAC формата : Да Параметр ReFrames формата : 3 кадра Идентификатор кодека : V_MPEG4/ISO/AVC Продолжительность : 50 м. Номинальный битрейт : 1200 Кбит/сек Ширина : 704 пикселя Высота : 396 пикселей Соотношение сторон : 16:9 Режим частоты кадров : Постоянный Частота кадров : 25,000 кадров/сек Цветовое пространство : YUV Субдискретизация насыщенности : 4:2:0 Битовая глубина : 8 бит Тип развёртки : Прогрессивная Бит/(Пиксели*Кадры) : 0.172 Библиотека кодирования : x264 core 125 r2200 999b753 Настройки программы : cabac=1 / ref=3 / deblock=1:0:0 / analyse=0x3:0x113 / me=hex / subme=7 / psy=1 / psy_rd=1.00:0.00 / mixed_ref=1 / me_range=16 / chroma_me=1 / trellis=1 / 8x8dct=1 / cqm=0 / deadzone=21,11 / fast_pskip=1 / chroma_qp_offset=-2 / threads=4 / lookahead_threads=1 / sliced_threads=0 / nr=0 / decimate=1 / interlaced=0 / bluray_compat=0 / constrained_intra=0 / bframes=1 / b_pyramid=0 / b_adapt=1 / b_bias=0 / direct=1 / weightb=1 / open_gop=0 / weightp=2 / keyint=250 / keyint_min=25 / scenecut=40 / intra_refresh=0 / rc=2pass / mbtree=0 / bitrate=1200 / ratetol=1.0 / qcomp=0.60 / qpmin=0 / qpmax=69 / qpstep=4 / cplxblur=20.0 / qblur=0.5 / ip_ratio=1.40 / pb_ratio=1.30 / aq=1:1.00 Язык : Russian Default : Да Forced : ДаАудио: Идентификатор : 2 Формат : AAC Формат/Информация : Advanced Audio Codec Профиль формата : LC Идентификатор кодека : A_AAC Продолжительность : 50 м. Каналы : 2 канала Расположение каналов : Front: L R Частота : 44,1 КГц Метод сжатия : С потерями Язык : Russian Default : Да Forced : Да 5,44 Gb 98 13 10 февраля 2016 16:25 Тёмный мир: Равновесие [01-12 из 12] (2014) SATRip .torrent   [Информация о файле (нажмите для просмотра)] Качество: SATRipВидео: XviD, 1800 Кбит/с, 720x400Аудио: MP3, 2 ch, 128 Кбит/с 7,73 Gb 195 38 10 февраля 2016 16:24 Тёмный мир: Равновесие (2013) DVDRip от Scarabey | Лицензия .torrent   [Информация о файле (нажмите для просмотра)] Перевод: Не требуетсяКачество: DVDRipВидео: 624x352 (1.77:1), 25 fps, XviD build 73 ~999 kbps avg, 0.18 bit/pixelАудио: 48 kHz, MPEG Layer 3, 2 ch, ~128.00 kbps avg 743,68 Mb 17 1 10 февраля 2016 16:24 Тёмный мир: Равновесие (2013) DVDRip от Scarabey | Лицензия .torrent   [Информация о файле (нажмите для просмотра)] Перевод: Не требуетсяКачество: DVDRipВидео: 688x384 (1.79:1), 25 fps, XviD build 73 ~1810 kbps avg, 0.27 bit/pixelАудио: 48 kHz, AC3 Dolby Digital, 3/2 (L,C,R,l,r) + LFE ch, ~448.00 kbps avg 1,45 Gb 26 5 10 февраля 2016 16:24 Тёмный мир: Равновесие (2013) DVD5 R5 от New-Team | лицензия .torrent   [Информация о файле (нажмите для просмотра)] Перевод: Не требуетсяКачество: DVD5 R5Формат: DVD VideoВидео: PAL 16x9 (720х576) VBR, 6000 kbps, Auto LetterboxedАудио: 48 kHz, Dolby AC3, 6 ch, 448 kbps,русский 4,28 Gb 7 1 10 февраля 2016 16:24 Тёмный мир: Равновесие (2013) DVDRip-AVC от New-Team | лицензия .torrent   [Информация о файле (нажмите для просмотра)] Перевод: Не требуетсяКачество: DVDRip-AVC / DVD5 R5Формат: MKVВидео: [email protected] (16:9), 25.000 fps, MPEG-4 AVC ~ 1831 kbps avg, 0.178 bit/pixelАудио: 48 kHz, Dolby AC3, 6 ch, 448 kbps,русскийВидео: Идентификатор : 1 Формат : AVC Формат/Информация : Advanced Video Codec Профиль формата : [email protected] Параметр CABAC формата : Да Параметр ReFrames формата : 8 кадров Идентификатор кодека : V_MPEG4/ISO/AVC Продолжительность : 1 ч. 31 м. Битрейт : 1831 Кбит/сек Ширина : 720 пикселей Высота : 572 пикселя Соотношение сторон : 16:9 Режим частоты кадров : Постоянный Частота кадров : 25,000 кадров/сек Цветовое пространство : YUV Субдискретизация насыщенности : 4:2:0 Битовая глубина : 8 бит Тип развёртки : Прогрессивная Бит/(Пиксели*Кадры) : 0.178 Размер потока : 1,14 Гбайт (78%) Библиотека кодирования : x264 core 138 r2356 a1d3d17 Настройки программы : cabac=1 / ref=8 / deblock=1:-2:-1 / analyse=0x3:0x113 / me=umh / subme=10 / psy=1 / psy_rd=1.00:0.05 / mixed_ref=1 / me_range=32 / chroma_me=1 / trellis=2 / 8x8dct=1 / cqm=0 / deadzone=21,11 / fast_pskip=0 / chroma_qp_offset=-3 / threads=9 / lookahead_threads=1 / sliced_threads=0 / nr=0 / decimate=0 / interlaced=0 / bluray_compat=0 / constrained_intra=0 / bframes=8 / b_pyramid=2 / b_adapt=2 / b_bias=0 / direct=3 / weightb=1 / open_gop=0 / weightp=2 / keyint=250 / keyint_min=25 / scenecut=40 / intra_refresh=0 / rc=2pass / mbtree=0 / bitrate=1831 / ratetol=1.0 / qcomp=0.60 / qpmin=0 / qpmax=69 / qpstep=4 / cplxblur=20.0 / qblur=0.5 / ip_ratio=1.40 / pb_ratio=1.30 / aq=1:1.00 Язык : Russian Default : Да Forced : НетАудио: Идентификатор : 2 Формат : AC-3 Формат/Информация : Audio Coding 3 Расширение режима : CM (complete main) Параметр Endianness формата : Big Идентификатор кодека : A_AC3 Продолжительность : 1 ч. 31 м. Вид битрейта : Постоянный Битрейт : 448 Кбит/сек Каналы : 6 каналов Расположение каналов : Front: L C R, Side: L R, LFE Частота : 48,0 КГц Битовая глубина : 16 бит Метод сжатия : С потерями Размер потока : 293 Мбайт (20%) Язык : Russian Default : Да Forced : Нет 1,45 Gb 71 2 10 февраля 2016 16:24 Тёмный мир: Равновесие (2013) DVDRip от New-Team | лицензия .torrent   [Информация о файле (нажмите для просмотра)] Перевод: Не требуетсяКачество: DVDRip / DVD5 R5Формат: AVIВидео: 656x384 (16:9), 25.000 fps, XviD ~ 1004 kbps avg, 0.166 bit/pixelАудио: 48 kHz, МР3, 2 ch, 128 kbps,русскийВидео: Идентификатор : 0 Формат : MPEG-4 Visual Профиль формата : Advanced [email protected] Параметр BVOP формата : 1 Параметр QPel формата : Нет Параметр GMC формата : Без точки перехода Параметр матрицы формата : Выборочная Идентификатор кодека : XVID Идентификатор кодека/Подсказка : XviD Продолжительность : 1 ч. 31 м. Битрейт : 1004 Кбит/сек Ширина : 656 пикселей Высота : 368 пикселей Соотношение сторон : 16:9 Частота кадров : 25,000 кадров/сек Цветовое пространство : YUV Субдискретизация насыщенности : 4:2:0 Битовая глубина : 8 бит Тип развёртки : Прогрессивная Метод сжатия : С потерями Бит/(Пиксели*Кадры) : 0.166 Размер потока : 656 Мбайт (88%) Библиотека кодирования : XviD 73Аудио: Идентификатор : 1 Формат : MPEG Audio Версия формата : Version 1 Профиль формата : Layer 3 Идентификатор кодека : 55 Идентификатор кодека/Подсказка : MP3 Продолжительность : 1 ч. 31 м. Вид битрейта : Постоянный Битрейт : 128 Кбит/сек Каналы : 2 канала Частота : 48,0 КГц Метод сжатия : С потерями Размер потока : 83,7 Мбайт (11%) Выравнивание : Соединение по промежуткам Продолжительность промежутка : 40 мс. (1,00 видеокадр) Время предзагрузки промежутка : 504 мс. 746,22 Mb 11 1 10 февраля 2016 16:24 Тёмный мир: Равновесие (2013) DVDRip от New-Team | лицензия .torrent   [Информация о файле (нажмите для просмотра)] Перевод: Не требуетсяКачество: DVDRip / DVD5 R5Формат: AVIВидео: 720x400 (16:9), 25.000 fps, XviD ~ 1825 kbps avg, 0.253 bit/pixelАудио: 48 kHz, Dolby AC3, 6 ch, 448 kbps,русскийВидео: Идентификатор : 0 Формат : MPEG-4 Visual Профиль формата : Advanced [email protected] Параметр BVOP формата : 1 Параметр QPel формата : Нет Параметр GMC формата : Без точки перехода Параметр матрицы формата : Выборочная Идентификатор кодека : XVID Идентификатор кодека/Подсказка : XviD Продолжительность : 1 ч. 31 м. Битрейт : 1825 Кбит/сек Ширина : 720 пикселей Высота : 400 пикселей Соотношение сторон : 16:9 Частота кадров : 25,000 кадров/сек Цветовое пространство : YUV Субдискретизация насыщенности : 4:2:0 Битовая глубина : 8 бит Тип развёртки : Прогрессивная Метод сжатия : С потерями Бит/(Пиксели*Кадры) : 0.253 Размер потока : 1,16 Гбайт (80%) Библиотека кодирования : XviD 73Аудио: Идентификатор : 1 Формат : AC-3 Формат/Информация : Audio Coding 3 Расширение режима : CM (complete main) Параметр Endianness формата : Big Идентификатор кодека : 2000 Продолжительность : 1 ч. 31 м. Вид битрейта : Постоянный Битрейт : 448 Кбит/сек Каналы : 6 каналов Расположение каналов : Front: L C R, Side: L R, LFE Частота : 48,0 КГц Битовая глубина : 16 бит Метод сжатия : С потерями Размер потока : 293 Мбайт (20%) Выравнивание : Разделение по промежуткам Продолжительность промежутка : 40 мс. (1,00 видеокадр) Время предзагрузки промежутка : 500 мс. 1,46 Gb 195 9 10 февраля 2016 16:24 Тёмный мир: Равновесие (2013) WEB-DLRip от -=HD-NET=- | КПК .torrent   [Информация о файле (нажмите для просмотра)] Кодек: х264Качество: WEB-DLRip | КПКВидео: MPEG-4, 480 х 200, 24.000 fps, 434 Кбит/сАудио: ААС LC, 2 ch, 128 Кбит/с 383,74 Mb 5 7 10 февраля 2016 16:24 Тёмный мир: Равновесие (2013) WEB-DLRip от Scarabey | iTunes .torrent   [Информация о файле (нажмите для просмотра)] Перевод: Не требуетсяКачество: WEB-DLRipВидео: 720x304 (2.37:1), 24 fps, XviD build 73 ~1782 kbps avg, 0.34 bit/pixelАудио: 48 kHz, AC3 Dolby Digital, 3/2 (L,C,R,l,r) + LFE ch, ~384 kbps 1,45 Gb 6 1 10 февраля 2016 16:24 Тёмный мир: Равновесие (2013) WEB-DLRip от Scarabey | iTunes .torrent   [Информация о файле (нажмите для просмотра)] Перевод: Не требуетсяКачество: WEB-DLRipВидео: 720x304 (2.37:1), 24 fps, XviD build 73 ~957 kbps avg, 0.18 bit/pixelАудио: 48 kHz, MPEG Layer 3, 2 ch, ~128.00 kbps avg 745,78 Mb 1 1 10 февраля 2016 16:24 Тёмный мир: Равновесие (2013) WEB-DL 720p .torrent   [Информация о файле (нажмите для просмотра)] Формат: MKVКачество: WEB-DL 720pВидео: 3870 Kb/s, 1280x544Аудио: AC3, 384 kb/s (6 ch) 3,02 Gb 19 1 10 февраля 2016 16:24 Тёмный мир: Равновесие (2013) WEBRip от R.G.RealMT | КПК .torrent   [Информация о файле (нажмите для просмотра)] Перевод: Не требуетсяСубтитры: НетКачество: WEBRipФормат: MP4Видео: 999 kbps, 640x270, 25 fpsАудио: 192 kbps, 2 ch, 44,1 khz 810,69 Mb 14 5

gig-torrent.net


Смотрите также