Скачать фильм третий лишний 2 бесплатно в хорошем качестве


Третий лишний 2 (2015) » The-Cinema.NET – лучший кинотеатр для просмотра онлайн-фильмов бесплатно.

В подборке: Говорящие животные,Дружба

Информация о фильме:Жанр: комедияСтрана: СШАГод выпуска: 2015Режиссер: Сет МакФарлейнПродолжительность: 125 мин.Перевод: Полный дубляж [ Лицензия! ]В ролях: Марк Уолберг, Сет МакФарлейн, Аманда Сайфред, Джованни Рибизи, Джон Слэттери, Морган Фриман, Джессика Барт, Сэм Дж. Джонс, Патрик Варбертон, Майкл ДорнОписание фильма: Взбалмошный медвежонок Тэд счастливо живет в браке с длинноногой красоткой Тами-Линн. И со временем эта странная пара приходит к выводу, что они готовы на важный и ответственный шаг – завести малыша. Вот только как сделать это, если будущий отец – плюшевый медведь?! Тэд решает посоветоваться с давним приятелем Джонни, который недавно разошелся со своей подругой Лори, и тот вызывается помочь. Но сначала необходимо добиться от суда решения о том, что медвежонку в принципе можно воспитывать детей, а затем уже решать более практичные проблемы. Чтобы убедить представителей общественности в том, что Тэд обязательно станет хорошим отцом, главным героям придется изрядно постараться. А с их удачей забавных и комичных ситуаций не избежать… Так сможет ли семейная пара при помощи Джонни исполнить свою заветную мечту превратиться в родителей очаровательного младенца[email protected] The-Cinema.net

Оценки зрителей: Также советуем к онлайн просмотру:

8.5

Занимательность:

8.9

Игра актеров: Зарегистрируйтесь, если не хотите видеть этот баннер!

Смотреть Третий лишний 2 онлайн:

Или:

Перевод Gears Media

  Скачать торрент "Третий лишний 2" бесплатно:

Торрент №1

Торрент №2 | BDRip 1080p

Качество: BDRip-AVC (Что такое BDRip или DVDRip?)Видео: 984x410 (2.40:1), 1426 kbps, 23,976 fps, 0,147 bppАудио: AC3 / 5.1 / 48 kHz / 384 kbps / 16 bitРазмер: 1.46 GBПеревод: Дубляж [iTunes] Качество: BDRip 1080p (Что такое BDRip или DVDRip?)Видео: 1920x800 ~ 16258 kbps 23.976 fpsАудио: Аудио#1: Russian: 48 kHz, AC3, 3/2 (L,C,R,l,r) + LFE ch, ~640 kbps avg | Дубляж, iTunes Аудио#2: Russian: 48 kHz, DTS 5.1, ~1509 kbps avg | Одноголосый закадровый, Д. Есарев Аудио#3: Ukrainian: 48 kHz, AC3, 2/0 (L,R) ch, ~192 kbps avg | Дубляж Аудио#4: English: 48 kHz, DTS 5.1, ~1509 kbps | Оригинал Аудио#5: English: 48 kHz, AC3, 2/0 (L,R) ch, ~192 kbps | КомментарииРазмер: 16.39 ГБПеревод: Проф. (полное дублирование)

Ещё никто не оставил рецензию.

ИнформацияПосетители, находящиеся в группе Гости, не могут оставлять комментарии к данной публикации.

the-cinema.net

Скачать фильм Третий лишний 2 через торрент в хорошем качестве бесплатно WEB-DLRip

Размер: 1.46 GB | Добавлен: 2 года назад | Торрент скачан:451 раз
Реклама Дарим 3000 рублей за регистрацию, не упусти свой шанс получить шикарный бонус!!!

23-09-2015 19:46 Третий лишний 2 Скачать торрент  

Третий лишний 2 / Ted 2 ««Плюшевый беспредельщик возвращается»» ИНФОРМАЦИЯ: Год выпуска:2015 Страна: США Жанр: комедия Продолжительность: 01:52:43 Перевод: Дубляж - [Лицензия / iTunes] Режиссер: Сет МакФарлейнВ Ролях: Марк Уолберг (John), Сет МакФарлейн (Ted, озвучка), Аманда Сайфред (Samantha), Джованни Рибизи (Donny), Джон Слэттери (Shep Wild), Морган Фриман (Patrick Meighan), Джессика Барт (Tami-Lynn), Сэм Дж. Джонс (Sam Jones), Патрик Варбертон (Guy), Майкл Дорн (Rick), Билл Смитрович (Frank), Коко Браун (Joy)Описание: Плюшевый беспредельщик продолжает сводить с ума чопорную интеллигенцию. На этот раз говорящий медвежонок с большим эго и его длинноногая блондинка решили завести ребёнка. Там, где не постаралась природа, на помощь приходят звёздные доноры, городские сумасшедшие и верный друг Джонни. Он только что расстался с Лори и готов к новым авантюрам. Третий здесь совсем не лишний.
  • Мировая премьера:25 июня 2015 ТЕХ.ДАННЫЕ: Качество: WEB-DLRip Формат: AVI Видео: XviD, 720x304 (2.35:1), 1460 kbps, 23,976 fps, 0,278 bpp Аудио: AC3 / 5.1 / 48 kHz / 384 kbps / 16 bitGeneralComplete name : D:\Торенты\TED.2.2015.D.WEB-DLRip.1.46GB.aviFormat : AVIFormat/Info : Audio Video InterleaveFile size : 1.46 GiBDuration : 1h 52mnOverall bit rate : 1 854 KbpsWriting application : VirtualDubMod 1.5.10.3 | www.virtualdub-fr.org || (build 2550/release)Writing library : VirtualDubMod build 2550/release

    VideoID : 0Format : MPEG-4 VisualFormat profile : Advanced [email protected] settings, BVOP : 2Format settings, QPel : NoFormat settings, GMC : No warppointsFormat settings, Matrix : Default (MPEG)Codec ID : XVIDCodec ID/Hint : XviDDuration : 1h 52mnBit rate : 1 461 KbpsWidth : 720 pixelsHeight : 304 pixelsDisplay aspect ratio : 2.35:1Frame rate : 23.976 fpsColor space : YUVChroma subsampling : 4:2:0Bit depth : 8 bitsScan type : ProgressiveCompression mode : LossyBits/(Pixel*Frame) : 0.278Stream size : 1.15 GiB (79%)Writing library : XviD 1.2.1 (UTC 2008-12-04)

    AudioID : 1Format : AC-3Format/Info : Audio Coding 3Mode extension : CM (complete main)Codec ID : 2000Duration : 1h 52mnBit rate mode : ConstantBit rate : 384 KbpsChannel(s) : 6 channelsChannel positions : Front: L C R, Side: L R, LFESampling rate : 48.0 KHzBit depth : 16 bitsCompression mode : LossyStream size : 310 MiB (21%)Alignment : Split accross interleavesInterleave, duration : 42 ms (1.00 video frame)Interleave, preload duration : 500 ms

    Скриншоты: © Оформление by Ворон
  • Скачать Третий лишний 2 через торрент http://pic.pb.wtf/images/6/ordi9.jpg Скачать фильм Третий лишний 2 через торрент бесплантно в хорошем качестве Описание: Плюшевый беспредельщик продолжает сводить с ума чопорную интеллигенцию. На этот раз говорящий медвежонок с большим эго и его ... 2015-10-18 16:09 9.2 10 34

    Loading...

    Loading...

    % Раздел Тема Автор DL S | L
    Фильмы 2015 [DVDrip, WEB-DLRip, HDrip] [ 1.46 GB ] Третий лишний 2 / Ted 2 [2015 BDRip-AVC] Dub potroks Скачать
    Фильмы (HD 720p, 1080p) (48-60 fps) [ 5.89 GB ] Третий лишний 2 / Ted 2 [2015 BDRip 720p / 60 fps Theatrical Cut - ] от R.G. HD-Films Ressident Скачать
    Фильмы 2015 [DVDrip, WEB-DLRip, HDrip] [ 1.46 GB ] Третий лишний 2 / Ted 2 [2015 BDRip] Dub Twi7ter Скачать
    Фильмы 2015 [DVDrip, WEB-DLRip, HDrip] [ 1.41 GB ] Третий лишний 2 / Ted 2 [2015 BDRip Twi7ter Скачать
    T Фильмы (Blu-ray, BD-Remux, HDDVD) [ 27.82 GB ] Третий лишний 2 / Ted 2 [2015 BD Remux] [Unrated Cut] ] Ворон Скачать
    T Фильмы [HD 720p, 1080p] (Хороший звук DUB, MVO) [ 8.43 GB ] Третий лишний 2 / Ted 2 [2015 BDRip 1080p ЦККПСС Скачать
    Фильмы 2015 [DVDrip, WEB-DLRip, HDrip] [ 2.05 GB ] Третий лишний 2 / Ted 2 [2015 HDRip] [Unrated Cut] killermax2013 Скачать

    Рекламный пират

    23-09-2015 20:00 Третий лишний 2 Скачать торрент  

    Тед и Джон снова отжигают

    После первого фильма, доставившего немало удовольствия в первую очередь из-за необычного дуэта главных героев и их фразочек, ко второй, почему-то появилось скептическое отношение. Оно укрепилось отзывами людей, которые сходили в кино и сообщили, что фильм — тупое сборище американского юмора.

    К счастью, личный просмотр этой комедии оставил совершенно другие впечатления. Да, начало истории о том, как Тед решил через суд добиться права называться человеком, может быть, не является лучшим продолжением, особенно если учитывать всю вакханалию из первой части, но, здесь ведь мы видим уже не того Теда и Джона — первый стал семейным мишкой, а у второго сердце разбито (вероятнее, от того, что Мила Кунис родила от Эштона Катчера).

    «Третий лишний 2» хоть и не лишен сортирного юмора, но все же не содержит его столько, чтобы начать плеваться и краснеть за происходящее на экране.

    Единственное, что мне не понравилось так это сцены в библиотеки с этими фантасмагоричными и галюциногенными танцами. И еще один момент — телешоу, в котором рассказывали о судьбе Теда — снято как-то никчемно, третьесортно и уныло.

    Очень трогательной оказалась одна из финальных сцен, где Тед все же дал понять, что он не набитый ватой плюшевый медведь, а человек. Также, пришлась по вкусу сцена, в которой Тед увидел зомби. Это было круто. Также как и момент с гитарой — просто огонь. Вот в этих местах зрителю гарантирован дикий смех.

    В целом, типичная комедия с обилием юмора и комичных ситуаций, определенным объемом тупых шуток, ноткой иронии, трогательными моментами, поучающими и заставляющими подумать сценами и звездами первой величины.

    Впрочем, смотреть Вам. Свое мнение никому не навязываю.

    8 из 10by C_B_J

    16-10-2015 15:31 Третий лишний 2 Скачать торрент  

    На один раз... первая часть получше была... 6/10

    25-12-2015 08:38 Третий лишний 2 Скачать торрент  

    Соглашусь с jason69, первая была интереснее

    Дорогой пользователь! Огромная просьба, поблагодарите релизера, оцените раздачу и оставьте свои комментарий, если Вы скачали Третий лишний 2 через торрент бесплатно! Внесите свою лепту в развитие PiratBit!

    Комментировать посты могут только пользователи прошедшие не сложную регистрацию

    Третий лишний 2 через торрент Скачать бесплатно Третий лишний 2 Третий лишний 2 скачать торрент Третий лишний 2 смотреть онлайн Cкачать фильм Третий лишний 2 бесплатно Третий лишний 2 скачать торрент в хорошем качестве Третий лишний 2 смотреть онлайн бесплатно в хорошем качестве

    Вы не можете начинать темыВы не можете отвечать на сообщенияВы не можете редактировать свои сообщенияВы не можете удалять свои сообщенияВы не можете голосовать в опросахВы не можете прикреплять файлы к сообщениямВы можете скачивать файлы

    piratbit.ru

    Скачать фильм Третий лишний 2 через торрент в хорошем качестве бесплатно HDRip

    Размер: 2.05 GB | Добавлен: 1 год 11 мес. назад | Торрент скачан:230 раз
    Реклама Дарим 3000 рублей за регистрацию, не упусти свой шанс получить шикарный бонус!!!

    18-11-2015 07:52 Третий лишний 2 Скачать торрент  

    Третий лишний 2 / Ted 2 Год выхода: 2015Страна: СШАЖанр: комедияПродолжительность: 01:55:32Перевод: Полное дублирование [Лицензия / iTunes]Субтитры: нетПримечание: PROPER - Полный перевод! Сцены вырезанные цензурой - озвучены Б.Савченко "Hamsterstudio".

    Режиссер: Сет МакФарлейн

    В ролях: Марк Уолберг , Сет МакФарлейн , Аманда Сайфред , Лиам Нисон , Морган Фриман , Патрик Варбертон Плюшевый беспредельщик продолжает сводить с ума чопорную интеллигенцию. На этот раз говорящий медвежонок с большим эго и его длинноногая блондинка решили завести ребёнка. Там, где не постаралась природа, на помощь приходят звёздные доноры, городские сумасшедшие и верный друг Джонни. Он только что расстался с Лори и готов к новым авантюрам. Третий здесь совсем не лишний.

    Качество: HDRip [Unrated Cut]Формат: AVIВидео кодек: XvIDАудио кодек: AC3 Видео: XviD, 1759 Кбит/с, 720x304, 23,976 fpsЗвук: AC3, 48 kHz, AC3, 3/2 (L,C,R,l,r) + LFE ch, ~384.00 kbps avg [DUB]Звук: AC3, 48 kHz, AC3, 3/2 (L,C,R,l,r) + LFE ch, ~384.00 kbps avg [ENG]

    Скачать Третий лишний 2 через торрент http://i66.fastpic.ru/big/2015/1118/f2/96dc32c51644f45e4bd545a6904cc2f2.jpg Скачать фильм Третий лишний 2 через торрент бесплантно в хорошем качестве В ролях: Марк Уолберг , Сет МакФарлейн , Аманда Сайфред , Лиам Нисон , Морган Фриман , Патрик Варбертон Плюшевый беспредельщик продолжает ... 2015-11-18 07:52 8.2 10 5

    Loading...

    Loading...

    % Раздел Тема Автор DL S | L
    Фильмы 2015 [DVDrip, WEB-DLRip, HDrip] [ 1.46 GB ] Третий лишний 2 / Ted 2 [2015 BDRip-AVC] Dub potroks Скачать
    Фильмы (HD 720p, 1080p) (48-60 fps) [ 5.89 GB ] Третий лишний 2 / Ted 2 [2015 BDRip 720p / 60 fps Theatrical Cut - ] от R.G. HD-Films Ressident Скачать
    Фильмы 2015 [DVDrip, WEB-DLRip, HDrip] [ 1.46 GB ] Третий лишний 2 / Ted 2 [2015 BDRip] Dub Twi7ter Скачать
    Фильмы с авторской озвучкой [ 1.46 GB ] Третий лишний 2 / Ted 2 [2015 BDRip Авторский [Есарев] Twi7ter Скачать
    Фильмы 2015 [DVDrip, WEB-DLRip, HDrip] [ 1.41 GB ] Третий лишний 2 / Ted 2 [2015 BDRip Twi7ter Скачать
    T Фильмы (Blu-ray, BD-Remux, HDDVD) [ 27.82 GB ] Третий лишний 2 / Ted 2 [2015 BD Remux] [Unrated Cut] ] Ворон Скачать
    T Фильмы [HD 720p, 1080p] (Хороший звук DUB, MVO) [ 8.43 GB ] Третий лишний 2 / Ted 2 [2015 BDRip 1080p ЦККПСС Скачать

    Рекламный пират

    Дорогой пользователь! Огромная просьба, поблагодарите релизера, оцените раздачу и оставьте свои комментарий, если Вы скачали Третий лишний 2 через торрент бесплатно! Внесите свою лепту в развитие PiratBit!

    Комментировать посты могут только пользователи прошедшие не сложную регистрацию

    Третий лишний 2 через торрент Скачать бесплатно Третий лишний 2 Третий лишний 2 скачать торрент Третий лишний 2 смотреть онлайн Cкачать фильм Третий лишний 2 бесплатно Третий лишний 2 скачать торрент в хорошем качестве Третий лишний 2 смотреть онлайн бесплатно в хорошем качестве

    Вы не можете начинать темыВы не можете отвечать на сообщенияВы не можете редактировать свои сообщенияВы не можете удалять свои сообщенияВы не можете голосовать в опросахВы не можете прикреплять файлы к сообщениямВы можете скачивать файлы

    piratbit.ru

    Третий лишний 2 через торрент

    Размер: 1.46 GB | Добавлен: 1 год 11 мес. назад | Торрент скачан:549 раз
    Реклама Дарим 3000 рублей за регистрацию, не упусти свой шанс получить шикарный бонус!!!

    26-11-2015 21:44 Третий лишний 2 Скачать торрент  

    Третий лишний 2 / Ted 2

    «Плюшевый беспредельщик возвращается»

    Год выпуска: 2015Страна: США, Universal PicturesЖанр: комедияПродолжительность: 02:05:50Перевод: Профессиональный (полное дублирование) [iTunes]Субтитры: НетРежиссер: Сет МакФарлейн / Seth MacFarlaneВ ролях: Марк Уолберг (John), Сет МакФарлейн (Ted, озвучка), Аманда Сайфред (Samantha), Джованни Рибизи (Donny), Джон Слэттери (Shep Wild), Морган Фриман (Patrick Meighan), Джессика Барт (Tami-Lynn), Сэм Дж. Джонс (Sam Jones), Патрик Варбертон (Guy), Майкл Дорн (Rick), Билл Смитрович (Frank), Коко Браун (Joy)Описание: Плюшевый беспредельщик продолжает сводить с ума чопорную интеллигенцию. На этот раз говорящий медвежонок с большим эго и его длинноногая блондинка решили завести ребёнка. Там, где не постаралась природа, на помощь приходят звёздные доноры, городские сумасшедшие и верный друг Джонни. Он только что расстался с Лори и готов к новым авантюрам. Третий здесь совсем не лишний.

    MPAA: R - Лицам до 17 лет обязательно присутствие взрослого

    Примечание: * UNRATED версия - длиннее прокатной российской на ~13 минут! Полный перевод! Расширенные сцены - озвучены Д.Есаревым Качество: BDRip | исх. Ted.2.2015.EXTENDED.REMUX.1080p.BluRay.AVC.DTS-HD.MA.5.1 |Формат: AVIВидео кодек: XviDАудио кодек: AC3Видео: 720x304 (2.37:1), 23.976 fps, XviD build 73 ~1270 kbps avg, 0.24 bit/pixelАудио: 48 kHz, AC3 Dolby Digital, 3/2 (L,C,R,l,r) + LFE ch, ~384 kbps

    Релиз: & MegaPeer

    Скачать Третий лишний 2 через торрент http://s019.radikal.ru/i623/1511/0e/edab4d204d91.jpg Скачать фильм Третий лишний 2 через торрент бесплантно в хорошем качестве Описание: Плюшевый беспредельщик продолжает сводить с ума чопорную интеллигенцию. На этот раз говорящий медвежонок с большим эго и его ... 2015-11-26 21:44 8.7 10 7

    Loading...

    Loading...

    % Раздел Тема Автор DL S | L
    Фильмы 2015 [DVDrip, WEB-DLRip, HDrip] [ 1.46 GB ] Третий лишний 2 / Ted 2 [2015 BDRip-AVC] Dub potroks Скачать
    Фильмы (HD 720p, 1080p) (48-60 fps) [ 5.89 GB ] Третий лишний 2 / Ted 2 [2015 BDRip 720p / 60 fps Theatrical Cut - ] от R.G. HD-Films Ressident Скачать
    Фильмы с авторской озвучкой [ 1.46 GB ] Третий лишний 2 / Ted 2 [2015 BDRip Авторский [Есарев] Twi7ter Скачать
    Фильмы 2015 [DVDrip, WEB-DLRip, HDrip] [ 1.41 GB ] Третий лишний 2 / Ted 2 [2015 BDRip Twi7ter Скачать
    T Фильмы (Blu-ray, BD-Remux, HDDVD) [ 27.82 GB ] Третий лишний 2 / Ted 2 [2015 BD Remux] [Unrated Cut] ] Ворон Скачать
    T Фильмы [HD 720p, 1080p] (Хороший звук DUB, MVO) [ 8.43 GB ] Третий лишний 2 / Ted 2 [2015 BDRip 1080p ЦККПСС Скачать
    Фильмы 2015 [DVDrip, WEB-DLRip, HDrip] [ 2.05 GB ] Третий лишний 2 / Ted 2 [2015 HDRip] [Unrated Cut] killermax2013 Скачать

    Рекламный пират

    Дорогой пользователь! Огромная просьба, поблагодарите релизера, оцените раздачу и оставьте свои комментарий, если Вы скачали Третий лишний 2 через торрент бесплатно! Внесите свою лепту в развитие PiratBit!

    Комментировать посты могут только пользователи прошедшие не сложную регистрацию

    Третий лишний 2 через торрент Скачать бесплатно Третий лишний 2 Третий лишний 2 скачать торрент Третий лишний 2 смотреть онлайн Cкачать фильм Третий лишний 2 бесплатно Третий лишний 2 скачать торрент в хорошем качестве Третий лишний 2 смотреть онлайн бесплатно в хорошем качестве

    Вы не можете начинать темыВы не можете отвечать на сообщенияВы не можете редактировать свои сообщенияВы не можете удалять свои сообщенияВы не можете голосовать в опросахВы не можете прикреплять файлы к сообщениямВы можете скачивать файлы

    piratbit.ru

    Третий лишний 2 через торрент

    Размер: 1.41 GB | Добавлен: 1 год 11 мес. назад | Торрент скачан:222 раза
    Реклама Дарим 3000 рублей за регистрацию, не упусти свой шанс получить шикарный бонус!!!

    20-11-2015 10:34 Третий лишний 2 Скачать торрент  

    Третий лишний 2 / Ted 2

    «Плюшевый беспредельщик возвращается»

    Год выпуска: 2015Страна: США, Universal PicturesЖанр: комедияПродолжительность: 01:55:32Перевод: Профессиональный (полное дублирование) [iTunes]Субтитры: НетРежиссер: Сет МакФарлейн / Seth MacFarlaneВ ролях: Марк Уолберг (John), Сет МакФарлейн (Ted, озвучка), Аманда Сайфред (Samantha), Джованни Рибизи (Donny), Джон Слэттери (Shep Wild), Морган Фриман (Patrick Meighan), Джессика Барт (Tami-Lynn), Сэм Дж. Джонс (Sam Jones), Патрик Варбертон (Guy), Майкл Дорн (Rick), Билл Смитрович (Frank), Коко Браун (Joy)Описание: Плюшевый беспредельщик продолжает сводить с ума чопорную интеллигенцию. На этот раз говорящий медвежонок с большим эго и его длинноногая блондинка решили завести ребёнка. Там, где не постаралась природа, на помощь приходят звёздные доноры, городские сумасшедшие и верный друг Джонни. Он только что расстался с Лори и готов к новым авантюрам. Третий здесь совсем не лишний.

    MPAA: R - Лицам до 17 лет обязательно присутствие взрослого

    Примечание: * USA Theatrical версия длиннее российской на ~3 минуты (в российском прокате вырезаны сцены неодобренные цензурой РФ).* Полный перевод! Вырезанные цензурой сцены - озвучены Б.Савченко "Hamsterstudio".Качество: BDRip | исх. Ted.2.2015.1080p.BluRay.AVC.DTS-HD.MA.5.1 |Формат: AVIВидео кодек: XviDАудио кодек: AC3Видео: 720x304 (2.37:1), 23.976 fps, XviD build 73 ~1356 kbps avg, 0.26 bit/pixelАудио: 48 kHz, AC3 Dolby Digital, 3/2 (L,C,R,l,r) + LFE ch, ~384 kbps

    Релиз: & MegaPeer

    Скачать Третий лишний 2 через торрент http://s014.radikal.ru/i326/1511/bc/9b9d8193af4b.jpg Скачать фильм Третий лишний 2 через торрент бесплантно в хорошем качестве Описание: Плюшевый беспредельщик продолжает сводить с ума чопорную интеллигенцию. На этот раз говорящий медвежонок с большим эго и его ... 2015-11-20 22:28 9.8 10 8

    Loading...

    Loading...

    % Раздел Тема Автор DL S | L
    Фильмы 2015 [DVDrip, WEB-DLRip, HDrip] [ 1.46 GB ] Третий лишний 2 / Ted 2 [2015 BDRip-AVC] Dub potroks Скачать
    Фильмы (HD 720p, 1080p) (48-60 fps) [ 5.89 GB ] Третий лишний 2 / Ted 2 [2015 BDRip 720p / 60 fps Theatrical Cut - ] от R.G. HD-Films Ressident Скачать
    Фильмы 2015 [DVDrip, WEB-DLRip, HDrip] [ 1.46 GB ] Третий лишний 2 / Ted 2 [2015 BDRip] Dub Twi7ter Скачать
    Фильмы с авторской озвучкой [ 1.46 GB ] Третий лишний 2 / Ted 2 [2015 BDRip Авторский [Есарев] Twi7ter Скачать
    T Фильмы (Blu-ray, BD-Remux, HDDVD) [ 27.82 GB ] Третий лишний 2 / Ted 2 [2015 BD Remux] [Unrated Cut] ] Ворон Скачать
    T Фильмы [HD 720p, 1080p] (Хороший звук DUB, MVO) [ 8.43 GB ] Третий лишний 2 / Ted 2 [2015 BDRip 1080p ЦККПСС Скачать
    Фильмы 2015 [DVDrip, WEB-DLRip, HDrip] [ 2.05 GB ] Третий лишний 2 / Ted 2 [2015 HDRip] [Unrated Cut] killermax2013 Скачать

    Последний раз редактировалось: Twi7ter (2015-11-20 22:36), всего редактировалось 2 раз(а)

    Рекламный пират

    20-11-2015 14:15 Третий лишний 2 Скачать торрент  

    как фильм ? по сравнению с 1 частью

    20-11-2015 22:37 Третий лишний 2 Скачать торрент  

    перезалито,исправлен рассинхрон!

    Дорогой пользователь! Огромная просьба, поблагодарите релизера, оцените раздачу и оставьте свои комментарий, если Вы скачали Третий лишний 2 через торрент бесплатно! Внесите свою лепту в развитие PiratBit!

    Комментировать посты могут только пользователи прошедшие не сложную регистрацию

    Третий лишний 2 через торрент Скачать бесплатно Третий лишний 2 Третий лишний 2 скачать торрент Третий лишний 2 смотреть онлайн Cкачать фильм Третий лишний 2 бесплатно Третий лишний 2 скачать торрент в хорошем качестве Третий лишний 2 смотреть онлайн бесплатно в хорошем качестве

    Вы не можете начинать темыВы не можете отвечать на сообщенияВы не можете редактировать свои сообщенияВы не можете удалять свои сообщенияВы не можете голосовать в опросахВы не можете прикреплять файлы к сообщениямВы можете скачивать файлы

    piratbit.ru

    Скачать фильм Третий лишний 2 в хорошем качестве бесплатно 1080p

    ОбщееУникальный идентификатор : 204389941520784503608861139316846587267 (0x99C41224941807D193A26C8EF4A36D83)Полное имя : E:\films\MedBed.2.2015.D.BDRip.1080p.mkvФормат : MatroskaВерсия формата : Version 4 / Version 2Размер файла : 8,43 ГбайтПродолжительность : 1 ч. 55 м.Общий поток : 10,4 Мбит/секДата кодирования : UTC 2015-11-17 18:23:49Программа кодирования : mkvmerge v8.3.0 ('Over the Horizon') 64bitБиблиотека кодирования : libebml v1.3.1 + libmatroska v1.4.2DURATION : 01:47:52.257000000NUMBER_OF_FRAMES : 2060NUMBER_OF_BYTES : 72962_STATISTICS_WRITING_APP : mkvmerge v8.3.0 ('Over the Horizon') 64bit_STATISTICS_WRITING_DATE_UTC : 2015-11-17 18:23:49_STATISTICS_TAGS : BPS DURATION NUMBER_OF_FRAMES NUMBER_OF_BYTES

    ВидеоИдентификатор : 1Формат : AVCФормат/Информация : Advanced Video CodecПрофиль формата : [email protected]Параметр CABAC формата : ДаПараметр ReFrames формата : 5 кадровИдентификатор кодека : V_MPEG4/ISO/AVCПродолжительность : 1 ч. 55 м.Битрейт : 8555 Кбит/секШирина : 1920 пикселейВысота : 800 пикселейСоотношение сторон : 2,40:1Режим частоты кадров : ПостоянныйЧастота кадров : 23,976 кадра/секЦветовое пространство : YUVСубдискретизация насыщенности : 4:2:0Битовая глубина : 8 битТип развёртки : ПрогрессивнаяБит/(Пиксели*Кадры) : 0.232Размер потока : 6,74 Гбайт (80%)Библиотека кодирования : x264 core 148 r2638 7599210Настройки программы : cabac=1 / ref=5 / deblock=1:0:0 / analyse=0x3:0x113 / me=umh / subme=8 / psy=1 / psy_rd=1.00:0.00 / mixed_ref=1 / me_range=16 / chroma_me=1 / trellis=1 / 8x8dct=1 / cqm=0 / deadzone=21,11 / fast_pskip=1 / chroma_qp_offset=-2 / threads=18 / lookahead_threads=3 / sliced_threads=0 / nr=0 / decimate=1 / interlaced=0 / bluray_compat=0 / constrained_intra=0 / bframes=3 / b_pyramid=2 / b_adapt=2 / b_bias=0 / direct=3 / weightb=1 / open_gop=0 / weightp=2 / keyint=240 / keyint_min=24 / scenecut=40 / intra_refresh=0 / rc_lookahead=50 / rc=2pass / mbtree=1 / bitrate=8555 / ratetol=1.0 / qcomp=0.60 / qpmin=0 / qpmax=69 / qpstep=4 / cplxblur=20.0 / qblur=0.5 / ip_ratio=1.40 / aq=1:1.00Язык : EnglishDefault : ДаForced : НетDURATION : 01:55:32.301000000NUMBER_OF_FRAMES : 166209NUMBER_OF_BYTES : 7411049003_STATISTICS_WRITING_APP : mkvmerge v8.3.0 ('Over the Horizon') 64bit_STATISTICS_WRITING_DATE_UTC : 2015-11-17 18:23:49_STATISTICS_TAGS : BPS DURATION NUMBER_OF_FRAMES NUMBER_OF_BYTES

    Аудио #1Идентификатор : 2Формат : AC-3Формат/Информация : Audio Coding 3Расширение режима : CM (complete main)Параметр Endianness формата : BigИдентификатор кодека : A_AC3Продолжительность : 1 ч. 55 м.Вид битрейта : ПостоянныйБитрейт : 384 Кбит/секКаналы : 6 каналовРасположение каналов : Front: L C R, Side: L R, LFEЧастота : 48,0 КГцМетод сжатия : С потерямиРазмер потока : 317 Мбайт (4%)Язык : RussianDefault : ДаForced : Нет

    Аудио #2Идентификатор : 3Формат : DTSФормат/Информация : Digital Theater SystemsРежим : 16Параметр Endianness формата : BigИдентификатор кодека : A_DTSПродолжительность : 1 ч. 55 м.Вид битрейта : ПостоянныйБитрейт : 1509 Кбит/секКаналы : 6 каналовРасположение каналов : Front: L C R, Side: L R, LFEЧастота : 48,0 КГцБитовая глубина : 24 битМетод сжатия : С потерямиРазмер потока : 1,22 Гбайт (14%)Заголовок : English DTS 1509kbpsЯзык : EnglishDefault : НетForced : Нет

    ТекстИдентификатор : 4Формат : UTF-8Идентификатор кодека : S_TEXT/UTF8Идентификатор кодека/Информация : UTF-8 Plain TextЗаголовок : EnglishЯзык : EnglishDefault : НетForced : Нет

    Меню00:00:00.000 : en:00:00:00.00000:07:14.559 : en:00:07:14.55900:14:47.512 : en:00:14:47.51200:19:13.861 : en:00:19:13.86100:27:33.443 : en:00:27:33.44300:34:18.098 : en:00:34:18.09800:42:45.146 : en:00:42:45.14600:47:57.875 : en:00:47:57.87500:54:27.681 : en:00:54:27.68100:58:45.564 : en:00:58:45.56401:04:06.551 : en:01:04:06.55101:09:49.394 : en:01:09:49.39401:13:59.935 : en:01:13:59.93501:18:03.220 : en:01:18:03.22001:24:24.768 : en:01:24:24.76801:29:22.732 : en:01:29:22.73201:34:57.483 : en:01:34:57.48301:39:42.435 : en:01:39:42.43501:44:33.476 : en:01:44:33.47601:48:26.750 : en:01:48:26.750

    piratbit.ru


    Смотрите также