Скачать фильм университет монстров через торрент в хорошем качестве


Университет монстров (2013) скачать торрент в хорошем качестве бесплатно

Подробнее Проф. (полное дублирование) 2,18 ГиБ 4 нояб. 2013 г. Файл: universitet.monstrov.2013.dual.bdrip.xvid..torrent Формат: AVIКачество: BDRip (источник: / Blu-ray EUR / 1080p)Видео: 720x400 (1.80:1), 23,976 fps, XviD build 65 ~2091 kbps avg, 0.30 bit/pixelАудио #1: 48 kHz, AC3 Dolby Digital, 3/2 (L,C,R,l,r) + LFE ch, ~448.00 kbps avgАудио #2: 48 kHz, AC3 Dolby Digital, 3/2 (L,C,R,l,r) + LFE ch, ~448.00 kbps avgАудио #3: 48 kHz, AC3 Dolby Digital, 3/2 (L,C,R,l,r) + LFE ch, ~448.00 kbps avg (отдельно) Подробнее Проф. (полное дублирование) 2,06 ГиБ 22 окт. 2013 г. Файл: monsters_university_2013_hdrip.torrent Качество: HDRipВидео: XviD, 1984 Кбит/с, 720x400Аудио: Русский (AC3, 6 ch, 384 Кбит/с), английский (AC3, 6 ch, 448 Кбит/с) Подробнее Проф. (полное дублирование) 1,37 ГиБ 15 окт. 2013 г. Файл: monsters-university-2013-hdrip.torrent Формат: aviКачество: HDRip Видео: 720x400 (1.85:1), 23.976 fps, XviD build 50 ~ 1491 kbps avg, 0.216 bit/pixel Аудио: 48 kHz, AC3 Dolby Digital, 3/2 (L,C,R,l,r) + LFE ch, ~384 kbps avg Подробнее Проф. (многоголосный) 4,64 ГиБ 11 окт. 2013 г. Файл: monsters.university.2013.bluray.720p..torrent Качество: BDRip (720p)Видео: MPEG-4 AVC, 5368 Кбит/с, 1280x720Аудио: Русский (AC3, 6 ch, 384 Кбит/с), английский (AC3, 6 ch, 640 Кбит/с) Подробнее Проф. (многоголосный) 6,81 ГиБ 11 окт. 2013 г. Файл: monsters.university.2013.bluray.1080p..torrent Качество: BDRip (1080p)Видео: MPEG-4 AVC, 8360 Кбит/с, 1920x1080Аудио: Русский (AC3, 6 ch, 384 Кбит/с), английский (AC3, 6 ch, 640 Кбит/с) Подробнее Проф. (многоголосный) 2,05 ГиБ 11 окт. 2013 г. Файл: monsters_university_2013_hdrip.torrent Качество: HDRipВидео: XviD, 720x400, 1986 kb/s, 23.976 fpsАудио:Russian: AC3, 384 kb/s, 6 ch, 48 KHzEnglish: AC3, 448 kb/s, 6 ch, 48 KHz Подробнее Проф. (полное дублирование) [звук из кинотеатра] 1,37 ГиБ 11 окт. 2013 г. Подробнее Проф. (полное дублирование) [звук из кинотеатра] 1,37 ГиБ 8 окт. 2013 г. Подробнее Проф. (полное дублирование) 1,37 ГиБ 15 июл. 2013 г. Подробнее Проф. (полное дублирование) 1,37 ГиБ 24 июн. 2013 г. Подробнее Проф. (полное дублирование) 1,37 ГиБ 22 июн. 2013 г.

zona-film.com

Скачать фильм Университет монстров через торрент в хорошем качестве бесплатно 720p

GeneralUnique ID                                : 250323580245779618254384900885745026978 (0xBC529161C60AF66C88B8C2966F08C7A2)Complete name                            : D:\DVD\Monsters.University.(2013).720p.(60 Fps).mkvFormat                                   : MatroskaFormat version                           : Version 4 / Version 2File size                                : 3.92 GiBDuration                                 : 1h 44mnOverall bit rate                         : 5 380 KbpsMovie name                               : Университет монстров / Monsters University (2013) BDRip 720p от R.G. HD-Films | 60 fpsEncoded date                             : UTC 2015-07-14 04:44:54Writing application                      : mkvmerge v6.2.0 ('Promised Land') built on Apr 28 2013 12:22:01Writing library                          : libebml v1.3.0 + libmatroska v1.4.0

VideoID                                       : 1Format                                   : AVCFormat/Info                              : Advanced Video CodecFormat profile                           : [email protected] settings, CABAC                   : YesFormat settings, ReFrames                : 4 framesCodec ID                                 : V_MPEG4/ISO/AVCDuration                                 : 1h 44mnBit rate                                 : 4 889 KbpsWidth                                    : 1 280 pixelsHeight                                   : 720 pixelsDisplay aspect ratio                     : 16:9Frame rate                               : 60.000 fpsColor space                              : YUVChroma subsampling                       : 4:2:0Bit depth                                : 8 bitsScan type                                : ProgressiveBits/(Pixel*Frame)                       : 0.088Stream size                              : 3.56 GiB (91%)Title                                    : slaventi-69 ( R.G. HD-Films | 60 fps )Writing library                          : x264 core 130 r2273 b3065e6Encoding settings                        : cabac=1 / ref=4 / deblock=1:0:0 / analyse=0x1:0x111 / me=umh / subme=8 / psy=1 / psy_rd=1.00:0.00 / mixed_ref=1 / me_range=16 / chroma_me=1 / trellis=2 / 8x8dct=0 / cqm=0 / deadzone=21,11 / fast_pskip=1 / chroma_qp_offset=-2 / threads=3 / lookahead_threads=1 / sliced_threads=0 / nr=0 / decimate=1 / interlaced=0 / bluray_compat=0 / constrained_intra=0 / bframes=4 / b_pyramid=2 / b_adapt=2 / b_bias=0 / direct=1 / weightb=1 / open_gop=0 / weightp=2 / keyint=250 / keyint_min=25 / scenecut=40 / intra_refresh=0 / rc_lookahead=40 / rc=crf / mbtree=1 / crf=17.0 / qcomp=0.60 / qpmin=0 / qpmax=69 / qpstep=4 / ip_ratio=1.40 / aq=1:1.00Language                                 : EnglishDefault                                  : YesForced                                   : No

AudioID                                       : 2Format                                   : AC-3Format/Info                              : Audio Coding 3Mode extension                           : CM (complete main)Codec ID                                 : A_AC3Duration                                 : 1h 44mnBit rate mode                            : ConstantBit rate                                 : 384 KbpsChannel(s)                               : 6 channelsChannel positions                        : Front: L C R, Side: L R, LFESampling rate                            : 48.0 KHzBit depth                                : 16 bitsCompression mode                         : LossyStream size                              : 286 MiB (7%)Title                                    : DubLanguage                                 : RussianDefault                                  : YesForced                                   : No

TextID                                       : 3Format                                   : UTF-8Codec ID                                 : S_TEXT/UTF8Codec ID/Info                            : UTF-8 Plain TextTitle                                    : FullLanguage                                 : RussianDefault                                  : NoForced                                   : No

Menu00:00:00.000                             : :Field Trip00:06:26.719                             : :Titles00:07:06.884                             : :Freshman Orientation00:10:54.111                             : :Roommates00:12:19.947                             : :First Day00:16:09.968                             : :Not My Room00:18:15.635                             : :Pig Chase00:19:37.592                             : :A Challenge00:21:06.848                             : :1st Semester Showdown00:23:43.630                             : :Kicked Out00:29:22.719                             : :Dream Over00:30:39.462                             : :Mike's Plan00:33:38.099                             : :OK Brothers00:36:30.980                             : :Initiation00:38:19.421                             : :First Morning00:39:22.568                             : :Toxicity Challenge00:45:13.335                             : :My Way00:47:14.831                             : :Keep Quiet00:51:08.148                             : :Party Like Scarers00:55:21.192                             : :Cute-me Kappa00:57:30.321                             : :The Big Leagues01:01:42.239                             : :Teamwork01:04:37.289                             : :A Seed Of Doubt01:07:33.006                             : :Final Competition01:14:11.321                             : :A Betrayal01:18:07.849                             : :Door Breach01:19:25.718                             : :Searching For Mike01:23:53.402                             : :Shut Down01:24:38.656                             : :The Big Scare01:28:00.232                             : :Separate Ways01:32:51.356                             : :Epilogue01:34:24.032                             : :End Credits

piratbit.ru

/ Monsters University ( ) [2013, , BDRip 1080p] []

: 205311720132895016331315754358045184538 (0x9A7599565823E257A15A8D8942DC921A) : D:New folderMonsters.University.2013.1080p.BluRay.DTS.x264-SbR.mkv : Matroska : Version 2 : 11,9 : 1 . 43 . : 16,3 / : Monsters University (2013) - Release for HDBITS by SbR : UTC 2013-10-31 21:15:28 : mkvmerge v6.3.0 (''You can''t stop me!'') built on Jun 28 2013 20:09:41 : libebml v1.3.0 + libmatroska v1.4.0 Attachment : Yes / Yes : 1 : AVC / : Advanced Video Codec : [email protected] CABAC : ReFrames : 4 : V_MPEG4/ISO/AVC : 1 . 43 . : 14,0 / : 1920 : 1080 : 16:9 : : 23,976 / : YUV : 4:2:0 : 8 : /(*) : 0.282 : 9,92 (84%) : Release for HDBITS : x264 core 138 r2359+704+48 3f879a0 tMod [[email protected]:2:0 X86_64] : cabac=1 / ref=4 / deblock=1:-1:-1 / analyse=0x3:0x113 / me=tesa / subme=11 / psy=1 / fade_compensate=0.00 / psy_rd=0.50:0.05 / mixed_ref=1 / me_range=24 / chroma_me=1 / trellis=2 / 8x8dct=1 / cqm=0 / deadzone=21,11 / fast_pskip=0 / chroma_qp_offset=-3 / threads=12 / lookahead_threads=2 / sliced_threads=0 / nr=0 / decimate=1 / interlaced=0 / bluray_compat=0 / constrained_intra=0 / fgo=0 / bframes=7 / b_pyramid=2 / b_adapt=2 / b_bias=0 / direct=3 / weightb=1 / open_gop=0 / weightp=2 / keyint=250 / keyint_min=23 / scenecut=40 / intra_refresh=0 / rc_lookahead=60 / rc=2pass / mbtree=0 / bitrate=14000 / ratetol=1.0 / qcomp=0.70 / qpmin=0:0:0 / qpmax=69:69:69 / qpstep=4 / cplxblur=20.0 / qblur=0.5 / vbv_maxrate=62500 / vbv_bufsize=78125 / nal_hrd=none / ip_ratio=1.40 / pb_ratio=1.30 / aq=1:0.60 / aq-sensitivity=10.00 / aq-factor=1.00:1.00:1.00 / aq2=0 / aq3=0 / zones=5942,5981,b=2/6053,6085,b=2/7116,8072,b=2/19701,23255,b=2/34947,42280,b=2/52433,53411,b=2/53685,55130,b=2/60416,62955,b=2/82725,84431,b=2/84884,84953,b=2/85146,85216,b=2/85274,85380,b=2/85459,85522,b=2/85615,85642,b=2/85783,86160,b=2/86935,88764,b=2/96911,97174,b=2/99989,100191,b=2/100673,100737,b=2/100766,100814,b=2 : English Default : Forced : : BT.709 : BT.709 : BT.709 #1 : 2 : AC-3 / : Audio Coding 3 : CM (complete main) Endianness : Big : A_AC3 : 1 . 43 . : : 640 / : 6 : Front: L C R, Side: L R, LFE : 48,0 : 16 : : 475 (4%) : Russian Default : Forced : #2 : 3 : DTS / : Digital Theater Systems : 16 Endianness : Big : A_DTS : 1 . 43 . : : 1509 / : 6 : Front: L C R, Side: L R, LFE : 48,0 : 24 : : 1,09 (9%) : English Default : Forced : #3 : 4 : AC-3 / : Audio Coding 3 : CM (complete main) Endianness : Big : A_AC3 : 1 . 43 . : : 192 / : 2 : Front: L R : 48,0 : 16 : : 143 (1%) : Commentary by Dan Scanlon, Kori Rae, and Kelsey Mann : English Default : Forced : #1 : 5 : UTF-8 : S_TEXT/UTF8 / : UTF-8 Plain Text : English Default : Forced : #2 : 6 : UTF-8 : S_TEXT/UTF8 / : UTF-8 Plain Text : SDH : English Default : Forced : #3 : 7 : UTF-8 : S_TEXT/UTF8 / : UTF-8 Plain Text : French Default : Forced : #4 : 8 : UTF-8 : S_TEXT/UTF8 / : UTF-8 Plain Text : Spanish Default : Forced : #5 : 9 : UTF-8 : S_TEXT/UTF8 / : UTF-8 Plain Text : Commentary by Dan Scanlon, Kori Rae, Kelsey Mann : English Default : Forced : #6 : 10 : UTF-8 : S_TEXT/UTF8 / : UTF-8 Plain Text : Commentary by Dan Scanlon, Kori Rae, Kelsey Mann - SDH : English Default : Forced : 00:00:00.000 : en:Field Trip 00:06:26.719 : en:Titles 00:07:06.884 : en:Freshman Orientation 00:10:54.111 : en:Roommates 00:12:19.947 : en:First Day 00:16:09.968 : en:Not My Room 00:18:15.635 : en:Pig Chase 00:19:37.592 : en:A Challenge 00:21:06.848 : en:1st Semester Showdown 00:23:43.630 : en:Kicked Out 00:29:22.718 : en:Dream Over 00:30:39.462 : en:Mike''s Plan 00:33:38.098 : en:OK Brothers 00:36:30.979 : en:Initiation 00:38:19.421 : en:First Morning 00:39:22.567 : en:Toxicity Challenge 00:45:13.334 : en:My Way 00:47:14.831 : en:Keep Quiet 00:51:08.147 : en:Party Like Scarers 00:55:21.192 : en:Cute-me Kappa 00:57:30.321 : en:The Big Leagues 01:01:42.239 : en:Teamwork 01:04:37.289 : en:A Seed Of Doubt 01:07:33.006 : en:Final Competition 01:14:11.320 : en:A Betrayal 01:18:07.848 : en:Door Breach 01:19:25.718 : en:Searching For Mike 01:23:53.402 : en:Shut Down 01:24:38.655 : en:The Big Scare 01:28:00.232 : en:Separate Ways 01:32:51.356 : en:Epilogue 01:34:24.032 : en:End Credits

unionpeer.com

Корпорация монстров и Университет монстров через торрент

Размер: 2.91 GB | Добавлен: 3 года 8 мес. назад | Торрент скачан:841 раз
Реклама Дарим 3000 рублей за регистрацию, не упусти свой шанс получить шикарный бонус!!!

13-02-2014 08:41 Корпорация монстров и Университет монстров Скачать торрент  

Корпорация монстров / Monsters, Inc.«We Think They Are Scary, But Really We Scare Them!»

Год выпуска: 2001Страна: СШАЖанр: мультфильм, фэнтези, комедия, приключения, семейныйПродолжительность: 01:32:15Перевод: Профессиональный (Дубляж) [Лицензия]

Режиссер: Пит Доктер, Дэвид Силверман, Ли Анкрич

В ролях: Джон Гудман, Билли Кристал, Мэри Гиббс, Стив Бушеми, Джеймс Коберн, Дженнифер Тилли, Боб Питерсон, Джон Ратценбергер, Фрэнк Оз, Дэниел Герсон

Описание: Склизский гад в сливном бачке, мохнатый зверь, похожий на чудовище из «Аленького цветочка», гигантские мокрицы под кроватью — все они существуют на самом деле. Все, что им нужно — пугать детей, потому что из детских криков они получают электричество.

Полнометражный мультфильм рассказывает о кризисах в мире монстров, их жизни. Но однажды вся мирная жизнь монстров оказывается под угрозой: в их мир попадает ребенок. А с детьми столько хлопот, что они могут довести даже монстров.

Качество: HDRip-AVC (Rip by Demonessa) Исходник: BDRip 1080pФормат: MKVВидео кодек: H.264Аудио кодек: AC3Видео: H.264, 898*486, 23,976 кадр/сек, 1877 Кбит/сек, 0.179 Бит/(Пиксели*Кадры)Аудио: AC3, 384 Кбит/сек, 6 каналов, 48,0 КГц

Код:

x264 [info]: frame I:1287  Avg QP:15.68  size: 81300  PSNR Mean Y:47.38 U:49.64 V:49.68 Avg:48.00 Global:47.55x264 [info]: frame P:37056 Avg QP:19.17  size: 16296  PSNR Mean Y:45.08 U:47.76 V:47.89 Avg:45.79 Global:45.19x264 [info]: frame B:94382 Avg QP:22.25  size:  6247  PSNR Mean Y:44.59 U:47.69 V:47.83 Avg:45.38 Global:44.53x264 [info]: consecutive B-frames:  4.2%  6.0% 17.4% 42.5% 13.2% 12.2%  2.3%  0.8%  0.3%  0.3%  0.7%

Код:

ОбщееУникальный идентификатор         : 191707155675127761211423918749313689688 (0x90397485CFC6D137B52E27FE5A846858)Полное имя                       : G:VideoRip by DemonessaКорпорация и Университет МонстровMonsters, Inc. Rip by Demonessa.mkvФормат                           : MatroskaРазмер файла                     : 1,46 ГбайтПродолжительность                : 1 ч. 32 м.Общий поток                      : 2262 Кбит/секДата кодирования                 : UTC 2014-02-13 08:54:00Программа кодирования            : mkvmerge v6.5.0 ('Isn't she lovely') built on Oct 20 2013 12:50:05Библиотека кодирования           : libebml v1.3.0 + libmatroska v1.4.1

ВидеоИдентификатор                    : 1Формат                           : AVCФормат/Информация                : Advanced Video CodecПрофиль формата                  : [email protected]Параметр CABAC формата           : ДаПараметр ReFrames формата        : 8 кадрыИдентификатор кодека             : V_MPEG4/ISO/AVCПродолжительность                : 1 ч. 32 м.Битрейт                          : 1877 Кбит/секШирина                           : 898 пикс.Высота                           : 486 пикс.Соотношение сторон               : 16:9Частота кадров                   : 23,976 кадр/секЦветовое пространство            : YUVПодвыборка цветности             : 4:2:0Битовая глубина                  : 8 битТип развёртки                    : ПрогрессивнаяБит/(Пиксели*Кадры)              : 0.179Размер потока                    : 1,18 Гбайт (81%)Заголовок                        : Rip by DemonessaБиблиотека кодирования           : x264 core 138 r2358 9e941d1Настройки программы              : cabac=1 / ref=8 / deblock=1:-2:-1 / analyse=0x3:0x113 / me=umh / subme=9 / psy=1 / psy_rd=1.00:0.00 / mixed_ref=1 / me_range=32 / chroma_me=1 / trellis=2 / 8x8dct=1 / cqm=0 / deadzone=21,11 / fast_pskip=1 / chroma_qp_offset=-2 / threads=4 / lookahead_threads=1 / sliced_threads=0 / nr=0 / decimate=1 / interlaced=0 / bluray_compat=0 / constrained_intra=0 / bframes=10 / b_pyramid=2 / b_adapt=2 / b_bias=0 / direct=1 / weightb=1 / open_gop=0 / weightp=2 / keyint=240 / keyint_min=23 / scenecut=40 / intra_refresh=0 / rc_lookahead=40 / rc=2pass / mbtree=1 / bitrate=1877 / ratetol=1.0 / qcomp=0.75 / qpmin=10 / qpmax=51 / qpstep=4 / cplxblur=20.0 / qblur=0.5 / ip_ratio=1.40 / aq=1:1.00Язык                             : English

АудиоИдентификатор                    : 2Формат                           : AC-3Формат/Информация                : Audio Coding 3Расширение режима                : CM (complete main)Идентификатор кодека             : A_AC3Продолжительность                : 1 ч. 32 м.Вид битрейта                     : ПостоянныйБитрейт                          : 384 Кбит/секКанал(ы)                         : 6 канала(ов)Расположение каналов             : Front: L C R, Side: L R, LFEЧастота                          : 48,0 КГцБитовая глубина                  : 16 битМетод сжатия                     : С потерямиРазмер потока                    : 253 Мбайт (17%)Язык                             : Russian

Университет монстров / Monsters University«Самый страшный универ в мире»

Год выпуска: 2013Страна: СШАЖанр: мультфильм, фэнтези, комедия, приключения, семейныйПродолжительность: 01:44:17Перевод: Профессиональный (полное дублирование) [Лицензия]

Режиссер: Дэн Скэнлон

В ролях: Джон Гудман, Билли Кристал, Стив Бушеми, Хелен Миррен, Питер Сон, Джоэль Мюррей, Шон Хейс, Дэйв Фоли, Чарли Дэй, Альфред Молина

Описание: Майк и Салли — самые опытные пугатели в Монстрополисе, но так было далеко не всегда. Когда они встретились впервые, эти монстры терпеть друг друга не могли. «Университет Монстров» — история о том, как наши старые знакомые прошли путь от взаимной неприязни к крепкой дружбе.

Качество: HDRip-AVC (Rip by Demonessa) Исходник: BDRip 1080pФормат: MKVВидео кодек: H.264Аудио кодек: AC3Видео: H.264, 960*540, 23,976 кадр/сек, 1602 Кбит/сек, 0.129 Бит/(Пиксели*Кадры)Аудио: AC3, 384 Кбит/сек, 6 каналов, 48,0 КГц

Дополнительная информация: Локализованный русский видеоряд, пример 1, пример 2, пример 3

Код:

x264 [info]: frame I:1534  Avg QP:15.99  size: 71670  PSNR Mean Y:48.11 U:50.00 V:50.31 Avg:48.67 Global:48.06x264 [info]: frame P:41699 Avg QP:19.41  size: 15753  PSNR Mean Y:45.74 U:47.93 V:48.37 Avg:46.36 Global:45.57x264 [info]: frame B:106801 Avg QP:21.51  size:  4550  PSNR Mean Y:45.58 U:48.00 V:48.51 Avg:46.25 Global:45.35x264 [info]: consecutive B-frames:  6.2%  4.9% 15.6% 28.3% 16.1% 23.9%  3.8%  0.8%  0.4%

Код:

ОбщееУникальный идентификатор         : 176553332936457469663508201787292721460 (0x84D2EF60A40186ACB65247E645E92134)Полное имя                       : G:VideoRip by DemonessaКорпорация и Университет МонстровMonsters University Rip by Demonessa.mkvФормат                           : MatroskaРазмер файла                     : 1,45 ГбайтПродолжительность                : 1 ч. 44 м.Общий поток                      : 1987 Кбит/секДата кодирования                 : UTC 2014-02-10 13:36:48Программа кодирования            : mkvmerge v6.5.0 ('Isn't she lovely') built on Oct 20 2013 12:50:05Библиотека кодирования           : libebml v1.3.0 + libmatroska v1.4.1

ВидеоИдентификатор                    : 1Формат                           : AVCФормат/Информация                : Advanced Video CodecПрофиль формата                  : [email protected]Параметр CABAC формата           : ДаПараметр ReFrames формата        : 8 кадрыПараметры GOP формата            : N=1Идентификатор кодека             : V_MPEG4/ISO/AVCПродолжительность                : 1 ч. 44 м.Битрейт                          : 1602 Кбит/секШирина                           : 960 пикс.Высота                           : 540 пикс.Соотношение сторон               : 16:9Частота кадров                   : 23,976 кадр/секЦветовое пространство            : YUVПодвыборка цветности             : 4:2:0Битовая глубина                  : 8 битТип развёртки                    : ПрогрессивнаяБит/(Пиксели*Кадры)              : 0.129Размер потока                    : 1,14 Гбайт (79%)Заголовок                        : Rip by DemonessaБиблиотека кодирования           : x264 core 138 r2358 9e941d1Настройки программы              : cabac=1 / ref=8 / deblock=1:-2:-1 / analyse=0x3:0x113 / me=umh / subme=9 / psy=1 / psy_rd=1.00:0.00 / mixed_ref=1 / me_range=32 / chroma_me=1 / trellis=2 / 8x8dct=1 / cqm=0 / deadzone=21,11 / fast_pskip=1 / chroma_qp_offset=-2 / threads=4 / lookahead_threads=1 / sliced_threads=0 / nr=0 / decimate=1 / interlaced=0 / bluray_compat=0 / constrained_intra=0 / bframes=8 / b_pyramid=2 / b_adapt=2 / b_bias=0 / direct=1 / weightb=1 / open_gop=0 / weightp=2 / keyint=240 / keyint_min=23 / scenecut=40 / intra_refresh=0 / rc_lookahead=40 / rc=2pass / mbtree=1 / bitrate=1602 / ratetol=1.0 / qcomp=0.75 / qpmin=10 / qpmax=51 / qpstep=4 / cplxblur=20.0 / qblur=0.5 / ip_ratio=1.40 / aq=1:1.00Язык                             : English

АудиоИдентификатор                    : 2Формат                           : AC-3Формат/Информация                : Audio Coding 3Расширение режима                : CM (complete main)Идентификатор кодека             : A_AC3Продолжительность                : 1 ч. 44 м.Вид битрейта                     : ПостоянныйБитрейт                          : 384 Кбит/секКанал(ы)                         : 6 канала(ов)Расположение каналов             : Front: L C R, Side: L R, LFEЧастота                          : 48,0 КГцБитовая глубина                  : 16 битМетод сжатия                     : С потерямиРазмер потока                    : 286 Мбайт (19%)Язык                             : Russian

Скачать Корпорация монстров и Университет монстров через торрент http://pic.pb.wtf/images/6/8piys.jpg Скачать фильм Корпорация монстров и Университет монстров через торрент бесплантно в хорошем качестве Описание: Склизский гад в сливном бачке, мохнатый зверь, похожий на чудовище из «Аленького цветочка», гигантские мокрицы под кроватью — все ... 2014-02-13 08:41 9.8 10 30

Loading...

Loading...

Рекламный пират

Дорогой пользователь! Огромная просьба, поблагодарите релизера, оцените раздачу и оставьте свои комментарий, если Вы скачали Корпорация монстров и Университет монстров через торрент бесплатно! Внесите свою лепту в развитие PiratBit!

Комментировать посты могут только пользователи прошедшие не сложную регистрацию

Корпорация монстров и Университет монстров через торрент Скачать бесплатно Корпорация монстров и Университет монстров Корпорация монстров и Университет монстров скачать торрент Корпорация монстров и Университет монстров смотреть онлайн Cкачать фильм Корпорация монстров и Университет монстров бесплатно Корпорация монстров и Университет монстров скачать торрент в хорошем качестве Корпорация монстров и Университет монстров смотреть онлайн бесплатно в хорошем качестве

Вы не можете начинать темыВы не можете отвечать на сообщенияВы не можете редактировать свои сообщенияВы не можете удалять свои сообщенияВы не можете голосовать в опросахВы не можете прикреплять файлы к сообщениямВы можете скачивать файлы

piratbit.ru


Смотрите также