Скачать фильм в хорошем качестве эволюция борна через торрент


Скачать Эволюция Борна через торрент

Категория: Фильмы 2620 0 Торрент добавлен: 15-04-2015 Рейтинг:

Жанр: Боевик, триллер, детектив, приключения Производство: СШАПродолжительность: 02:15:02 Режиссер: Тони Гилрой В ролях: Джереми Реннер, Рейчел Вайс, Эдвард Нортон, Джоан Аллен, Альберт Финни, Скотт Гленн, Стейси Кич, Донна Мерфи, Майкл Чернус, Кори Столл

Прекрасный экшен не оставит равнодушным любителей острого жанра. Вся жизнь – игровое поле. А на поле должны, по правилам жанра, располагаться фигуры: значимые и второстепенные. А если их две, и обе главные, влияющие на ход событий? Тогда получается интеллектуальный взрыв активных событий. Одна из таких фигур – Джейсон Борн, а другая – Аарон Кросс, совершенный агент. Возможности у них безграничны, однако, любое оружие способно на осечку, что приведет к неизбежному.

Трейлер к фильму Эволюция Борна

Эволюция Борна скачать торрент

Формат: MKVВидео кодек: H.26xАудио кодек: AC3Видео: MPEG-4 AVC, 28477 Кбит/с, 1920x1080 Аудио: Аудио1: Русский (AC3, 6 ch, 384 Кбит/c), 29,31 Gb

скачать

Качество: BDRip-AVC | исх. The.Bourne.Legacy.2012.1080p.Blu-Ray.REMUX.AVC.DTS-HD.MA.5.1-HDChina Видео: x.264 / 1032 x 430 / 2.40:1 / 2638 kbps / 23,976 fps Звук: Русский / AC3 Dolby Digital / 48 KHz / 384 kbps / 3/2 (L,C,R,l,r) + LFE ch

2,85 Gb

скачать

Формат: AVIВидео кодек: XviDАудио кодек: AC3Видео: 1151 kb/s, 720x304 Аудио: 384 kb/s (6 ch) Проф. (полное дублирование)

скачать

Вы находитесь на странице, где можете совершенно бесплатно скачать фильм Эволюция Борна в хорошем качестве через торрент, в любом формате, который больше всего вам на данный момент подходит. Скачивание осуществляется через торрент, что означает максимально высокую скорость загрузки. Желаем Вам приятного просмотра!. Не забудь поделиться своими впечатлениями после того как посмотришь фильм Эволюция Борна.

Информация Посетители, находящиеся в группе Гости, не могут оставлять комментарии к данной публикации.

psp-gu.ru

Скачать фильм Эволюция Борна [Расширенная версия] через торрент в хорошем качестве бесплатно HDRip

Размер: 2.07 GB | Добавлен: 4 года 9 мес. назад | Торрент скачан:1424 раза
Реклама Дарим 3000 рублей за регистрацию, не упусти свой шанс получить шикарный бонус!!!

31-12-2012 18:53 Эволюция Борна Скачать торрент  

Эволюция Борна [Расширенная версия] / The Bourne Legacy [EXTENDED]

Год выпуска: 2012Страна: СШАЖанр: боевик, триллер, детектив, приключенияПродолжительность: 02:21:29Перевод: Любительский одноголосый [zamez]

Режиссер: Тони ГилройПродюссер: Патрик Краули, Фрэнк Маршалл, Бен СмитСценарий: Тони Гилрой, Дэн Гилрой, Роберт Ладлэм

Мировой рейтинг IMDB 6.70 (77 148)

В ролях: Джереми Реннер, Рейчел Вайс, Эдвард Нортон, Джоан Аллен, Альберт Финни, Скотт Гленн, Стейси Кич, Донна Мерфи, Майкл Чернус, Кори Столл, Илья Исаев, Наталья Фищук, Илья Бледный, Александр Новиков, Тимофей Спивак

Описание: В игре всегда несколько фигур. Одна из них — Джейсон Борн, другая — совершенный агент Аарон Кросс. Их возможности безграничны. Но даже у идеального оружия бывают сбои...

Доп. информация: Фильм длиннее на 6 минут 27 секунд. В России Расширенная версия не выходила!

Качество: HDRipФормат: AVIВидео кодек: XviDАудио кодек: AC3Видео: 720x304 (2.37:1), 23.976 fps, XviD build 47 ~1706 kbps avg, 0.33 bit/pixelАудио: 48 kHz, AC3 Dolby Digital, 3/2 (L,C,R,l,r) + LFE ch, ~384 kbps

GeneralComplete name : D:The.Bourne.Legacy.[EXTENDED].2012.HDRip.zamez.aviFormat : AVIFormat/Info : Audio Video InterleaveFormat profile : OpenDMLFile size : 2.07 GiBDuration : 2h 21mnOverall bit rate : 2 097 KbpsWriting application : VirtualDubMod 1.5.10.2 (build 2540/release)Writing library : VirtualDubMod build 2540/release

VideoID : 0Format : MPEG-4 VisualFormat profile : Advanced [email protected] settings, BVOP : 3Format settings, QPel : NoFormat settings, GMC : No warppointsFormat settings, Matrix : Default (H.263)Codec ID : XVIDCodec ID/Hint : XviDDuration : 2h 21mnBit rate : 1 701 KbpsWidth : 720 pixelsHeight : 304 pixelsDisplay aspect ratio : 2.35:1Frame rate : 23.976 fpsColor space : YUVChroma subsampling : 4:2:0Bit depth : 8 bitsScan type : ProgressiveCompression mode : LossyBits/(Pixel*Frame) : 0.324Stream size : 1.68 GiB (81%)Writing library : XviD 1.2.0.dev47 (UTC 2006-11-01)

AudioID : 1Format : AC-3Format/Info : Audio Coding 3Mode extension : CM (complete main)Format settings, Endianness : BigCodec ID : 2000Duration : 2h 21mnBit rate mode : ConstantBit rate : 384 KbpsChannel(s) : 6 channelsChannel positions : Front: L C R, Side: L R, LFESampling rate : 48.0 KHzBit depth : 16 bitsCompression mode : LossyStream size : 389 MiB (18%)Alignment : Split accross interleavesInterleave, duration : 42 ms (1.00 video frame)Interleave, preload duration : 500 ms

Эволюция Борна скачать торрент

Скачать Эволюция Борна через торрент http://s002.youpic.su/pictures/1356901200/9d92b2504ea7b0bfc7fcd3bc78247c9b.jpg Скачать фильм Эволюция Борна [Расширенная версия] через торрент бесплантно в хорошем качестве Описание: В игре всегда несколько фигур. Одна из них — Джейсон Борн, другая — совершенный агент Аарон Кросс. Их возможности безграничны. Но ... 2012-12-31 18:53 10 10 6

Loading...

Loading...

Рекламный пират

06-01-2013 02:43 Эволюция Борна Скачать торрент  

кто смотрел эти 6 мин стоит из за них качать ?

06-01-2013 15:53 Эволюция Борна Скачать торрент  

Смотрел в кинотеатре давно. Пересмотрел данную версию - хороший интересный фильм. С показанным в кинотеатре немного отличается.

Дорогой пользователь! Огромная просьба, поблагодарите релизера, оцените раздачу и оставьте свои комментарий, если Вы скачали Эволюция Борна через торрент бесплатно! Внесите свою лепту в развитие PiratBit!

Комментировать посты могут только пользователи прошедшие не сложную регистрацию

Эволюция Борна через торрент Скачать бесплатно Эволюция Борна Эволюция Борна скачать торрент Эволюция Борна смотреть онлайн Cкачать фильм Эволюция Борна бесплатно Эволюция Борна скачать торрент в хорошем качестве Эволюция Борна смотреть онлайн бесплатно в хорошем качестве

Вы не можете начинать темыВы не можете отвечать на сообщенияВы не можете редактировать свои сообщенияВы не можете удалять свои сообщенияВы не можете голосовать в опросахВы не можете прикреплять файлы к сообщениямВы можете скачивать файлы

piratbit.ru

Скачать фильм Эволюция Борна через торрент в хорошем качестве бесплатно 720

ОбщееУникальный идентификатор : 213473763973896881438861862945138010750 (0xA0998D2B07B87947AE6FDF43D3BDEA7E)Полное имя : D:DVDThe.Bourne.Legacy.2012.720p.BluRay.x264.SPARKS.mkvФормат : MatroskaВерсия формата : Version 2Размер файла : 4,76 ГбайтПродолжительность : 2 ч. 15 м.Общий поток : 5044 Кбит/секНазвание фильма : The.Bourne.Legacy.2012.720p.BluRay.x264.SPARKSДата кодирования : UTC 2012-12-05 03:54:55Программа кодирования : mkvmerge v4.0.0 ('The Stars were mine') сборка от Jun 6 2010 16:18:42Библиотека кодирования : libebml v1.0.0 + libmatroska v1.0.0

ВидеоИдентификатор : 1Формат : AVCФормат/Информация : Advanced Video CodecПрофиль формата : [email protected]Параметр CABAC формата : ДаПараметр ReFrames формата : 5 кадровИдентификатор кодека : V_MPEG4/ISO/AVCПродолжительность : 2 ч. 15 м.Битрейт : 4283 Кбит/секШирина : 1280 пикселейВысота : 536 пикселейСоотношение сторон : 2,40:1Режим частоты кадров : ПостоянныйЧастота кадров : 23,976 кадра/секЦветовое пространство : YUVСубдискретизация насыщенности : 4:2:0Битовая глубина : 8 битТип развёртки : ПрогрессивнаяБит/(Пиксели*Кадры) : 0.260Размер потока : 3,94 Гбайт (83%)Заголовок : The.Bourne.Legacy.2012.720p.BluRay.x264.SPARKSБиблиотека кодирования : x264 core 129 r2230 1cffe9fНастройки программы : cabac=1 / ref=5 / deblock=1:0:0 / analyse=0x3:0x133 / me=umh / subme=7 / psy=1 / psy_rd=1.00:0.00 / mixed_ref=1 / me_range=16 / chroma_me=1 / trellis=1 / 8x8dct=1 / cqm=0 / deadzone=21,11 / fast_pskip=0 / chroma_qp_offset=-2 / threads=12 / lookahead_threads=2 / sliced_threads=0 / nr=0 / decimate=1 / interlaced=0 / bluray_compat=0 / constrained_intra=0 / bframes=3 / b_pyramid=2 / b_adapt=1 / b_bias=0 / direct=1 / weightb=1 / open_gop=0 / weightp=2 / keyint=250 / keyint_min=23 / scenecut=40 / intra_refresh=0 / rc_lookahead=40 / rc=2pass / mbtree=1 / bitrate=4283 / ratetol=1.0 / qcomp=0.60 / qpmin=0 / qpmax=69 / qpstep=4 / cplxblur=20.0 / qblur=0.5 / ip_ratio=1.40 / aq=1:1.00Язык : EnglishDefault : ДаForced : Нет

Аудио #1Идентификатор : 2Формат : AC-3Формат/Информация : Audio Coding 3Расширение режима : CM (complete main)Параметр Endianness формата : BigИдентификатор кодека : A_AC3Продолжительность : 2 ч. 15 м.Вид битрейта : ПостоянныйБитрейт : 384 Кбит/секКаналы : 6 каналовРасположение каналов : Front: L C R, Side: L R, LFEЧастота : 48,0 КГцБитовая глубина : 16 битМетод сжатия : С потерямиРазмер потока : 371 Мбайт (8%)Заголовок : DUBЯзык : RussianDefault : ДаForced : Да

Аудио #2Идентификатор : 3Формат : AC-3Формат/Информация : Audio Coding 3Расширение режима : CM (complete main)Параметр Endianness формата : BigИдентификатор кодека : A_AC3Продолжительность : 2 ч. 15 м.Вид битрейта : ПостоянныйБитрейт : 384 Кбит/секКаналы : 6 каналовРасположение каналов : Front: L C R, Side: L R, LFEЧастота : 48,0 КГцБитовая глубина : 16 битМетод сжатия : С потерямиРазмер потока : 371 Мбайт (8%)Язык : EnglishDefault : НетForced : Нет

Текст #1Идентификатор : 4Формат : UTF-8Идентификатор кодека : S_TEXT/UTF8Идентификатор кодека/Информация : UTF-8 Plain TextЯзык : EnglishDefault : ДаForced : Нет

Текст #2Идентификатор : 5Формат : UTF-8Идентификатор кодека : S_TEXT/UTF8Идентификатор кодека/Информация : UTF-8 Plain TextЗаголовок : RomanianЯзык : RomanianDefault : НетForced : Нет

Меню00:00:00.000 : en:00:00:00.00000:08:43.690 : en:00:08:43.69000:14:26.616 : en:00:14:26.61600:19:57.488 : en:00:19:57.48800:27:53.297 : en:00:27:53.29700:34:18.265 : en:00:34:18.26500:42:52.403 : en:00:42:52.40300:47:57.374 : en:00:47:57.37400:53:56.066 : en:00:53:56.06601:00:29.167 : en:01:00:29.16701:07:36.636 : en:01:07:36.63601:14:36.972 : en:01:14:36.97201:22:39.204 : en:01:22:39.20401:28:37.687 : en:01:28:37.68701:36:39.043 : en:01:36:39.04301:41:05.685 : en:01:41:05.68501:45:07.968 : en:01:45:07.96801:52:15.520 : en:01:52:15.52002:00:07.283 : en:02:00:07.28302:05:06.416 : en:02:05:06.416

piratbit.ru

Скачать фильм Эволюция Борна через торрент в хорошем качестве бесплатно BDRip-AVC] DUB + Sub (eng.

GeneralUnique ID : 234962872402152013483954899436481079493 (0xB0C4340376BEFBCF97ABF6D57378E8C5)Complete name : Evolucyja.Borna.2012.D.BDRip.x264.potroks.mkvFormat : MatroskaFormat version : Version 2File size : 2.13 GiBDuration : 2h 15mnOverall bit rate : 2 257 KbpsMovie name : -=POTROKS=-Encoded date : UTC 2012-12-04 15:35:44Writing application : mkvmerge v5.7.0 ('The Whirlwind') built on Jul 8 2012 20:08:51Writing library : libebml v1.2.3 + libmatroska v1.3.0

VideoID : 1Format : AVCFormat/Info : Advanced Video CodecFormat profile : [email protected] settings, CABAC : YesFormat settings, ReFrames : 10 framesCodec ID : V_MPEG4/ISO/AVCDuration : 2h 15mnBit rate : 1 874 KbpsWidth : 960 pixelsHeight : 400 pixelsDisplay aspect ratio : 2.40:1Frame rate mode : ConstantFrame rate : 23.976 fpsColor space : YUVChroma subsampling : 4:2:0Bit depth : 8 bitsScan type : ProgressiveBits/(Pixel*Frame) : 0.204Stream size : 1.72 GiB (81%)Title : Эволюция БорнаWriting library : x264 core 125 r2208 d9d2288Encoding settings : cabac=1 / ref=10 / deblock=1:-3:-2 / analyse=0x3:0x133 / me=umh / subme=9 / psy=1 / psy_rd=1.05:0.00 / mixed_ref=1 / me_range=48 / chroma_me=0 / trellis=2 / 8x8dct=1 / cqm=0 / deadzone=21,11 / fast_pskip=1 / chroma_qp_offset=-2 / threads=6 / lookahead_threads=1 / sliced_threads=0 / nr=0 / decimate=1 / interlaced=0 / bluray_compat=0 / constrained_intra=0 / bframes=11 / b_pyramid=2 / b_adapt=2 / b_bias=0 / direct=3 / weightb=1 / open_gop=0 / weightp=2 / keyint=240 / keyint_min=23 / scenecut=40 / intra_refresh=0 / rc_lookahead=240 / rc=2pass / mbtree=1 / bitrate=1874 / ratetol=1.0 / qcomp=0.75 / qpmin=0 / qpmax=65 / qpstep=3 / cplxblur=20.0 / qblur=0.5 / vbv_maxrate=20000 / vbv_bufsize=20000 / nal_hrd=none / ip_ratio=1.35 / aq=1:0.80Language : EnglishDefault : YesForced : No

AudioID : 2Format : AC-3Format/Info : Audio Coding 3Mode extension : CM (complete main)Format settings, Endianness : BigCodec ID : A_AC3Duration : 2h 15mnBit rate mode : ConstantBit rate : 384 KbpsChannel(s) : 6 channelsChannel positions : Front: L C R, Side: L R, LFESampling rate : 48.0 KHzBit depth : 16 bitsCompression mode : LossyStream size : 371 MiB (17%)Title : [email protected] | DD 5.1 @ 384 kbpsLanguage : RussianDefault : YesForced : No

Text #1ID : 3Format : UTF-8Codec ID : S_TEXT/UTF8Codec ID/Info : UTF-8 Plain TextLanguage : EnglishDefault : NoForced : No

Text #2ID : 4Format : UTF-8Codec ID : S_TEXT/UTF8Codec ID/Info : UTF-8 Plain TextTitle : GoblinLanguage : RussianDefault : NoForced : No

Menu00:00:00.000 : en:00:00:00.00000:08:43.690 : en:00:08:43.69000:14:26.616 : en:00:14:26.61600:19:57.488 : en:00:19:57.48800:27:53.297 : en:00:27:53.29700:34:18.265 : en:00:34:18.26500:42:52.403 : en:00:42:52.40300:47:57.374 : en:00:47:57.37400:53:56.066 : en:00:53:56.06601:00:29.167 : en:01:00:29.16701:07:36.636 : en:01:07:36.63601:14:36.972 : en:01:14:36.97201:22:39.204 : en:01:22:39.20401:28:37.687 : en:01:28:37.68701:36:39.043 : en:01:36:39.04301:41:05.685 : en:01:41:05.68501:45:07.968 : en:01:45:07.96801:52:15.520 : en:01:52:15.52002:00:07.283 : en:02:00:07.28302:05:06.416 : en:02:05:06.416

piratbit.ru

Скачать фильм Эволюция Борна через торрент в хорошем качестве бесплатно 1080p by msltel] DUB

ОбщееУникальный идентификатор : 212070291481609665301499896391773577321 (0x9F8B40A1BD190288952AB8586F5DE069)Полное имя : D:\Video\Эволюция Борна.2012.BDRip.1080p.mkvФормат : MatroskaВерсия формата : Version 4 / Version 2Размер файла : 20,3 ГбайтПродолжительность : 2 ч. 15 м.Общий поток : 21,5 Мбит/секДата кодирования : UTC 2015-12-09 10:06:48Программа кодирования : mkvmerge v8.2.0 ('World of Adventure') 64bitБиблиотека кодирования : libebml v1.3.1 + libmatroska v1.4.2DURATION : 02:15:02.304000000NUMBER_OF_FRAMES : 759591NUMBER_OF_BYTES : 1528298680_STATISTICS_WRITING_APP : mkvmerge v8.2.0 ('World of Adventure') 64bit_STATISTICS_WRITING_DATE_UTC : 2015-12-09 10:06:48_STATISTICS_TAGS : BPS DURATION NUMBER_OF_FRAMES NUMBER_OF_BYTES

ВидеоИдентификатор : 1Формат : AVCФормат/Информация : Advanced Video CodecПрофиль формата : [email protected]Параметр CABAC формата : ДаПараметр ReFrames формата : 4 кадраИдентификатор кодека : V_MPEG4/ISO/AVCПродолжительность : 2 ч. 15 м.Битрейт : 12,8 Мбит/секШирина : 1920 пикселейВысота : 800 пикселейСоотношение сторон : 2,40:1Режим частоты кадров : ПостоянныйЧастота кадров : 23,976 кадра/секЦветовое пространство : YUVСубдискретизация насыщенности : 4:2:0Битовая глубина : 8 битТип развёртки : ПрогрессивнаяБит/(Пиксели*Кадры) : 0.347Размер потока : 12,1 Гбайт (59%)Заголовок : BDRip by STarankovБиблиотека кодирования : x264 core 146 r2538 121396cНастройки программы : cabac=1 / ref=4 / deblock=1:-1:-1 / analyse=0x3:0x113 / me=umh / subme=10 / psy=1 / psy_rd=1.00:0.15 / mixed_ref=1 / me_range=32 / chroma_me=1 / trellis=2 / 8x8dct=1 / cqm=0 / deadzone=21,11 / fast_pskip=1 / chroma_qp_offset=-3 / threads=6 / lookahead_threads=1 / sliced_threads=0 / nr=0 / decimate=1 / interlaced=0 / bluray_compat=0 / constrained_intra=0 / bframes=9 / b_pyramid=2 / b_adapt=2 / b_bias=0 / direct=1 / weightb=1 / open_gop=0 / weightp=2 / keyint=230 / keyint_min=23 / scenecut=40 / intra_refresh=0 / rc_lookahead=40 / rc=crf / mbtree=0 / crf=20.3 / qcomp=0.60 / qpmin=0 / qpmax=69 / qpstep=4 / vbv_maxrate=40000 / vbv_bufsize=50000 / crf_max=0.0 / nal_hrd=none / filler=0 / ip_ratio=1.40 / pb_ratio=1.30 / aq=1:1.00Язык : EnglishDefault : ДаForced : НетDURATION : 02:14:54.962000000NUMBER_OF_FRAMES : 194085NUMBER_OF_BYTES : 13367473066_STATISTICS_WRITING_APP : mkvmerge v8.2.0 ('World of Adventure') 64bit_STATISTICS_WRITING_DATE_UTC : 2015-12-09 10:06:48_STATISTICS_TAGS : BPS DURATION NUMBER_OF_FRAMES NUMBER_OF_BYTES

Аудио #1Идентификатор : 2Формат : DTSФормат/Информация : Digital Theater SystemsРежим : 16Параметр Endianness формата : BigИдентификатор кодека : A_DTSПродолжительность : 2 ч. 15 м.Вид битрейта : ПостоянныйБитрейт : 768 Кбит/секКаналы : 6 каналовРасположение каналов : Front: L C R, Side: L R, LFEЧастота : 48,0 КГцБитовая глубина : 24 битМетод сжатия : С потерямиРазмер потока : 742 Мбайт (4%)Заголовок : DUB (BD CEE)Язык : RussianDefault : ДаForced : Нет

Аудио #2Идентификатор : 3Формат : DTSФормат/Информация : Digital Theater SystemsРежим : 16Параметр Endianness формата : BigИдентификатор кодека : A_DTSПродолжительность : 2 ч. 15 м.Вид битрейта : ПостоянныйБитрейт : 1509 Кбит/секКаналы : 6 каналовРасположение каналов : Front: L C R, Side: L R, LFEЧастота : 48,0 КГцБитовая глубина : 24 битМетод сжатия : С потерямиРазмер потока : 1,42 Гбайт (7%)Заголовок : AVO (Леонид Володарский)Язык : RussianDefault : НетForced : Нет

Аудио #3Идентификатор : 4Формат : DTSФормат/Информация : Digital Theater SystemsРежим : 16Параметр Endianness формата : BigИдентификатор кодека : A_DTSПродолжительность : 2 ч. 15 м.Вид битрейта : ПостоянныйБитрейт : 1509 Кбит/секКаналы : 6 каналовРасположение каналов : Front: L C R, Side: L R, LFEЧастота : 48,0 КГцБитовая глубина : 24 битМетод сжатия : С потерямиРазмер потока : 1,42 Гбайт (7%)Заголовок : AVO (Александр Дасевич)Язык : RussianDefault : НетForced : Нет

Аудио #4Идентификатор : 5Формат : DTSФормат/Информация : Digital Theater SystemsРежим : 16Параметр Endianness формата : BigИдентификатор кодека : A_DTSПродолжительность : 2 ч. 15 м.Вид битрейта : ПостоянныйБитрейт : 1509 Кбит/секКаналы : 6 каналовРасположение каналов : Front: L C R, Side: L R, LFEЧастота : 48,0 КГцБитовая глубина : 24 битМетод сжатия : С потерямиРазмер потока : 1,42 Гбайт (7%)Заголовок : AVO (Юрий Живов)Язык : RussianDefault : НетForced : Нет

Аудио #5Идентификатор : 6Формат : DTSФормат/Информация : Digital Theater SystemsРежим : 16Параметр Endianness формата : BigИдентификатор кодека : A_DTSПродолжительность : 2 ч. 15 м.Вид битрейта : ПостоянныйБитрейт : 1509 Кбит/секКаналы : 6 каналовРасположение каналов : Front: L C R, Side: L R, LFEЧастота : 48,0 КГцБитовая глубина : 24 битМетод сжатия : С потерямиРазмер потока : 1,42 Гбайт (7%)Заголовок : любительский одноголосый, Антон Киреев по переводу Дмитрия ПучковаЯзык : RussianDefault : НетForced : Нет

Аудио #6Идентификатор : 7Формат : DTSФормат/Информация : Digital Theater SystemsРежим : 16Параметр Endianness формата : BigИдентификатор кодека : A_DTSПродолжительность : 2 ч. 15 м.Вид битрейта : ПостоянныйБитрейт : 1509 Кбит/секКаналы : 6 каналовРасположение каналов : Front: L C R, Side: L R, LFEЧастота : 48,0 КГцБитовая глубина : 24 битМетод сжатия : С потерямиРазмер потока : 1,42 Гбайт (7%)Заголовок : OriginalЯзык : EnglishDefault : НетForced : Нет

Текст #1Идентификатор : 8Формат : UTF-8Идентификатор кодека : S_TEXT/UTF8Идентификатор кодека/Информация : UTF-8 Plain TextЗаголовок : русский (форсированные)Язык : RussianDefault : ДаForced : Да

Текст #2Идентификатор : 9Формат : UTF-8Идентификатор кодека : S_TEXT/UTF8Идентификатор кодека/Информация : UTF-8 Plain TextЗаголовок : русскийЯзык : RussianDefault : НетForced : Нет

Текст #3Идентификатор : 10Формат : UTF-8Идентификатор кодека : S_TEXT/UTF8Идентификатор кодека/Информация : UTF-8 Plain TextЗаголовок : английскийDefault : НетForced : Нет

piratbit.ru

Скачать фильм Эволюция Борна через торрент в хорошем качестве бесплатно BDRip AVC by msltel] DUB

ОбщееУникальный идентификатор : 252760582088204576449404849322244059466 (0xBE27EAD971D4E583A548DCE7524E314A)Полное имя : D:\Video\Эволюция Борна.2012.BDRip.AVC.mkvФормат : MatroskaВерсия формата : Version 4 / Version 2Размер файла : 4,57 ГбайтПродолжительность : 2 ч. 15 м.Общий поток : 4850 Кбит/секДата кодирования : UTC 2015-12-08 16:10:54Программа кодирования : mkvmerge v8.2.0 ('World of Adventure') 64bitБиблиотека кодирования : libebml v1.3.1 + libmatroska v1.4.2DURATION : 02:02:55.462000000NUMBER_OF_FRAMES : 1460NUMBER_OF_BYTES : 50257_STATISTICS_WRITING_APP : mkvmerge v8.2.0 ('World of Adventure') 64bit_STATISTICS_WRITING_DATE_UTC : 2015-12-08 16:10:54_STATISTICS_TAGS : BPS DURATION NUMBER_OF_FRAMES NUMBER_OF_BYTES

ВидеоИдентификатор : 1Формат : AVCФормат/Информация : Advanced Video CodecПрофиль формата : [email protected]Параметр CABAC формата : ДаПараметр ReFrames формата : 9 кадровИдентификатор кодека : V_MPEG4/ISO/AVCПродолжительность : 2 ч. 15 м.Битрейт : 2066 Кбит/секШирина : 1024 пикселяВысота : 426 пикселейСоотношение сторон : 2,40:1Режим частоты кадров : ПостоянныйЧастота кадров : 23,976 кадра/секЦветовое пространство : YUVСубдискретизация насыщенности : 4:2:0Битовая глубина : 8 битТип развёртки : ПрогрессивнаяБит/(Пиксели*Кадры) : 0.197Размер потока : 1,95 Гбайт (43%)Заголовок : BDRip by STarankovБиблиотека кодирования : x264 core 146 r2538 121396cНастройки программы : cabac=1 / ref=9 / deblock=1:-1:-1 / analyse=0x3:0x113 / me=umh / subme=10 / psy=1 / psy_rd=1.00:0.15 / mixed_ref=1 / me_range=32 / chroma_me=1 / trellis=2 / 8x8dct=1 / cqm=0 / deadzone=21,11 / fast_pskip=1 / chroma_qp_offset=-3 / threads=6 / lookahead_threads=1 / sliced_threads=0 / nr=0 / decimate=1 / interlaced=0 / bluray_compat=0 / constrained_intra=0 / bframes=9 / b_pyramid=2 / b_adapt=2 / b_bias=0 / direct=1 / weightb=1 / open_gop=0 / weightp=2 / keyint=230 / keyint_min=23 / scenecut=40 / intra_refresh=0 / rc_lookahead=40 / rc=crf / mbtree=0 / crf=20.5 / qcomp=0.60 / qpmin=0 / qpmax=69 / qpstep=4 / vbv_maxrate=40000 / vbv_bufsize=50000 / crf_max=0.0 / nal_hrd=none / filler=0 / ip_ratio=1.40 / pb_ratio=1.30 / aq=1:1.00Язык : EnglishDefault : ДаForced : НетDURATION : 02:14:54.962000000NUMBER_OF_FRAMES : 194085NUMBER_OF_BYTES : 2186799456_STATISTICS_WRITING_APP : mkvmerge v8.2.0 ('World of Adventure') 64bit_STATISTICS_WRITING_DATE_UTC : 2015-12-08 16:10:54_STATISTICS_TAGS : BPS DURATION NUMBER_OF_FRAMES NUMBER_OF_BYTES

Аудио #1Идентификатор : 2Формат : AC-3Формат/Информация : Audio Coding 3Расширение режима : CM (complete main)Параметр Endianness формата : BigИдентификатор кодека : A_AC3Продолжительность : 2 ч. 15 м.Вид битрейта : ПостоянныйБитрейт : 448 Кбит/секКаналы : 6 каналовРасположение каналов : Front: L C R, Side: L R, LFEЧастота : 48,0 КГцМетод сжатия : С потерямиРазмер потока : 433 Мбайт (9%)Заголовок : DUB (BD CEE)Язык : RussianDefault : ДаForced : Нет

Аудио #2Идентификатор : 3Формат : AC-3Формат/Информация : Audio Coding 3Расширение режима : CM (complete main)Параметр Endianness формата : BigИдентификатор кодека : A_AC3Продолжительность : 2 ч. 15 м.Вид битрейта : ПостоянныйБитрейт : 448 Кбит/секКаналы : 6 каналовРасположение каналов : Front: L C R, Side: L R, LFEЧастота : 48,0 КГцМетод сжатия : С потерямиРазмер потока : 433 Мбайт (9%)Заголовок : AVO (Леонид Володарский)Язык : RussianDefault : НетForced : Нет

Аудио #3Идентификатор : 4Формат : AC-3Формат/Информация : Audio Coding 3Расширение режима : CM (complete main)Параметр Endianness формата : BigИдентификатор кодека : A_AC3Продолжительность : 2 ч. 15 м.Вид битрейта : ПостоянныйБитрейт : 448 Кбит/секКаналы : 6 каналовРасположение каналов : Front: L C R, Side: L R, LFEЧастота : 48,0 КГцМетод сжатия : С потерямиРазмер потока : 433 Мбайт (9%)Заголовок : AVO (Александр Дасевич)Язык : RussianDefault : НетForced : Нет

Аудио #4Идентификатор : 5Формат : AC-3Формат/Информация : Audio Coding 3Расширение режима : CM (complete main)Параметр Endianness формата : BigИдентификатор кодека : A_AC3Продолжительность : 2 ч. 15 м.Вид битрейта : ПостоянныйБитрейт : 448 Кбит/секКаналы : 6 каналовРасположение каналов : Front: L C R, Side: L R, LFEЧастота : 48,0 КГцМетод сжатия : С потерямиРазмер потока : 433 Мбайт (9%)Заголовок : AVO (Юрий Живов)Язык : RussianDefault : НетForced : Нет

Аудио #5Идентификатор : 6Формат : AC-3Формат/Информация : Audio Coding 3Расширение режима : CM (complete main)Параметр Endianness формата : BigИдентификатор кодека : A_AC3Продолжительность : 2 ч. 15 м.Вид битрейта : ПостоянныйБитрейт : 448 Кбит/секКаналы : 6 каналовРасположение каналов : Front: L C R, Side: L R, LFEЧастота : 48,0 КГцМетод сжатия : С потерямиРазмер потока : 433 Мбайт (9%)Заголовок : любительский одноголосый, Антон Киреев по переводу Дмитрия ПучковаЯзык : RussianDefault : НетForced : Нет

Аудио #6Идентификатор : 7Формат : AC-3Формат/Информация : Audio Coding 3Расширение режима : CM (complete main)Параметр Endianness формата : BigИдентификатор кодека : A_AC3Продолжительность : 2 ч. 15 м.Вид битрейта : ПостоянныйБитрейт : 448 Кбит/секКаналы : 6 каналовРасположение каналов : Front: L C R, Side: L R, LFEЧастота : 48,0 КГцМетод сжатия : С потерямиРазмер потока : 433 Мбайт (9%)Заголовок : OriginalЯзык : EnglishDefault : НетForced : Нет

Текст #1Идентификатор : 8Формат : UTF-8Идентификатор кодека : S_TEXT/UTF8Идентификатор кодека/Информация : UTF-8 Plain TextЗаголовок : русский (форсированные)Язык : RussianDefault : ДаForced : Да

Текст #2Идентификатор : 9Формат : UTF-8Идентификатор кодека : S_TEXT/UTF8Идентификатор кодека/Информация : UTF-8 Plain TextЗаголовок : русскийЯзык : RussianDefault : НетForced : Нет

Текст #3Идентификатор : 10Формат : UTF-8Идентификатор кодека : S_TEXT/UTF8Идентификатор кодека/Информация : UTF-8 Plain TextЗаголовок : английскийDefault : НетForced : Нет

piratbit.ru


Смотрите также