Скачать фильм в поисках дори через торрент в хорошем качестве


Скачать торрент В поисках Дори / Finding Dory (2016) WEB-DL 720p от ExKinoRay

Информация о фильмеНазвание: В поисках ДориОригинальное название: Finding DoryГод выхода: 2016Жанр: Мультфильм, комедия, приключения, семейныйРежиссер: Эндрю Стэнтон, Энгус МакЛэйнВ ролях: Эллен ДеДженерес, Альберт Брукс, Эд О’Нил, Кэйтлин Олсон, Хайден Роуленс, Тай Буррелл, Дайан Китон, Юджин Леви, Слоун Мюррэй, Идрис Эльба

О фильме:Дори — синяя доброжелательная рыбка-хирург, страдающая провалами в памяти. Она упорно стремится избавиться от своего недуга и найти свою семью.

Страна: СШАСтудия: Pixar Animation Studios, Walt Disney PicturesПродолжительность: 01:37:02Перевод: Дублированный | iTunes

ФайлКодек: MPEG-4Качество: WEB-DL 720pВидео: 1280x720, 4349 Kbit/s, 23.976 fpsЗвук: Аудио #01: 48 kHz, AC3, 5.1, 384 Kbps | Дублированный | iTunes |Аудио #02: 48 kHz, AC3, 5.1, 384 kbps | Оригинал |Субтитры: Русские, английские

MI

General Unique ID : 181356966325697478167775319539650880590 (0x887014C9FB3140B2AF3EB61EB64B644E) Complete name : H:VideoFinding.Dory.2016.WEB-DL.720p.ExKinoRay.mkv Format : Matroska Format version : Version 4 / Version 2 File size : 3.47 GiB Duration : 1 h 37 min Overall bit rate : 5 120 kb/s Encoded date : UTC 2016-10-25 00:33:32 Writing application : mkvmerge v8.3.0 ('Over the Horizon') 64bit Writing library : libebml v1.3.1 + libmatroska v1.4.2

Video ID : 1 Format : AVC Format/Info : Advanced Video Codec Format profile : [email protected] Format settings, CABAC : Yes Format settings, ReFrames : 4 frames Codec ID : V_MPEG4/ISO/AVC Duration : 1 h 37 min Bit rate : 4 349 kb/s Width : 1 280 pixels Height : 720 pixels Display aspect ratio : 16:9 Frame rate mode : Constant Frame rate : 23.976 (24000/1001) FPS Color space : YUV Chroma subsampling : 4:2:0 Bit depth : 8 bits Scan type : Progressive Bits/(Pixel*Frame) : 0.197 Stream size : 2.95 GiB (85%) Language : English Default : Yes Forced : No

Audio #1 ID : 2 Format : AC-3 Format/Info : Audio Coding 3 Mode extension : CM (complete main) Format settings, Endianness : Big Codec ID : A_AC3 Duration : 1 h 37 min Bit rate mode : Constant Bit rate : 384 kb/s Channel(s) : 6 channels Channel positions : Front: L C R, Side: L R, LFE Sampling rate : 48.0 kHz Frame rate : 31.250 FPS (1536 spf) Compression mode : Lossy Stream size : 267 MiB (8%) Title : iTunes Language : Russian Default : Yes Forced : No

Audio #2 ID : 3 Format : AC-3 Format/Info : Audio Coding 3 Mode extension : CM (complete main) Format settings, Endianness : Big Codec ID : A_AC3 Duration : 1 h 37 min Bit rate mode : Constant Bit rate : 384 kb/s Channel(s) : 6 channels Channel positions : Front: L C R, Side: L R, LFE Sampling rate : 48.0 kHz Frame rate : 31.250 FPS (1536 spf) Compression mode : Lossy Stream size : 267 MiB (8%) Title : Original Language : English Default : No Forced : No

Text #1 ID : 4 Format : UTF-8 Codec ID : S_TEXT/UTF8 Codec ID/Info : UTF-8 Plain Text Duration : 1 h 35 min Bit rate : 128 b/s Count of elements : 1469 Stream size : 89.3 KiB (0%) Title : Full Language : Russian Default : No Forced : No

Text #2 ID : 5 Format : UTF-8 Codec ID : S_TEXT/UTF8 Codec ID/Info : UTF-8 Plain Text Duration : 1 h 35 min Bit rate : 81 b/s Count of elements : 1472 Stream size : 57.1 KiB (0%) Title : Full Language : English Default : No Forced : No

Menu 00:00:00.000 : en:(01)00:00:00:000 00:07:07.260 : en:(02)00:07:07:260 00:14:49.680 : en:(03)00:14:49:680 00:21:11.645 : en:(04)00:21:11:645 00:27:08.835 : en:(05)00:27:08:835 00:33:24.002 : en:(06)00:33:24:002 00:39:43.255 : en:(07)00:39:43:255 00:46:01.008 : en:(08)00:46:01:008 00:51:49.564 : en:(09)00:51:49:564 00:57:56.639 : en:(10)00:57:56:639 01:05:00.271 : en:(11)01:05:00:271 01:11:59.898 : en:(12)01:11:59:898 01:19:28.221 : en:(13)01:19:28:221 01:26:43.573 : en:(14)01:26:43:573 01:30:29.799 : en:(15)01:30:29:799 01:38:49.590 : en:(16)01:38:49:590 01:48:36.301 : en:(17)01:48:36:301

Релиз от: Автор релиза:

krutor.org

Скачать торрент В поисках Дори / Finding Dory (2016) WEB-DL 1080p от ExKinoRay

Информация о фильмеНазвание: В поисках ДориОригинальное название: Finding DoryГод выхода: 2016Жанр: Мультфильм, комедия, приключения, семейныйРежиссер: Эндрю Стэнтон, Энгус МакЛэйнВ ролях: Эллен ДеДженерес, Альберт Брукс, Эд О’Нил, Кэйтлин Олсон, Хайден Роуленс, Тай Буррелл, Дайан Китон, Юджин Леви, Слоун Мюррэй, Идрис Эльба

О фильме:Дори — синяя доброжелательная рыбка-хирург, страдающая провалами в памяти. Она упорно стремится избавиться от своего недуга и найти свою семью.

Страна: СШАСтудия: Pixar Animation Studios, Walt Disney PicturesПродолжительность: 01:37:02Перевод: Дублированный | iTunes

ФайлКодек: MPEG-4Качество: WEB-DL 1080pВидео: 1920x1080, 5104 Kbit/s, 23.976 fpsЗвук: Аудио #01: 48 kHz, AC3, 5.1, 384 Kbps | Дублированный | iTunes |Аудио #02: 48 kHz, AC3, 5.1, 384 kbps | Оригинал |Субтитры: Русские, английские

MI

General Unique ID : 253334281824411489335393578055886947217 (0xBE96686E22E60A878D3C2EBEDB03C391) Complete name : H:VideoFinding.Dory.2016.WEB-DL.1080p.ExKinoRay.mkv Format : Matroska Format version : Version 4 / Version 2 File size : 3.98 GiB Duration : 1 h 37 min Overall bit rate : 5 874 kb/s Encoded date : UTC 2016-10-25 00:38:13 Writing application : mkvmerge v8.3.0 ('Over the Horizon') 64bit Writing library : libebml v1.3.1 + libmatroska v1.4.2

Video ID : 1 Format : AVC Format/Info : Advanced Video Codec Format profile : [email protected] Format settings, CABAC : Yes Format settings, ReFrames : 4 frames Codec ID : V_MPEG4/ISO/AVC Duration : 1 h 37 min Bit rate : 5 104 kb/s Width : 1 920 pixels Height : 1 080 pixels Display aspect ratio : 16:9 Frame rate mode : Constant Frame rate : 23.976 (24000/1001) FPS Color space : YUV Chroma subsampling : 4:2:0 Bit depth : 8 bits Scan type : Progressive Bits/(Pixel*Frame) : 0.103 Stream size : 3.46 GiB (87%) Language : English Default : Yes Forced : No Color range : Limited Color primaries : BT.709 Transfer characteristics : BT.709 Matrix coefficients : BT.709

Audio #1 ID : 2 Format : AC-3 Format/Info : Audio Coding 3 Mode extension : CM (complete main) Format settings, Endianness : Big Codec ID : A_AC3 Duration : 1 h 37 min Bit rate mode : Constant Bit rate : 384 kb/s Channel(s) : 6 channels Channel positions : Front: L C R, Side: L R, LFE Sampling rate : 48.0 kHz Frame rate : 31.250 FPS (1536 spf) Compression mode : Lossy Stream size : 267 MiB (7%) Title : iTunes Language : Russian Default : Yes Forced : No

Audio #2 ID : 3 Format : AC-3 Format/Info : Audio Coding 3 Mode extension : CM (complete main) Format settings, Endianness : Big Codec ID : A_AC3 Duration : 1 h 37 min Bit rate mode : Constant Bit rate : 384 kb/s Channel(s) : 6 channels Channel positions : Front: L C R, Side: L R, LFE Sampling rate : 48.0 kHz Frame rate : 31.250 FPS (1536 spf) Compression mode : Lossy Stream size : 267 MiB (7%) Title : Original Language : English Default : No Forced : No

Text #1 ID : 4 Format : UTF-8 Codec ID : S_TEXT/UTF8 Codec ID/Info : UTF-8 Plain Text Duration : 1 h 35 min Bit rate : 128 b/s Count of elements : 1469 Stream size : 89.3 KiB (0%) Title : Full Language : Russian Default : No Forced : No

Text #2 ID : 5 Format : UTF-8 Codec ID : S_TEXT/UTF8 Codec ID/Info : UTF-8 Plain Text Duration : 1 h 35 min Bit rate : 81 b/s Count of elements : 1472 Stream size : 57.1 KiB (0%) Title : Full Language : English Default : No Forced : No

Menu 00:00:00.000 : en:(01)00:00:00:000 00:07:07.260 : en:(02)00:07:07:260 00:14:49.680 : en:(03)00:14:49:680 00:21:11.645 : en:(04)00:21:11:645 00:27:08.835 : en:(05)00:27:08:835 00:33:24.002 : en:(06)00:33:24:002 00:39:43.255 : en:(07)00:39:43:255 00:46:01.008 : en:(08)00:46:01:008 00:51:49.564 : en:(09)00:51:49:564 00:57:56.639 : en:(10)00:57:56:639 01:05:00.271 : en:(11)01:05:00:271 01:11:59.898 : en:(12)01:11:59:898 01:19:28.221 : en:(13)01:19:28:221 01:26:43.573 : en:(14)01:26:43:573 01:30:29.799 : en:(15)01:30:29:799 01:38:49.590 : en:(16)01:38:49:590 01:48:36.301 : en:(17)01:48:36:301

Релиз от: Автор релиза:

krutor.org

Скачать фильм В поисках Дори через торрент в хорошем качестве бесплатно BDRip-AVC

GeneralUnique ID : 187557080302899459415238791136521669058 (0x8D1A2E025FA9C6B79BDEA7449ADEC9C2)Complete name : D:\download\Finding.Dory.2016.BDRip-AVC by schultz R.G.Resident.mkvFormat : MatroskaFormat version : Version 4 / Version 2File size : 2.59 GiBDuration : 1 h 37 minOverall bit rate : 3 825 kb/sEncoded date : UTC 2016-10-27 10:58:30Writing application : mkvmerge v8.9.0 ('Father Daughter') 64bitWriting library : libebml v1.3.3 + libmatroska v1.4.4

VideoID : 1Format : AVCFormat/Info : Advanced Video CodecFormat profile : [email protected] settings, CABAC : YesFormat settings, ReFrames : 12 framesCodec ID : V_MPEG4/ISO/AVCDuration : 1 h 37 minBit rate : 2 990 kb/sWidth : 1 024 pixelsHeight : 576 pixelsDisplay aspect ratio : 16:9Frame rate mode : ConstantFrame rate : 23.976 (23976/1000) FPSColor space : YUVChroma subsampling : 4:2:0Bit depth : 8 bitsScan type : ProgressiveBits/(Pixel*Frame) : 0.211Stream size : 2.03 GiB (78%)Writing library : x264 core 146 r2538 121396cEncoding settings : cabac=1 / ref=12 / deblock=1:-3:-3 / analyse=0x3:0x113 / me=umh / subme=11 / psy=1 / psy_rd=1.00:0.00 / mixed_ref=1 / me_range=48 / chroma_me=1 / trellis=2 / 8x8dct=1 / cqm=0 / deadzone=21,11 / fast_pskip=0 / chroma_qp_offset=-2 / threads=12 / lookahead_threads=3 / sliced_threads=0 / nr=0 / decimate=0 / interlaced=0 / bluray_compat=0 / constrained_intra=0 / bframes=11 / b_pyramid=2 / b_adapt=2 / b_bias=0 / direct=3 / weightb=1 / open_gop=0 / weightp=2 / keyint=240 / keyint_min=23 / scenecut=40 / intra_refresh=0 / rc_lookahead=40 / rc=2pass / mbtree=1 / bitrate=2990 / ratetol=1.0 / qcomp=0.60 / qpmin=0 / qpmax=69 / qpstep=4 / cplxblur=20.0 / qblur=0.5 / vbv_maxrate=50000 / vbv_bufsize=62500 / nal_hrd=none / filler=0 / ip_ratio=1.40 / aq=1:1.00Language : EnglishDefault : YesForced : No

Audio #1ID : 2Format : AC-3Format/Info : Audio Coding 3Mode extension : CM (complete main)Format settings, Endianness : BigCodec ID : A_AC3Duration : 1 h 37 minBit rate mode : ConstantBit rate : 384 kb/sChannel(s) : 6 channelsChannel positions : Front: L C R, Side: L R, LFESampling rate : 48.0 kHzFrame rate : 31.250 FPS (1536 spf)Compression mode : LossyStream size : 267 MiB (10%)Language : RussianDefault : YesForced : No

Audio #2ID : 3Format : AC-3Format/Info : Audio Coding 3Mode extension : CM (complete main)Format settings, Endianness : BigCodec ID : A_AC3Duration : 1 h 37 minBit rate mode : ConstantBit rate : 448 kb/sChannel(s) : 6 channelsChannel positions : Front: L C R, Side: L R, LFESampling rate : 48.0 kHzFrame rate : 31.250 FPS (1536 spf)Compression mode : LossyStream size : 311 MiB (12%)Language : EnglishDefault : NoForced : No

Text #1ID : 4Format : UTF-8Codec ID : S_TEXT/UTF8Codec ID/Info : UTF-8 Plain TextDuration : 1 h 35 minBit rate : 127 b/sCount of elements : 1469Stream size : 89.0 KiB (0%)Title : FullLanguage : RussianDefault : NoForced : No

Text #2ID : 5Format : UTF-8Codec ID : S_TEXT/UTF8Codec ID/Info : UTF-8 Plain TextDuration : 1 h 35 minBit rate : 85 b/sCount of elements : 1578Stream size : 59.3 KiB (0%)Title : FullLanguage : EnglishDefault : NoForced : No

Text #3ID : 6Format : UTF-8Codec ID : S_TEXT/UTF8Codec ID/Info : UTF-8 Plain TextDuration : 1 h 35 minBit rate : 92 b/sCount of elements : 1764Stream size : 64.6 KiB (0%)Title : SDHLanguage : EnglishDefault : NoForced : No

Menu00:00:00.000 : en:00:00:00.00000:02:35.739 : en:00:02:35.73900:06:50.243 : en:00:06:50.24300:10:53.194 : en:00:10:53.19400:13:33.187 : en:00:13:33.18700:15:25.132 : en:00:15:25.13200:17:03.314 : en:00:17:03.31400:19:35.466 : en:00:19:35.46600:21:35.294 : en:00:21:35.29400:24:58.705 : en:00:24:58.70500:27:08.543 : en:00:27:08.54300:30:33.206 : en:00:30:33.20600:35:00.265 : en:00:35:00.26500:37:52.020 : en:00:37:52.02000:40:17.999 : en:00:40:17.99900:41:06.672 : en:00:41:06.67200:42:30.423 : en:00:42:30.42300:46:03.427 : en:00:46:03.42700:48:41.710 : en:00:48:41.71000:50:27.858 : en:00:50:27.85800:55:06.678 : en:00:55:06.67800:57:05.839 : en:00:57:05.83901:00:41.346 : en:01:00:41.34601:04:32.952 : en:01:04:32.95201:10:36.816 : en:01:10:36.81601:12:28.302 : en:01:12:28.30201:14:09.862 : en:01:14:09.86201:18:26.493 : en:01:18:26.49301:26:49.329 : en:01:26:49.329

piratbit.ru

Скачать фильм В поисках Дори через торрент в хорошем качестве бесплатно HDRip

Раздают: 9 [ 13 KB/s ]
Размер: 1.46 GB | Добавлен: 11 мес. назад | Торрент скачан:821 раз
Реклама Дарим 3000 рублей за регистрацию, не упусти свой шанс получить шикарный бонус!!!

26-10-2016 20:02 В поисках Дори Скачать торрент  

В поисках Дори / Finding Dory Год выхода: 2016Жанр: мультфильм, комедия, приключения, семейныйСтрана: США, Pixar Animation Studios, Walt Disney PicturesПродолжительность: 01:37:04Озвучивание: Дублированное [Лицензия BD CEE]Примечание: Русский локализированный лицензионный видеоряд!

Режиссёр фильма: Эндрю Стэнтон, Энгус МакЛэйн

Актёры: Эллен ДеДженерес, Альберт Брукс, Эд О’Нил, Кэйтлин Олсон, Хайден Роуленс, Тай Бурелл, Дайан Китон, Юджин Леви, Слоун Мюррэй, Идрис Эльба

О фильме: Дори — синяя доброжелательная рыбка-хирург, страдающая провалами в памяти. Она упорно стремится избавиться от своего недуга и найти свою семью.

ФайлКачество: HDRipФормат: AVI Видео: XviD, 1622 kb/s, 720x400, 23,976 fpsЗвук: 48.0 KHz, AC3, 384 kb/s (6 ch)

Скачать В поисках Дори через торрент http://i84.fastpic.ru/big/2016/1117/64/40b0571f4f2d610ce0e845c659157964.jpg Скачать фильм В поисках Дори через торрент бесплантно в хорошем качестве О фильме: Дори — синяя доброжелательная рыбка-хирург, страдающая провалами в памяти. Она упорно стремится избавиться от своего недуга и ... 2016-11-17 13:19 10 10 24

Loading...

Loading...

Рекламный пират

17-11-2016 13:21 В поисках Дори Скачать торрент  

Торент перезалит! Лицензия BD CEE, локализированный лицензионный видеоряд

27-11-2016 17:08 В поисках Дори Скачать торрент  

классный мульт, малым понравился! Все надписи даже в мульте на русском!

Дорогой пользователь! Огромная просьба, поблагодарите релизера, оцените раздачу и оставьте свои комментарий, если Вы скачали В поисках Дори через торрент бесплатно! Внесите свою лепту в развитие PiratBit!

Комментировать посты могут только пользователи прошедшие не сложную регистрацию

В поисках Дори через торрент Скачать бесплатно В поисках Дори В поисках Дори скачать торрент В поисках Дори смотреть онлайн Cкачать фильм В поисках Дори бесплатно В поисках Дори скачать торрент в хорошем качестве В поисках Дори смотреть онлайн бесплатно в хорошем качестве

Вы не можете начинать темыВы не можете отвечать на сообщенияВы не можете редактировать свои сообщенияВы не можете удалять свои сообщенияВы не можете голосовать в опросахВы не можете прикреплять файлы к сообщениямВы можете скачивать файлы

piratbit.ru

Скачать фильм В поисках Дори через торрент в хорошем качестве бесплатно 1080p

GeneralUnique ID : 184536011408537533937237314548578896748 (0x8AD457D016FE94A68EFE09E48137CB6C)Complete name : E:\Finding.Dory.2016.BDRip.1080p.mkvFormat : MatroskaFormat version : Version 4 / Version 2File size : 6.82 GiBDuration : 1h 37mnOverall bit rate : 10.1 MbpsEncoded date : UTC 2016-10-26 16:47:21Writing application : mkvmerge v8.3.0 ('Over the Horizon') 64bitWriting library : libebml v1.3.1 + libmatroska v1.4.2

VideoID : 1Format : AVCFormat/Info : Advanced Video CodecFormat profile : [email protected] settings, CABAC : YesFormat settings, ReFrames : 4 framesCodec ID : V_MPEG4/ISO/AVCDuration : 1h 37mnBit rate : 8 160 KbpsWidth : 1 920 pixelsHeight : 1 080 pixelsDisplay aspect ratio : 16:9Frame rate mode : ConstantFrame rate : 23.976 (24000/1001) fpsColor space : YUVChroma subsampling : 4:2:0Bit depth : 8 bitsScan type : ProgressiveBits/(Pixel*Frame) : 0.164Stream size : 5.40 GiB (79%)Writing library : x264 core 148 r2705 3f5ed56Encoding settings : cabac=1 / ref=4 / deblock=1:-3:-3 / analyse=0x3:0x113 / me=umh / subme=8 / psy=1 / psy_rd=1.00:0.00 / mixed_ref=1 / me_range=32 / chroma_me=1 / trellis=1 / 8x8dct=1 / cqm=0 / deadzone=21,11 / fast_pskip=1 / chroma_qp_offset=-2 / threads=24 / lookahead_threads=4 / sliced_threads=0 / nr=0 / decimate=1 / interlaced=0 / bluray_compat=0 / constrained_intra=0 / bframes=3 / b_pyramid=2 / b_adapt=2 / b_bias=0 / direct=3 / weightb=1 / open_gop=0 / weightp=2 / keyint=240 / keyint_min=24 / scenecut=40 / intra_refresh=0 / rc_lookahead=50 / rc=2pass / mbtree=1 / bitrate=8160 / ratetol=1.0 / qcomp=0.60 / qpmin=0 / qpmax=69 / qpstep=4 / cplxblur=20.0 / qblur=0.5 / ip_ratio=1.40 / aq=3:0.80Language : EnglishDefault : YesForced : No

Audio #1ID : 2Format : AC-3Format/Info : Audio Coding 3Mode extension : CM (complete main)Format settings, Endianness : BigCodec ID : A_AC3Duration : 1h 37mnBit rate mode : ConstantBit rate : 384 KbpsChannel(s) : 6 channelsChannel positions : Front: L C R, Side: L R, LFESampling rate : 48.0 KHzFrame rate : 31.250 fps (1536 spf)Compression mode : LossyDelay relative to video : 800msStream size : 267 MiB (4%)Title : iTunesLanguage : RussianDefault : YesForced : No

Audio #2ID : 3Format : DTSFormat/Info : Digital Theater SystemsMode : 16Format settings, Endianness : BigCodec ID : A_DTSDuration : 1h 37mnBit rate mode : ConstantBit rate : 1 509 KbpsChannel(s) : 6 channelsChannel positions : Front: L C R, Side: L R, LFESampling rate : 48.0 KHzFrame rate : 93.750 fps (512 spf)Bit depth : 24 bitsCompression mode : LossyStream size : 1.02 GiB (15%)Language : EnglishDefault : NoForced : No

Text #1ID : 4Format : UTF-8Codec ID : S_TEXT/UTF8Codec ID/Info : UTF-8 Plain TextTitle : FullLanguage : RussianDefault : NoForced : No

Text #2ID : 5Format : UTF-8Codec ID : S_TEXT/UTF8Codec ID/Info : UTF-8 Plain TextTitle : FullLanguage : EnglishDefault : NoForced : No

Text #3ID : 6Format : UTF-8Codec ID : S_TEXT/UTF8Codec ID/Info : UTF-8 Plain TextTitle : SDHLanguage : EnglishDefault : NoForced : No

Menu00:00:00.000 : en:00:00:00.00000:02:35.739 : en:00:02:35.73900:06:50.243 : en:00:06:50.24300:10:53.194 : en:00:10:53.19400:13:33.187 : en:00:13:33.18700:15:25.132 : en:00:15:25.13200:17:03.314 : en:00:17:03.31400:19:35.466 : en:00:19:35.46600:21:35.294 : en:00:21:35.29400:24:58.705 : en:00:24:58.70500:27:08.543 : en:00:27:08.54300:30:33.206 : en:00:30:33.20600:35:00.265 : en:00:35:00.26500:37:52.020 : en:00:37:52.02000:40:17.999 : en:00:40:17.99900:41:06.672 : en:00:41:06.67200:42:30.423 : en:00:42:30.42300:46:03.427 : en:00:46:03.42700:48:41.710 : en:00:48:41.71000:50:27.858 : en:00:50:27.85800:55:06.678 : en:00:55:06.67800:57:05.839 : en:00:57:05.83901:00:41.346 : en:01:00:41.34601:04:32.952 : en:01:04:32.95201:10:36.816 : en:01:10:36.81601:12:28.302 : en:01:12:28.30201:14:09.862 : en:01:14:09.86201:18:26.493 : en:01:18:26.49301:26:49.329 : en:01:26:49.329

piratbit.ru

Скачать фильм В поисках Дори через торрент в хорошем качестве бесплатно WEB-DLRip

Размер: 1.46 GB | Добавлен: 1 год назад | Торрент скачан:391 раз
Реклама Дарим 3000 рублей за регистрацию, не упусти свой шанс получить шикарный бонус!!!

25-10-2016 08:28 В поисках Дори Скачать торрент  

В поисках Дори / Finding Dory Год выпуска: 2016Страна: СШАЖанр: мультфильм, комедия, приключения, семейный

Продолжительность: 01:37:02Перевод: Дубляж - [Лицензия / iTunes]

Режиссер: Эндрю Стэнтон , Энгус МакЛэйнВ ролях: Эллен ДеДженерес (Dory, озвучка), Альберт Брукс (Marlin, озвучка), Эд О’Нил (Hank, озвучка), Кэйтлин Олсон (Destiny, озвучка), Хайден Роуленс (Nemo, озвучка), Тай Бурелл (Bailey, озвучка), Дайан Китон (Jenny, озвучка), Юджин Леви (Charlie, озвучка), Слоун Мюррэй (Young Dory, озвучка), Идрис Эльба (Fluke, озвучка), Доминик Уэст (Rudder, озвучка), Боб Питерсон (Mr. Ray, озвучка)Описание: Дори - синяя доброжелательная рыбка-хирург, страдающая провалами в памяти. Она упорно стремится избавиться от своего недуга и найти свою семью.Доп. информация: Локализованный русский видеорядРейтинг: MPAA: PG - Рекомендуется присутствие родителейКачество: WEB-DLRipФормат: AVIВидео: XviD, 688x384 (16:9), 1676 kbps, 23,976 fps, 0,265 bppАудио: AC3 / 5.1 / 48 kHz / 384 kbps / GeneralComplete name : E:\Finding.Dory.2016.D.WEB-DLRip.aviFormat : AVIFormat/Info : Audio Video InterleaveFile size : 1.46 GiBDuration : 1 h 37 minOverall bit rate : 2 154 kb/sWriting application : VirtualDubMod 1.5.10.3 (build 2550/release)Writing library : VirtualDubMod build 2550/release

VideoID : 0Format : MPEG-4 VisualFormat profile : Advanced [email protected] settings, BVOP : 2Format settings, QPel : NoFormat settings, GMC : No warppointsFormat settings, Matrix : CustomCodec ID : XVIDCodec ID/Hint : XviDDuration : 1 h 37 minBit rate : 1 676 kb/sWidth : 688 pixelsHeight : 384 pixelsDisplay aspect ratio : 16:9Frame rate : 23.976 (23976/1000) FPSColor space : YUVChroma subsampling : 4:2:0Bit depth : 8 bitsScan type : ProgressiveCompression mode : LossyBits/(Pixel*Frame) : 0.265Stream size : 1.14 GiB (78%)Writing library : XviD 73

AudioID : 1Format : AC-3Format/Info : Audio Coding 3Mode extension : CM (complete main)Format settings, Endianness : BigCodec ID : 2000Duration : 1 h 37 minBit rate mode : ConstantBit rate : 384 kb/sChannel(s) : 6 channelsChannel positions : Front: L C R, Side: L R, LFESampling rate : 48.0 kHzFrame rate : 31.250 FPS (1536 spf)Compression mode : LossyStream size : 267 MiB (18%)Alignment : Split accross interleaves

Скачать В поисках Дори через торрент http://i6.imageban.ru/out/2016/10/25/d3f8aff4bf6cdbf0034e6c954fe21792.jpg Скачать фильм В поисках Дори через торрент бесплантно в хорошем качестве Описание: Дори - синяя доброжелательная рыбка-хирург, страдающая провалами в памяти. Она упорно стремится избавиться от своего недуга и ... 2016-10-25 08:28 10 10 11

Loading...

Loading...

Рекламный пират

Дорогой пользователь! Огромная просьба, поблагодарите релизера, оцените раздачу и оставьте свои комментарий, если Вы скачали В поисках Дори через торрент бесплатно! Внесите свою лепту в развитие PiratBit!

Комментировать посты могут только пользователи прошедшие не сложную регистрацию

В поисках Дори через торрент Скачать бесплатно В поисках Дори В поисках Дори скачать торрент В поисках Дори смотреть онлайн Cкачать фильм В поисках Дори бесплатно В поисках Дори скачать торрент в хорошем качестве В поисках Дори смотреть онлайн бесплатно в хорошем качестве

Вы не можете начинать темыВы не можете отвечать на сообщенияВы не можете редактировать свои сообщенияВы не можете удалять свои сообщенияВы не можете голосовать в опросахВы не можете прикреплять файлы к сообщениямВы можете скачивать файлы

piratbit.ru

Скачать фильм В поисках Дори через торрент в хорошем качестве бесплатно WEB-DLRip-AVC

GeneralUnique ID : 203670577297093728140191476101654048010 (0x993986BF9356C2FC96A7334384C0ED0A)Complete name : E:\Torrent\film\V_poiskah_Dory_2016_WEB-DLRip-AVC_by_Dalemake.mkvFormat : MatroskaFormat version : Version 4 / Version 2File size : 1.45 GiBDuration : 1 h 37 minOverall bit rate : 2 133 kb/sMovie name : [Finding Dory_2016_by Dalemake]Encoded date : UTC 2016-10-25 09:02:47Writing application : mkvmerge v7.8.0 ('River Man') 32bit built on Apr 3 2015 12:11:22Writing library : libebml v1.3.1 + libmatroska v1.4.2

VideoID : 1Format : AVCFormat/Info : Advanced Video CodecFormat profile : [email protected] settings, CABAC : YesFormat settings, ReFrames : 11 framesCodec ID : V_MPEG4/ISO/AVCDuration : 1 h 37 minBit rate : 1 590 kb/sWidth : 896 pixelsHeight : 504 pixelsDisplay aspect ratio : 16:9Frame rate mode : ConstantFrame rate : 23.976 (24000/1001) FPSColor space : YUVChroma subsampling : 4:2:0Bit depth : 8 bitsScan type : ProgressiveBits/(Pixel*Frame) : 0.147Stream size : 1.08 GiB (75%)Title : [Finding Dory_2016_by Dalemake]Writing library : x264 core 146 r2538 121396cEncoding settings : cabac=1 / ref=11 / deblock=1:-2:-2 / analyse=0x3:0x113 / me=umh / subme=11 / psy=1 / psy_rd=1.00:0.00 / mixed_ref=1 / me_range=48 / chroma_me=1 / trellis=2 / 8x8dct=1 / cqm=0 / deadzone=21,11 / fast_pskip=0 / chroma_qp_offset=-2 / threads=6 / lookahead_threads=1 / sliced_threads=0 / nr=0 / decimate=0 / interlaced=0 / bluray_compat=0 / constrained_intra=0 / bframes=10 / b_pyramid=2 / b_adapt=2 / b_bias=0 / direct=3 / weightb=1 / open_gop=0 / weightp=2 / keyint=240 / keyint_min=23 / scenecut=40 / intra_refresh=0 / rc_lookahead=60 / rc=2pass / mbtree=0 / bitrate=1590 / ratetol=1.0 / qcomp=0.60 / qpmin=0 / qpmax=69 / qpstep=4 / cplxblur=20.0 / qblur=0.5 / vbv_maxrate=50000 / vbv_bufsize=62500 / nal_hrd=none / filler=0 / ip_ratio=1.30 / pb_ratio=1.25 / aq=1:1.00Default : YesForced : Yes

Audio #1ID : 2Format : AC-3Format/Info : Audio Coding 3Mode extension : CM (complete main)Format settings, Endianness : BigCodec ID : A_AC3Duration : 1 h 37 minBit rate mode : ConstantBit rate : 384 kb/sChannel(s) : 6 channelsChannel positions : Front: L C R, Side: L R, LFESampling rate : 48.0 kHzFrame rate : 31.250 FPS (1536 spf)Compression mode : LossyStream size : 267 MiB (18%)Title : Dub - iTunes RussiaLanguage : RussianDefault : YesForced : Yes

Audio #2ID : 3Format : AACFormat/Info : Advanced Audio CodecFormat profile : LCCodec ID : A_AACDuration : 1 h 37 minBit rate : 156 kb/sChannel(s) : 2 channelsChannel positions : Front: L RSampling rate : 48.0 kHzFrame rate : 46.875 FPS (1024 spf)Compression mode : LossyStream size : 108 MiB (7%)Title : OriginalLanguage : EnglishDefault : NoForced : No

Text #1ID : 4Format : UTF-8Codec ID : S_TEXT/UTF8Codec ID/Info : UTF-8 Plain TextDuration : 1 h 35 minBit rate : 128 b/sCount of elements : 1469Stream size : 89.3 KiB (0%)Title : FullLanguage : RussianDefault : NoForced : No

Text #2ID : 5Format : UTF-8Codec ID : S_TEXT/UTF8Codec ID/Info : UTF-8 Plain TextDuration : 1 h 35 minBit rate : 82 b/sCount of elements : 1472Stream size : 57.4 KiB (0%)Title : FullLanguage : EnglishDefault : NoForced : No

Menu00:00:00.000 : en:100:02:35.000 : en:200:06:47.000 : en:300:11:01.000 : en:400:13:32.000 : en:500:15:25.000 : en:600:17:03.000 : en:700:19:35.000 : en:800:21:35.000 : en:900:24:58.000 : en:1000:27:08.000 : en:1100:30:33.000 : en:1200:34:59.000 : en:1300:37:52.000 : en:1400:40:18.000 : en:1500:41:06.000 : en:1600:42:30.000 : en:1700:46:03.000 : en:1800:48:41.000 : en:1900:50:28.000 : en:2000:55:06.000 : en:2100:57:06.000 : en:2201:00:41.000 : en:2301:04:32.000 : en:2401:10:36.000 : en:2501:12:28.000 : en:2601:14:09.000 : en:2701:18:26.000 : en:2801:26:49.000 : en:29

piratbit.ru


Смотрите также