Скачать фильм виктория через торрент бесплатно в хорошем качестве 2015


Скачать фильм Виктория (2015) через торрент

12 апреля 2016 07:34 Виктория / Victoria (2015) HDRip от MediaClub | КПК .torrent   [Информация о файле (нажмите для просмотра)] Качество: HDRipВидео: MPEG-4 AVC, 500 Кбит/с, 480x202, 23.976 кадр/сАудио: Русский (AAC, 2 ch, 128 Кбит/с) / Профессиональный многоголосый 628,57 Mb 6 7 12 апреля 2016 07:34 Виктория / Victoria (2015) BDRip-AVC от New-Team | P .torrent   [Информация о файле (нажмите для просмотра)] Перевод: Профессиональный (многоголосый, закадровый)Субтитры: английскиеВидео: 1657 Кбит/сек, 1008*420 (2,40:1), в 23,976 кадр/сек, AVCАудио №1: русский, 192 Кбит/сек, 48,0 КГц, 16 бит, 2 канала(ов), AC-3Аудио №2: немецкий, 384 Кбит/сек, 48,0 КГц, 16 бит, 6 канала(ов), AC-3Видео: Идентификатор : 1 Формат : AVC Формат/Информация : Advanced Video Codec Профиль формата : [email protected] Параметр CABAC формата : Да Параметр ReFrames формата : 13 кадры Идентификатор кодека : V_MPEG4/ISO/AVC Продолжительность : 2 ч. 18 м. Битрейт : 1657 Кбит/сек Ширина : 1008 пикс. Высота : 420 пикс. Соотношение сторон : 2,40:1 Частота кадров : 23,976 кадр/сек Цветовое пространство : YUV Подвыборка цветности : 4:2:0 Битовая глубина : 8 бит Тип развёртки : Прогрессивная Бит/(Пиксели*Кадры) : 0.163 Размер потока : 1,56 Гбайт (72%) Заголовок : Victoria (2015) (New-Team) (Rip by Stalker oK) Библиотека кодирования : x264 core 146 r2538kMod 121396c Настройки программы : cabac=1 / ref=13 / deblock=1:-3:-3 / analyse=0x3:0x133 / me=umh / subme=11 / psy=1 / fade_compensate=0.00 / psy_rd=1.00:0.10 / mixed_ref=1 / me_range=48 / chroma_me=1 / trellis=2 / 8x8dct=1 / cqm=0 / deadzone=21,11 / fast_pskip=0 / chroma_qp_offset=-3 / threads=12 / lookahead_threads=3 / sliced_threads=0 / nr=0 / decimate=0 / interlaced=0 / bluray_compat=0 / constrained_intra=0 / fgo=0 / bframes=13 / b_pyramid=2 / b_adapt=2 / b_bias=0 / direct=3 / weightb=1 / open_gop=0 / weightp=2 / keyint=240 / keyint_min=23 / scenecut=40 / intra_refresh=0 / rc_lookahead=60 / rc=2pass / mbtree=0 / bitrate=1657 / ratetol=1.0 / qcomp=0.70 / qpmin=0 / qpmax=69 / qpstep=4 / cplxblur=20.0 / qblur=0.5 / vbv_maxrate=50000 / vbv_bufsize=62500 / nal_hrd=none / filler=0 / ip_ratio=1.40 / pb_ratio=1.30 / aq=3:0.90Аудио #1: Идентификатор : 2 Формат : AC-3 Формат/Информация : Audio Coding 3 Расширение режима : CM (complete main) Идентификатор кодека : A_AC3 Продолжительность : 2 ч. 18 м. Вид битрейта : Постоянный Битрейт : 192 Кбит/сек Канал(ы) : 2 канала(ов) Расположение каналов : Front: L R Частота : 48,0 КГц Битовая глубина : 16 бит Метод сжатия : С потерями Размер потока : 190 Мбайт (9%) Язык : RussianАудио #2: Идентификатор : 3 Формат : AC-3 Формат/Информация : Audio Coding 3 Расширение режима : CM (complete main) Идентификатор кодека : A_AC3 Продолжительность : 2 ч. 18 м. Вид битрейта : Постоянный Битрейт : 384 Кбит/сек Канал(ы) : 6 канала(ов) Расположение каналов : Front: L C R, Side: L R, LFE Частота : 48,0 КГц Битовая глубина : 16 бит Метод сжатия : С потерями Размер потока : 381 Мбайт (17%) Язык : German 2,16 Gb 102 6 12 апреля 2016 07:34 Виктория / Victoria (2015) HDRip от Scarabey | P .torrent   [Информация о файле (нажмите для просмотра)] Перевод: Профессиональный (многоголосый, закадровый)Субтитры: нетВидео: 720x304 (2.37:1), 23.976 fps, XviD build 73 ~1795 kbps avg, 0.34 bit/pixelАудио: 48 kHz, AC3 Dolby Digital, 2/0 (L,R) ch, ~384.00 kbps avg 2,12 Gb 46 5 12 апреля 2016 07:34 Виктория / Victoria (2015) HDRip от Scarabey | P .torrent   [Информация о файле (нажмите для просмотра)] Перевод: Профессиональный (многоголосый, закадровый)Субтитры: нетВидео: 720x304 (2.37:1), 23.976 fps, XviD build 73 ~1295 kbps avg, 0.25 bit/pixelАудио: 48 kHz, AC3 Dolby Digital, 2/0 (L,R) ch, ~192.00 kbps avg 1,45 Gb 403 15 12 апреля 2016 07:34 Виктория / Victoria (2015) BDRip-AVC от New-Team | P .torrent   [Информация о файле (нажмите для просмотра)] Перевод: Профессиональный (многоголосый, закадровый)Субтитры: английскиеВидео: 1114 Кбит/сек, 912x380 (2.40:1), 23,976 кадр/сек, AVCАудио №1: русский, 192 Кбит/сек, 48 КГц, 16 бит, 2.0, AC3Аудио №2: немецкий, 192 Кбит/сек, 48 КГц, 16 бит, 2.0, AC3 1,45 Gb 38 6 12 апреля 2016 07:34 Виктория / Victoria (2015) HDRip от Scarabey | P .torrent   [Информация о файле (нажмите для просмотра)] Перевод: Профессиональный (многоголосый, закадровый)Субтитры: нетВидео: 640x272 (2.35:1), 23.976 fps, XviD build 73 ~665 kbps avg, 0.16 bit/pixelАудио: 48 kHz, MPEG Layer 3, 2 ch, ~128.00 kbps avg 796,53 Mb 38 9 12 апреля 2016 07:34 Виктория / Victoria (2015) BDRip 720p от Scarabey | P .torrent   [Информация о файле (нажмите для просмотра)] Перевод: Профессиональный (многоголосый, закадровый)Субтитры: есть,английскиеВидео: 1280х534, 23.976 fps, AVC ~6416 kbps avgАудио: 48 kHz, AC3 Dolby Digital, 2/0 (L,R) ch, ~384 kbps - многоголоскаАудио: 48 kHz, AC3 Dolby Digital, 3/2 (L,C,R,l,r) + LFE ch, ~640 kbps - оригинал 7,51 Gb 70 7 12 апреля 2016 07:34 Виктория / Victoria (2015) ВDRip 1080р | P .torrent   [Информация о файле (нажмите для просмотра)] Качество: ВDRip 1080рВидео: MPEG-4-AVC, 8646 Кбит/с, 1920x800Аудио: (AC3, 2 ch, 384 Кбит/с), немецкий (DTS, 6 ch, 448 Кбит/с)Субтитры: Английские 10,2 Gb 28 7 12 апреля 2016 07:34 Виктория / Victoria (2015) HDRip | P .torrent   [Информация о файле (нажмите для просмотра)] Качество: HDRipВидео: XviD, 1965 Кбит/с, 720x304Аудио: Русский (AC3, 2 ch, 384 Кбит/с), немецкий (AC3, 6 ch, 448 Кбит/с) 2,72 Gb 40 12 12 апреля 2016 07:34 Виктория / Victoria (2015) HDRip | P .torrent   [Информация о файле (нажмите для просмотра)] Качество: HDRipВидео: XviD, 1018 Кбит/с, 720x304Аудио: AC3, 2 ch, 384 Кбит/с 1,37 Gb 147 12 12 апреля 2016 07:34 Виктория / Victoria (2015) HDRip | P .torrent   [Информация о файле (нажмите для просмотра)] Качество: HDRipВидео: XviD, 1720 Кбит/с, 720x304Аудио: AC3, 2 ch, 384 Кбит/с 2,05 Gb 33 8

gig-torrent.net

Скачать фильм Виктория через торрент в хорошем качестве бесплатно 720p

ОбщееУникальный идентификатор : 240025231058298625636856902047703434446 (0xB4932D90C6C975D4A0CCC60B6BBB04CE)Полное имя : E:\Victoria.2015.P.BDRip.720p.mkvФормат : MatroskaВерсия формата : Version 4 / Version 2Размер файла : 4,37 ГбайтПродолжительность : 2 ч. 18 м.Общий поток : 4517 Кбит/секДата кодирования : UTC 2015-11-28 05:55:56Программа кодирования : mkvmerge v6.9.1 ('Blue Panther') 64bit built on Apr 18 2014 18:23:38Библиотека кодирования : libebml v1.3.0 + libmatroska v1.4.1DURATION : 01:58:20.218000000NUMBER_OF_FRAMES : 596NUMBER_OF_BYTES : 16901_STATISTICS_WRITING_APP : mkvmerge v8.3.0 ('Over the Horizon') 64bit_STATISTICS_WRITING_DATE_UTC : 2015-11-27 19:13:01_STATISTICS_TAGS : BPS DURATION NUMBER_OF_FRAMES NUMBER_OF_BYTES

ВидеоИдентификатор : 1Формат : AVCФормат/Информация : Advanced Video CodecПрофиль формата : [email protected]Параметр CABAC формата : ДаПараметр ReFrames формата : 5 кадровИдентификатор кодека : V_MPEG4/ISO/AVCПродолжительность : 2 ч. 18 м.Битрейт : 4133 Кбит/секШирина : 1280 пикселейВысота : 536 пикселейСоотношение сторон : 2,40:1Режим частоты кадров : ПостоянныйЧастота кадров : 23,976 кадра/секЦветовое пространство : YUVСубдискретизация насыщенности : 4:2:0Битовая глубина : 8 битТип развёртки : ПрогрессивнаяБит/(Пиксели*Кадры) : 0.251Размер потока : 3,92 Гбайт (90%)Библиотека кодирования : x264 core 148 r2638 7599210Настройки программы : cabac=1 / ref=5 / deblock=1:0:0 / analyse=0x3:0x133 / me=umh / subme=7 / psy=1 / psy_rd=1.00:0.00 / mixed_ref=1 / me_range=16 / chroma_me=1 / trellis=1 / 8x8dct=1 / cqm=0 / deadzone=21,11 / fast_pskip=0 / chroma_qp_offset=-2 / threads=6 / lookahead_threads=1 / sliced_threads=0 / nr=0 / decimate=1 / interlaced=0 / bluray_compat=0 / constrained_intra=0 / bframes=3 / b_pyramid=2 / b_adapt=2 / b_bias=0 / direct=3 / weightb=1 / open_gop=0 / weightp=2 / keyint=250 / keyint_min=23 / scenecut=40 / intra_refresh=0 / rc_lookahead=50 / rc=2pass / mbtree=1 / bitrate=4133 / ratetol=1.0 / qcomp=0.60 / qpmin=0 / qpmax=69 / qpstep=4 / cplxblur=20.0 / qblur=0.5 / ip_ratio=1.40 / aq=1:1.00Язык : EnglishDefault : ДаForced : НетDURATION : 02:18:38.449000000NUMBER_OF_FRAMES : 199443NUMBER_OF_BYTES : 4295588427_STATISTICS_WRITING_APP : mkvmerge v8.3.0 ('Over the Horizon') 64bit_STATISTICS_WRITING_DATE_UTC : 2015-11-27 19:13:01_STATISTICS_TAGS : BPS DURATION NUMBER_OF_FRAMES NUMBER_OF_BYTES

АудиоИдентификатор : 2Формат : AC-3Формат/Информация : Audio Coding 3Расширение режима : CM (complete main)Параметр Endianness формата : BigИдентификатор кодека : A_AC3Продолжительность : 2 ч. 18 м.Вид битрейта : ПостоянныйБитрейт : 384 Кбит/секКаналы : 2 каналаРасположение каналов : Front: L RЧастота : 48,0 КГцБитовая глубина : 16 битМетод сжатия : С потерямиРазмер потока : 381 Мбайт (9%)Язык : RussianDefault : ДаForced : Нет

ТекстИдентификатор : 3Формат : UTF-8Идентификатор кодека : S_TEXT/UTF8Идентификатор кодека/Информация : UTF-8 Plain TextЯзык : EnglishDefault : ДаForced : Да

Меню00:00:00.000 : en:00:00:00.00000:10:21.996 : en:00:10:21.99600:21:48.724 : en:00:21:48.72400:32:57.100 : en:00:32:57.10000:42:58.242 : en:00:42:58.24200:54:49.745 : en:00:54:49.74501:05:22.919 : en:01:05:22.91901:15:35.281 : en:01:15:35.28101:27:03.885 : en:01:27:03.88501:37:57.288 : en:01:37:57.28801:48:43.225 : en:01:48:43.22501:57:24.496 : en:01:57:24.49602:06:08.436 : en:02:06:08.43602:14:39.196 : en:02:14:39.196

piratbit.ru

Скачать фильм Виктория через торрент в хорошем качестве бесплатно BDRip-AVC от sokol_ok

ОбщееУникальный идентификатор : 246593795154806695134757838599504912853 (0xB9843CC77BB8D47A94DEB3352149E1D5)Полное имя : M:\1Rips\Victoria\Новая папка\Victoria.2015.BDRip-AVC.MVO.1.45Gb.stalkerok.new-team.mkvФормат : MatroskaВерсия формата : Version 4 / Version 2Размер файла : 1,45 ГбайтПродолжительность : 2 ч. 18 м.Общий поток : 1499 Кбит/секНазвание фильма : Victoria (2015) (New-Team) (Rip by Stalker oK)Дата кодирования : UTC 2016-05-20 12:49:46Программа кодирования : mkvmerge v8.6.1 ('Flying') 64bitБиблиотека кодирования : libebml v1.3.3 + libmatroska v1.4.4

ВидеоИдентификатор : 1Формат : AVCФормат/Информация : Advanced Video CodecПрофиль формата : [email protected]Параметр CABAC формата : ДаПараметр ReFrames формата : 13 кадровИдентификатор кодека : V_MPEG4/ISO/AVCПродолжительность : 2 ч. 18 м.Битрейт : 1114 Кбит/секШирина : 912 пикселейВысота : 380 пикселейСоотношение сторон : 2,40:1Режим частоты кадров : ПостоянныйЧастота кадров : 23,976 (24000/1001) кадра/секЦветовое пространство : YUVСубдискретизация насыщенности : 4:2:0Битовая глубина : 8 битТип развёртки : ПрогрессивнаяБит/(Пиксели*Кадры) : 0.134Размер потока : 1,08 Гбайт (74%)Заголовок : Victoria (2015) (New-Team) (Rip by Stalker oK)Библиотека кодирования : x264 core 146 r2538kMod 121396cНастройки программы : cabac=1 / ref=13 / deblock=1:-3:-3 / analyse=0x3:0x133 / me=umh / subme=11 / psy=1 / fade_compensate=0.00 / psy_rd=1.00:0.10 / mixed_ref=1 / me_range=48 / chroma_me=1 / trellis=2 / 8x8dct=1 / cqm=0 / deadzone=21,11 / fast_pskip=0 / chroma_qp_offset=-3 / threads=12 / lookahead_threads=2 / sliced_threads=0 / nr=0 / decimate=0 / interlaced=0 / bluray_compat=0 / constrained_intra=0 / fgo=0 / bframes=15 / b_pyramid=2 / b_adapt=2 / b_bias=0 / direct=3 / weightb=1 / open_gop=0 / weightp=2 / keyint=240 / keyint_min=23 / scenecut=40 / intra_refresh=0 / rc_lookahead=60 / rc=2pass / mbtree=0 / bitrate=1114 / ratetol=1.0 / qcomp=0.70 / qpmin=0 / qpmax=69 / qpstep=4 / cplxblur=20.0 / qblur=0.5 / vbv_maxrate=50000 / vbv_bufsize=62500 / nal_hrd=none / filler=0 / ip_ratio=1.40 / pb_ratio=1.30 / aq=3:0.95Default : ДаForced : Нет

АудиоИдентификатор : 2Формат : AC-3Формат/Информация : Audio Coding 3Расширение режима : CM (complete main)Параметр Endianness формата : BigИдентификатор кодека : A_AC3Продолжительность : 2 ч. 18 м.Вид битрейта : ПостоянныйБитрейт : 384 Кбит/секКаналы : 6 каналовРасположение каналов : Front: L C R, Side: L R, LFEЧастота : 48,0 КГцЧастота кадров : 31,250 кадров/сек (1536 spf)Метод сжатия : С потерямиРазмер потока : 381 Мбайт (26%)Язык : RussianDefault : ДаForced : Нет

Текст #1Идентификатор : 3Формат : UTF-8Идентификатор кодека : S_TEXT/UTF8Идентификатор кодека/Информация : UTF-8 Plain TextПродолжительность : 2 ч. 10 м.Битрейт : 68 бит/секCount of elements : 1600Размер потока : 65,1 Кбайт (0%)Язык : RussianDefault : НетForced : Нет

Текст #2Идентификатор : 4Формат : UTF-8Идентификатор кодека : S_TEXT/UTF8Идентификатор кодека/Информация : UTF-8 Plain TextПродолжительность : 2 ч. 1 м.Битрейт : 22 бит/секCount of elements : 623Размер потока : 20,3 Кбайт (0%)Заголовок : Fremdsprachige DialogeЯзык : GermanDefault : НетForced : Нет

Текст #3Идентификатор : 5Формат : UTF-8Идентификатор кодека : S_TEXT/UTF8Идентификатор кодека/Информация : UTF-8 Plain TextПродолжительность : 2 ч. 13 м.Битрейт : 44 бит/секCount of elements : 1389Размер потока : 43,8 Кбайт (0%)Язык : GermanDefault : НетForced : Нет

Текст #4Идентификатор : 6Формат : UTF-8Идентификатор кодека : S_TEXT/UTF8Идентификатор кодека/Информация : UTF-8 Plain TextПродолжительность : 2 ч. 1 м.Битрейт : 45 бит/секCount of elements : 1296Размер потока : 40,5 Кбайт (0%)Заголовок : Untertitel für GehörloseЯзык : GermanDefault : НетForced : Нет

Текст #5Идентификатор : 7Формат : UTF-8Идентификатор кодека : S_TEXT/UTF8Идентификатор кодека/Информация : UTF-8 Plain TextПродолжительность : 1 ч. 58 м.Битрейт : 19 бит/секCount of elements : 599Размер потока : 16,6 Кбайт (0%)Заголовок : Foreign PartsЯзык : EnglishDefault : НетForced : Нет

Текст #6Идентификатор : 8Формат : UTF-8Идентификатор кодека : S_TEXT/UTF8Идентификатор кодека/Информация : UTF-8 Plain TextПродолжительность : 2 ч. 11 м.Битрейт : 42 бит/секCount of elements : 1287Размер потока : 41,2 Кбайт (0%)Язык : EnglishDefault : НетForced : Нет

Меню00:00:00.000 : en:Chapter 100:10:21.995 : en:Chapter 200:21:48.723 : en:Chapter 300:32:57.099 : en:Chapter 400:42:58.242 : en:Chapter 500:54:49.744 : en:Chapter 601:05:22.918 : en:Chapter 701:15:35.279 : en:Chapter 801:27:03.885 : en:Chapter 901:37:57.287 : en:Chapter 1001:48:43.225 : en:Chapter 1101:57:24.494 : en:Chapter 1202:06:08.435 : en:Chapter 1302:14:39.195 : en:Chapter 14

piratbit.ru

Скачать фильм Виктория через торрент в хорошем качестве бесплатно BDRip-AVC от sokol_ok

ОбщееУникальный идентификатор : 171988066481632202503781395346037733732 (0x8163B25CFD975F5EA5B0F9CECD74F964)Полное имя : M:\1Rips\Victoria\Новая папка\Victoria.2015.BDRip-AVC.MVO.2.18Gb.stalkerok.new-team.mkvФормат : MatroskaВерсия формата : Version 4 / Version 2Размер файла : 2,16 ГбайтПродолжительность : 2 ч. 18 м.Общий поток : 2233 Кбит/секНазвание фильма : Victoria (2015) (New-Team) (Rip by Stalker oK)Дата кодирования : UTC 2016-05-20 12:55:43Программа кодирования : mkvmerge v8.6.1 ('Flying') 64bitБиблиотека кодирования : libebml v1.3.3 + libmatroska v1.4.4

ВидеоИдентификатор : 1Формат : AVCФормат/Информация : Advanced Video CodecПрофиль формата : [email protected]Параметр CABAC формата : ДаПараметр ReFrames формата : 13 кадровИдентификатор кодека : V_MPEG4/ISO/AVCПродолжительность : 2 ч. 18 м.Битрейт : 1657 Кбит/секШирина : 1008 пикселейВысота : 420 пикселейСоотношение сторон : 2,40:1Режим частоты кадров : ПостоянныйЧастота кадров : 23,976 (24000/1001) кадра/секЦветовое пространство : YUVСубдискретизация насыщенности : 4:2:0Битовая глубина : 8 битТип развёртки : ПрогрессивнаяБит/(Пиксели*Кадры) : 0.163Размер потока : 1,60 Гбайт (74%)Заголовок : Victoria (2015) (New-Team) (Rip by Stalker oK)Библиотека кодирования : x264 core 146 r2538kMod 121396cНастройки программы : cabac=1 / ref=13 / deblock=1:-3:-3 / analyse=0x3:0x133 / me=umh / subme=11 / psy=1 / fade_compensate=0.00 / psy_rd=1.00:0.10 / mixed_ref=1 / me_range=48 / chroma_me=1 / trellis=2 / 8x8dct=1 / cqm=0 / deadzone=21,11 / fast_pskip=0 / chroma_qp_offset=-3 / threads=12 / lookahead_threads=3 / sliced_threads=0 / nr=0 / decimate=0 / interlaced=0 / bluray_compat=0 / constrained_intra=0 / fgo=0 / bframes=13 / b_pyramid=2 / b_adapt=2 / b_bias=0 / direct=3 / weightb=1 / open_gop=0 / weightp=2 / keyint=240 / keyint_min=23 / scenecut=40 / intra_refresh=0 / rc_lookahead=60 / rc=2pass / mbtree=0 / bitrate=1657 / ratetol=1.0 / qcomp=0.70 / qpmin=0 / qpmax=69 / qpstep=4 / cplxblur=20.0 / qblur=0.5 / vbv_maxrate=50000 / vbv_bufsize=62500 / nal_hrd=none / filler=0 / ip_ratio=1.40 / pb_ratio=1.30 / aq=3:0.90Default : ДаForced : Нет

Аудио #1Идентификатор : 2Формат : AC-3Формат/Информация : Audio Coding 3Расширение режима : CM (complete main)Параметр Endianness формата : BigИдентификатор кодека : A_AC3Продолжительность : 2 ч. 18 м.Вид битрейта : ПостоянныйБитрейт : 384 Кбит/секКаналы : 6 каналовРасположение каналов : Front: L C R, Side: L R, LFEЧастота : 48,0 КГцЧастота кадров : 31,250 кадров/сек (1536 spf)Метод сжатия : С потерямиРазмер потока : 381 Мбайт (17%)Язык : RussianDefault : ДаForced : Нет

Аудио #2Идентификатор : 3Формат : AC-3Формат/Информация : Audio Coding 3Расширение режима : CM (complete main)Параметр Endianness формата : BigИдентификатор кодека : A_AC3Продолжительность : 2 ч. 18 м.Вид битрейта : ПостоянныйБитрейт : 192 Кбит/секКаналы : 2 каналаРасположение каналов : Front: L RЧастота : 48,0 КГцЧастота кадров : 31,250 кадров/сек (1536 spf)Метод сжатия : С потерямиРазмер потока : 190 Мбайт (9%)Язык : GermanDefault : НетForced : Нет

Текст #1Идентификатор : 4Формат : UTF-8Идентификатор кодека : S_TEXT/UTF8Идентификатор кодека/Информация : UTF-8 Plain TextПродолжительность : 2 ч. 10 м.Битрейт : 68 бит/секCount of elements : 1600Размер потока : 65,1 Кбайт (0%)Язык : RussianDefault : НетForced : Нет

Текст #2Идентификатор : 5Формат : UTF-8Идентификатор кодека : S_TEXT/UTF8Идентификатор кодека/Информация : UTF-8 Plain TextПродолжительность : 2 ч. 1 м.Битрейт : 22 бит/секCount of elements : 623Размер потока : 20,3 Кбайт (0%)Заголовок : Fremdsprachige DialogeЯзык : GermanDefault : НетForced : Нет

Текст #3Идентификатор : 6Формат : UTF-8Идентификатор кодека : S_TEXT/UTF8Идентификатор кодека/Информация : UTF-8 Plain TextПродолжительность : 2 ч. 13 м.Битрейт : 44 бит/секCount of elements : 1389Размер потока : 43,8 Кбайт (0%)Язык : GermanDefault : НетForced : Нет

Текст #4Идентификатор : 7Формат : UTF-8Идентификатор кодека : S_TEXT/UTF8Идентификатор кодека/Информация : UTF-8 Plain TextПродолжительность : 2 ч. 1 м.Битрейт : 45 бит/секCount of elements : 1296Размер потока : 40,5 Кбайт (0%)Заголовок : Untertitel für GehörloseЯзык : GermanDefault : НетForced : Нет

Текст #5Идентификатор : 8Формат : UTF-8Идентификатор кодека : S_TEXT/UTF8Идентификатор кодека/Информация : UTF-8 Plain TextПродолжительность : 1 ч. 58 м.Битрейт : 19 бит/секCount of elements : 599Размер потока : 16,6 Кбайт (0%)Заголовок : Foreign PartsЯзык : EnglishDefault : НетForced : Нет

Текст #6Идентификатор : 9Формат : UTF-8Идентификатор кодека : S_TEXT/UTF8Идентификатор кодека/Информация : UTF-8 Plain TextПродолжительность : 2 ч. 11 м.Битрейт : 42 бит/секCount of elements : 1287Размер потока : 41,2 Кбайт (0%)Язык : EnglishDefault : НетForced : Нет

Меню00:00:00.000 : en:Chapter 100:10:21.995 : en:Chapter 200:21:48.723 : en:Chapter 300:32:57.099 : en:Chapter 400:42:58.242 : en:Chapter 500:54:49.744 : en:Chapter 601:05:22.918 : en:Chapter 701:15:35.279 : en:Chapter 801:27:03.885 : en:Chapter 901:37:57.287 : en:Chapter 1001:48:43.225 : en:Chapter 1101:57:24.494 : en:Chapter 1202:06:08.435 : en:Chapter 1302:14:39.195 : en:Chapter 14

piratbit.ru

Фильм Виктория 2015 смотреть онлайн полностью в хорошем HD 720, 1080 качестве и скачать бесплатно

КачествоПереводРазмер файлаДата добавленияСкачано (раз)Сидеры / ЛичерыКак скачать?DVD ПодробнееПроф. (многоголосный)7.77 GB29 Авг 162

▲ 0▼ 2

Файл: Виктория - Victoria (2015) DVD-9 | P.torrentПродолжительность: 02:18Видео: MPEG2, PAL 16:9 (720x576) VBR, 25,000 кадров/секЗвук: Русский, Немецкий DD 5.1 (384 Kbps), Немецкий DD 2.0 (192 Kbps)Перевод: Профессиональный многоголосыйСубтитры: Английские, немецкиеBDRip ПодробнееПроф. (многоголосный)12.42 GB02 Июн 160

▲ 1▼ 3

Файл: Виктория - Victoria (2015) BDRip 1080p | iTunes.torrentПродолжительность: 02:18Видео: 1920x800, 12000 kbps, 23,976 fpsЗвук:Аудио #1: AC-3, 6 ch, 384 kbps (Rus) - MVO iTunesАудио #2: AC-3, 6 ch, 448 kbps (Ger)Перевод: Профессиональный (многоголосный, закадровый)Субтитры: Русские, Немецкие (Forced, Full, SDH), Английские (Forced, Full)BDRip ПодробнееПроф. (многоголосный)6.89 GB21 Май 161

▲ 3▼ 3

Файл: Виктория - Victoria (2015) BDRip 720p от Scarabey | iTunes.torrentПродолжительность: 02:18Видео: 1280х534, 23.976 fps, AVC ~6416 kbps avgЗвук:Аудио: 48 kHz, AC3 Dolby Digital, 3/2 (L,C,R,l,r) + LFE ch, 384 KbpsПеревод: Профессиональный (многоголосый, закадровый) - iTunesСубтитры: нетHDRip ПодробнееПроф. (многоголосный)2.12 GB21 Май 161

▲ 0▼ 2

Файл: Виктория - Victoria (2015) HDRip от Scarabey | iTunes.torrentПродолжительность: 02:18Видео: 720x304 (2.37:1), 23.976 fps, XviD build 73 ~1795 kbps avg, 0.34 bit/pixelЗвук:Аудио: 48 kHz, AC3 Dolby Digital, 3/2 (L,C,R,l,r) + LFE ch, ~384 kbpsПеревод: Профессиональный (многоголосый, закадровый) - iTunesСубтитры: нетBDRip ПодробнееПроф. (многоголосный)1.45 GB20 Май 160

▲ 1▼ 2

Файл: Виктория - Victoria (2015) BDRip-AVC от New-Team | iTunes.torrentПродолжительность: 02:18Видео: 1114 Кбит/сек, 912x380 (2.40:1), 23,976 кадр/сек, AVCЗвук:Аудио: русский, 384 Кбит/сек, 48,0 КГц, 6 каналов, AC-3Перевод: Профессиональный (многоголосый, закадровый) [Лицензия iTunes]Субтитры: русские (полные), немецкие (полные, SDH), английские (полные)BDRip ПодробнееПроф. (многоголосный)10.20 GB20 Май 160

▲ 0▼ 2

Файл: Виктория - Victoria (2015) BDRip 1080p | Р | iTunes.torrentПродолжительность: 02:18Видео: 1920x800 (2.40:1), 23.976 fps, MPEG-4 AVC ~10.6 Mbps avg, 0.287 bit/pixelЗвук:Аудио №1: 48.0 kHz, AC3 Dolby Digital, 3/2 (L,C,R,l,r) + LFE ch, ~384.00 kbps | RUSАудио №2: 48.0 kHz, Digital Theater Systems, 3/2 (L,C,R,l,r) + LFE ch, ~1509 kbps | GERПеревод: Профессиональный (многоголосый, закадровый)Субтитры: английскиеHDRip ПодробнееПроф. (многоголосный)1.37 GB19 Май 160

▲ 3▼ 2

Файл: Виктория - Victoria (2015) HDRip | Р.torrentПродолжительность: 02:18Видео: 720x304 (2.35:1), 23.976 fps, XviD ~1 018 kbps avg, 0.146 bit/pixelЗвук:Аудио: 48.0 kHz, AC3 Dolby Digital, 3/2 (L,C,R,l,r) + LFE ch, ~384 kbpsПеревод: Профессиональный (многоголосый, закадровый)Субтитры: нетВDRip ПодробнееПроф. (многоголосный)10.20 GB28 Ноя 150

▲ 6▼ 3

Файл: Виктория - Victoria (2015) ВDRip 1080р | P.torrentПродолжительность: 02:18Видео: MPEG-4-AVC, 8646 Кбит/с, 1920x800Звук:Аудио: (AC3, 2 ch, 384 Кбит/с), немецкий (DTS, 6 ch, 448 Кбит/с)аудио: "немецкий (DTS, 6 ch, 448 Кбит/с)" плюс русские субтитры полные как Великий и Могучий!mytdПеревод: Профессиональное многоголосное- Официальный звукСубтитры: АнглийскиеHDRip ПодробнееПроф. (многоголосный)1.37 GB28 Ноя 150

▲ 19▼ 3

Файл: Виктория - Victoria (2015) HDRip | P.torrentПродолжительность: 02:18Видео: XviD, 1018 Кбит/с, 720x304Звук:Аудио: AC3, 2 ch, 384 Кбит/сПеревод: Профессиональное многоголосное- Официальный звукHDRip ПодробнееПроф. (многоголосный)626.37 MB24 Июл 161

▲ 3▼ 2

HDRip ПодробнееПроф. (многоголосный)1.45 GB22 Май 160

▲ 3▼ 2

Файл: Виктория - Victoria (2015) HDRip от Scarabey | iTunes.torrentПродолжительность: 02:18Видео: 720x304 (2.37:1), 23.976 fps, XviD build 73 ~1295 kbps avg, 0.25 bit/pixelЗвук:Аудио: 48 kHz, AC3 Dolby Digital, 2/0 (L,R) ch, ~192.00 kbps avgПеревод: Профессиональный (многоголосый, закадровый) - iTunesСубтитры: нетHDRip ПодробнееПроф. (многоголосный)796.53 MB21 Май 160

▲ 0▼ 2

Файл: Виктория - Victoria (2015) HDRip от Scarabey | iTunes.torrentПродолжительность: 02:18Видео: 640x272 (2.35:1), 23.976 fps, XviD build 73 ~665 kbps avg, 0.16 bit/pixelЗвук:Аудио: 48 kHz, MPEG Layer 3, 2 ch, ~128.00 kbps avgПеревод: Профессиональный (многоголосый, закадровый) - iTunesСубтитры: нетBDRip ПодробнееПроф. (многоголосный)2.16 GB20 Май 160

▲ 6▼ 3

Файл: Виктория - Victoria (2015) BDRip-AVC от New-Team | iTunes.torrentПродолжительность: 02:18Видео: 1657 Кбит/сек, 1008*420 (2,40:1), в 23,976 кадр/сек, AVCЗвук:Аудио №1: русский, 384 Кбит/сек, 48,0 КГц, 16 бит, 6 канала(ов), AC-3Аудио №2: немецкий, 192 Кбит/сек, 48,0 КГц, 16 бит, 2 канала(ов), AC-3Перевод: Профессиональный (многоголосый, закадровый) [Лицензия iTunes]Субтитры: русские (полные), немецкие (полные, SDH), английские (полные)HDRip ПодробнееПроф. (многоголосный)2.05 GB20 Май 160

▲ 2▼ 3

Файл: Виктория - Victoria (2015) HDRip | Р | iTunes.torrentПродолжительность: 02:18Видео: 720x304 (2.37:1), 23.976 fps, XviD build 50 ~1724 kbps avg, 0.33 bit/pixelЗвук: 48 kHz, AC3 Dolby Digital, 3/2 (L,C,R,l,r) + LFE ch, ~384 kbpsПеревод: Профессиональный (многоголосый закадровый) iTunesСубтитры: русские, английские https://yadi.sk/d/1IUbmfkyrt4XNBDRip ПодробнееПроф. (многоголосный)9.78 GB19 Май 160

▲ 2▼ 3

Файл: Виктория - Victoria (2015) BDRip 720p | iTunes.torrentПродолжительность: 02:18Видео: MPEG-4 AVC, 8879 Кбит/с, 1280x534, 23,976 fpsЗвук:Аудио: Rus, AC3, 384 kb/s (6 ch), 48 kHzАудио 2: Ger, AC3, 640 kb/s (6 ch), 48 kHzПеревод: Профессиональный (многоголосый закадровый) iTunesHDRip ПодробнееПроф. (многоголосный)628.57 MB20 Дек 150

▲ 1▼ 3

Файл: Виктория - Victoria (2015) HDRip от MediaClub | КПК.torrentПродолжительность: 02:18Видео: MPEG-4 AVC, 500 Кбит/с, 480x202, 23.976 кадр/сЗвук:Аудио: Русский (AAC, 2 ch, 128 Кбит/с) / Профессиональный многоголосыйПеревод: Профессиональный многоголосыйHDRip ПодробнееПроф. (многоголосный)2.72 GB28 Ноя 150

▲ 4▼ 2

Файл: Виктория - Victoria (2015) HDRip | P.torrentПродолжительность: 02:18Видео: XviD, 1965 Кбит/с, 720x304Звук:Аудио: Русский (AC3, 2 ch, 384 Кбит/с), немецкий (AC3, 6 ch, 448 Кбит/с)Перевод: Профессиональное многоголосное- Официальный звукHDRip ПодробнееПроф. (многоголосный)2.05 GB28 Ноя 150

▲ 5▼ 3

Файл: Виктория - Victoria (2015) HDRip | P.torrentПродолжительность: 02:18Видео: XviD, 1720 Кбит/с, 720x304Звук:Аудио: AC3, 2 ch, 384 Кбит/сПеревод: Профессиональное многоголосное- Официальный звук

vkinoshke.com


Смотрите также