Скачать фильм заклятие 2 скачать торрент в хорошем качестве


Скачать фильм Заклятие 2 через торрент в хорошем качестве бесплатно 720p

GeneralUnique ID Заклятие 2.720p.mkvFormat : MatroskaFormat version : Version 4 / Version 2File size : 7.93 GiBDuration : 2 h 13 minOverall bit rate : 8 481 kb/sEncoded date : UTC 2016-08-31 10:26:26Writing application : mkvmerge v7.1.0 ('Good Love') 64bit built on Jul 27 2014 13:06:55Writing library : libebml v1.3.0 + libmatroska v1.4.1

VideoID : 1Format : AVCFormat/Info : Advanced Video CodecFormat profile : [email protected] settings, CABAC : YesFormat settings, ReFrames : 12 framesCodec ID : V_MPEG4/ISO/AVCDuration : 2 h 13 minBit rate : 7 454 kb/sWidth : 1 280 pixelsHeight : 534 pixelsDisplay aspect ratio : 2.40:1Frame rate mode : ConstantFrame rate : 23.976 (24000/1001) FPSColor space : YUVChroma subsampling : 4:2:0Bit depth : 8 bitsScan type : ProgressiveBits/(Pixel*Frame) : 0.455Stream size : 6.97 GiB (88%)Writing library : x264 core 148 r2705+54 9f484c1 t_mod_Custom [[email protected] X86_64]Encoding settings : cabac=1 / ref=12 / deblock=1:-3:-3 / analyse=0x3:0x133 / me=umh / subme=11 / psy=1 / fade_compensate=0.00 / psy_rd=1.05:0.05 / mixed_ref=1 / me_range=32 / chroma_me=1 / trellis=2 / 8x8dct=1 / cqm=0 / deadzone=21,11 / fast_pskip=0 / chroma_qp_offset=-3 / threads=6 / lookahead_threads=1 / sliced_threads=0 / nr=0 / decimate=1 / interlaced=0 / bluray_compat=0 / constrained_intra=0 / fgo=0 / bframes=9 / b_pyramid=2 / b_adapt=2 / b_bias=0 / direct=3 / weightb=1 / open_gop=0 / weightp=2 / keyint=250 / keyint_min=23 / scenecut=40 / intra_refresh=0 / rc_lookahead=60 / rc=crf / mbtree=0 / crf=16.0000 / qcomp=0.70 / qpmin=0:0:0 / qpmax=69:69:69 / qpstep=4 / vbv_maxrate=62500 / vbv_bufsize=78125 / crf_max=0.0 / nal_hrd=none / filler=0 / ip_ratio=1.30 / pb_ratio=1.20 / aq=1:0.70 / aq-sensitivity=10.00 / aq-factor=1.00:1.00:1.00 / aq2=0 / aq3=0Language : EnglishDefault : YesForced : NoColor range : LimitedColor primaries : BT.709Transfer characteristics : BT.709Matrix coefficients : BT.709

Audio #1ID : 2Format : AC-3Format/Info : Audio Coding 3Mode extension : CM (complete main)Format settings, Endianness : BigCodec ID : A_AC3Duration : 2 h 13 minBit rate mode : ConstantBit rate : 384 kb/sChannel(s) : 6 channelsChannel positions : Front: L C R, Side: L R, LFESampling rate : 48.0 kHzFrame rate : 31.250 FPS (1536 spf)Compression mode : LossyStream size : 368 MiB (5%)Title : iTunesLanguage : RussianDefault : YesForced : No

Audio #2ID : 3Format : AC-3Format/Info : Audio Coding 3Mode extension : CM (complete main)Format settings, Endianness : BigCodec ID : A_AC3Duration : 2 h 13 minBit rate mode : ConstantBit rate : 640 kb/sChannel(s) : 6 channelsChannel positions : Front: L C R, Side: L R, LFESampling rate : 48.0 kHzFrame rate : 31.250 FPS (1536 spf)Compression mode : LossyStream size : 613 MiB (8%)Language : EnglishDefault : NoForced : No

Text #1ID : 4Format : UTF-8Codec ID : S_TEXT/UTF8Codec ID/Info : UTF-8 Plain TextDuration : 2 h 8 minBit rate : 4 b/sCount of elements : 84Stream size : 4.22 KiB (0%)Title : ForcedLanguage : RussianDefault : YesForced : No

Text #2ID : 5Format : UTF-8Codec ID : S_TEXT/UTF8Codec ID/Info : UTF-8 Plain TextDuration : 2 h 13 minBit rate : 60 b/sCount of elements : 1378Stream size : 58.6 KiB (0%)Language : RussianDefault : NoForced : No

Text #3ID : 6Format : UTF-8Codec ID : S_TEXT/UTF8Codec ID/Info : UTF-8 Plain TextDuration : 2 h 13 minBit rate : 40 b/sCount of elements : 1392Stream size : 39.3 KiB (0%)Language : EnglishDefault : NoForced : No

Text #4ID : 7Format : UTF-8Codec ID : S_TEXT/UTF8Codec ID/Info : UTF-8 Plain TextDuration : 2 h 13 minBit rate : 48 b/sCount of elements : 1743Stream size : 47.0 KiB (0%)Title : SDHLanguage : EnglishDefault : NoForced : No

Menu00:00:00.000 : en:00:00:00.00000:08:24.671 : en:00:08:24.67100:18:40.703 : en:00:18:40.70300:28:34.212 : en:00:28:34.21200:40:01.399 : en:00:40:01.39900:48:46.841 : en:00:48:46.84101:02:14.314 : en:01:02:14.31401:09:29.665 : en:01:09:29.66501:21:55.869 : en:01:21:55.86901:29:26.486 : en:01:29:26.48601:38:53.469 : en:01:38:53.46901:48:15.364 : en:01:48:15.36402:03:10.508 : en:02:03:10.50802:07:36.816 : en:02:07:36.816

piratbit.ru

Скачать фильм Заклятие 2 через торрент в хорошем качестве бесплатно 1080p

Раздают: 1 [ 0 KB/s ]
Размер: 9.92 GB | Добавлен: 1 год 1 мес. назад | Торрент скачан:378 раз
Реклама Дарим 3000 рублей за регистрацию, не упусти свой шанс получить шикарный бонус!!!

27-08-2016 15:43 Заклятие 2 Скачать торрент  

Заклятие 2 / The Conjuring 2«The next true story from the case files of Ed and Lorraine Warren» Год выпуска: 2016Страна: США, КанадаЖанр: ужасы, триллер, детективПродолжительность: 02:13:40Перевод: Дублированный [официальное] - Присутствует реклама!Субтитры: Нет Режиссер: Джеймс ВанСценарий: Кэри Хэйес, Чад Хэйес, Джеймс ВанПродюсер: Роб Кауэн, Питер Сафран, Джеймс ВанОператор: Дон БёрджессКомпозитор: Джозеф БишараХудожник: Джули Бергхофф, Фиона Гэвин, А. Тодд ХоллэндМонтаж: Кирк М. Морри В ролях: Патрик Уилсон / Patrick Wilson (Ed Warren), Вера Фармига / Vera Farmiga (Lorraine Warren), Мэдисон Вульф / Madison Wolfe (Janet Hodgson), Фрэнсис О’Коннор / Frances O'Connor (Peggy Hodgson), Лорен Эспозито / Lauren Esposito (Margaret Hodgson), Бенжамин Хэй / Benjamin Haigh (Billy Hodgson), Патрик МакОли / Patrick McAuley (Johnny Hodgson), Саймон МакБерни / Simon McBurney (Maurice Grosse)pic pic pic pic pic pic pic pic Описание: Фильм основан на случае, с которым столкнулись практикующие исследователи паранормальных явлений Эд и Лоррэйн Уоррены. На этот раз вызов будет из северного пригорода Лондона, где семья, состоящая из четырех детей и матери-одиночки, подвергается нападениям потусторонних сил. Супругам предстоит выяснить какова природа этих явлений, полтергейст ли это, или что-то другое, и, главное, почему именно этот дом и именно эта семья.

Качество: BDRip 1080pФормат: MKVВидео кодек: AVCАудио кодеk: AC3Видео: 1920x800 (2.40:1), 23.976 fps, AVC, 9 775 KbpsАудио: Аудио #1: AC3, 640 Kbps, 48.0 KHz, 2 ch [Rus]

Скачать Заклятие 2 через торрент http://i78.fastpic.ru/big/2016/0827/e2/1841aa7cc9005817780ce05041f83be2.jpg Скачать фильм Заклятие 2 через торрент бесплантно в хорошем качестве Описание: Фильм основан на случае, с которым столкнулись практикующие исследователи паранормальных явлений Эд и Лоррэйн Уоррены. На этот ... 2016-08-27 15:43 9.2 10 12

Loading...

Loading...

% Раздел Тема Автор DL S | L
Фильмы 2016 [DVDrip, WEB-DLRip, HDrip] (DUB, MVO) [ 691 MB ] Заклятие 2 / The Conjuring 2 [2016 HDRip PsYcho Скачать
Фильмы 2016 [DVDrip, WEB-DLRip, HDrip] (DUB, MVO) [ 1.46 GB ] Заклятие 2 / The Conjuring 2 [2016 BDRip] - [] Twi7ter Скачать
Фильмы [HD 720p, 1080p] (Хороший звук DUB, MVO) [ 14.23 GB ] Заклятие 2 / The Conjuring 2 [2016 BDRip 1080p / ] Ворон Скачать
Фильмы (Blu-ray, BD-Remux, HDDVD) [ 24.89 GB ] Заклятие 2 / The Conjuring 2 [2016 BDRemux 1080p от ExKinoRay] Russian Mafia Скачать
Фильмы (Blu-ray, BD-Remux, HDDVD) [ 36.77 GB ] Заклятие 2 / The Conjuring 2 [2016 Blu-ray CEE 1080p] DUB bober100 Скачать
Фильмы 2016 [DVDrip, WEB-DLRip, HDrip] (DUB, MVO) [ 2.18 GB ] Заклятие 2 / The Conjuring 2 [2016 BDRip] - [] Twi7ter Скачать
Фильмы [HD 720p, 1080p] (Хороший звук DUB, MVO) [ 15.43 GB ] Заклятие / The Conjuring [2013 BDRip 1080p by msltel] DUB 2 x AVO VO msltel Скачать

Рекламный пират

27-08-2016 16:50 Заклятие 2 Скачать торрент  

а как рекламки много или пара вставок?

27-08-2016 20:32 Заклятие 2 Скачать торрент  

По трейлеру неплохо смотрится)

28-08-2016 03:33 Заклятие 2 Скачать торрент  

Да не ужели, не прошло и года Жду без рекламы

28-08-2016 08:08 Заклятие 2 Скачать торрент  

Не плохой фильм.Мне понравился.

28-08-2016 08:46 Заклятие 2 Скачать торрент  

ну наконец то надеюсь рекламы не много

29-08-2016 06:40 Заклятие 2 Скачать торрент  

Фильм классный, очень понравился. Рекламы не много

Дорогой пользователь! Огромная просьба, поблагодарите релизера, оцените раздачу и оставьте свои комментарий, если Вы скачали Заклятие 2 через торрент бесплатно! Внесите свою лепту в развитие PiratBit!

Комментировать посты могут только пользователи прошедшие не сложную регистрацию

Заклятие 2 через торрент Скачать бесплатно Заклятие 2 Заклятие 2 скачать торрент Заклятие 2 смотреть онлайн Cкачать фильм Заклятие 2 бесплатно Заклятие 2 скачать торрент в хорошем качестве Заклятие 2 смотреть онлайн бесплатно в хорошем качестве

Вы можете начинать темыВы можете отвечать на сообщенияВы не можете редактировать свои сообщенияВы не можете удалять свои сообщенияВы не можете голосовать в опросахВы не можете прикреплять файлы к сообщениямВы можете скачивать файлы

piratbit.ru

Скачать фильм Заклятие 2 через торрент в хорошем качестве бесплатно 1080p / iTunes

General

Unique ID : 250474127405135329735491301741080251045 (0xBC6F8FEE1170F0339FF53471FD5A8AA5)

Complete name : G:VideoThe.Conjuring.2.2016.BDRip.1080p.ExKinoRay.mkv

Format : Matroska

Format version : Version 4 / Version 2

File size : 14.2 GiB

Duration : 2 h 13 min

Overall bit rate : 15.2 Mb/s

Movie name : The.Conjuring.2.2016.BDRip.1080p.ExKinoRay

Encoded date : UTC 2016-08-30 20:25:18

Writing application : mkvmerge v8.3.0 ('Over the Horizon') 64bit

Writing library : libebml v1.3.1 + libmatroska v1.4.2

Video

ID : 1

Format : AVC

Format/Info : Advanced Video Codec

Format profile : [email protected]

Format settings, CABAC : Yes

Format settings, ReFrames : 5 frames

Codec ID : V_MPEG4/ISO/AVC

Duration : 2 h 13 min

Bit rate : 14.2 Mb/s

Width : 1 920 pixels

Height : 800 pixels

Display aspect ratio : 2.40:1

Frame rate mode : Constant

Frame rate : 23.976 (24000/1001) FPS

Color space : YUV

Chroma subsampling : 4:2:0

Bit depth : 8 bits

Scan type : Progressive

Bits/(Pixel*Frame) : 0.386

Stream size : 13.3 GiB (93%)

Writing library : x264 core 148 r2705kMod 3f5ed56

Encoding settings : cabac=1 / ref=5 / deblock=1:-3:-3 / analyse=0x3:0x113 / me=umh / subme=11 / psy=1 / fade_compensate=0.00 / psy_rd=1.05:0.00 / mixed_ref=1 / me_range=32 / chroma_me=1 / trellis=2 / 8x8dct=1 / cqm=0 / deadzone=21,11 / fast_pskip=0 / chroma_qp_offset=-2 / threads=12 / lookahead_threads=2 / sliced_threads=0 / nr=0 / decimate=0 / interlaced=0 / bluray_compat=0 / constrained_intra=0 / fgo=0 / bframes=8 / b_pyramid=2 / b_adapt=2 / b_bias=0 / direct=3 / weightb=1 / open_gop=0 / weightp=2 / keyint=240 / keyint_min=23 / scenecut=40 / intra_refresh=0 / rc_lookahead=40 / rc=2pass / mbtree=0 / bitrate=14200 / ratetol=1.0 / qcomp=0.65 / qpmin=10 / qpmax=69 / qpstep=4 / cplxblur=20.0 / qblur=0.5 / vbv_maxrate=62500 / vbv_bufsize=78125 / nal_hrd=none / filler=0 / ip_ratio=1.25 / pb_ratio=1.15 / aq=1:0.60

Language : English

Default : Yes

Forced : No

Audio #1

ID : 2

Format : AC-3

Format/Info : Audio Coding 3

Mode extension : CM (complete main)

Format settings, Endianness : Big

Codec ID : A_AC3

Duration : 2 h 13 min

Bit rate mode : Constant

Bit rate : 384 kb/s

Channel(s) : 6 channels

Channel positions : Front: L C R, Side: L R, LFE

Sampling rate : 48.0 kHz

Frame rate : 31.250 FPS (1536 spf)

Compression mode : Lossy

Delay relative to video : 928 ms

Stream size : 368 MiB (3%)

Title : iTunes

Language : Russian

Default : Yes

Forced : No

Audio #2

ID : 3

Format : AC-3

Format/Info : Audio Coding 3

Mode extension : CM (complete main)

Format settings, Endianness : Big

Codec ID : A_AC3

Duration : 2 h 13 min

Bit rate mode : Constant

Bit rate : 640 kb/s

Channel(s) : 6 channels

Channel positions : Front: L C R, Side: L R, LFE

Sampling rate : 48.0 kHz

Frame rate : 31.250 FPS (1536 spf)

Compression mode : Lossy

Stream size : 613 MiB (4%)

Title : Original

Language : English

Default : No

Forced : No

Text #1

ID : 4

Format : UTF-8

Codec ID : S_TEXT/UTF8

Codec ID/Info : UTF-8 Plain Text

Duration : 2 h 13 min

Bit rate : 42 b/s

Count of elements : 1387

Stream size : 41.1 KiB (0%)

Title : Full

Language : English

Default : No

Forced : No

Text #2

ID : 5

Format : UTF-8

Codec ID : S_TEXT/UTF8

Codec ID/Info : UTF-8 Plain Text

Duration : 2 h 13 min

Bit rate : 50 b/s

Count of elements : 1743

Stream size : 49.0 KiB (0%)

Title : SDH

Language : English

Default : No

Forced : No

Menu

00:00:00.000 : en:00:00:00.000

00:08:24.671 : en:00:08:24.671

00:18:40.703 : en:00:18:40.703

00:28:34.212 : en:00:28:34.212

00:40:01.399 : en:00:40:01.399

00:48:46.841 : en:00:48:46.841

01:02:14.314 : en:01:02:14.314

01:09:29.665 : en:01:09:29.665

01:21:55.869 : en:01:21:55.869

01:29:26.486 : en:01:29:26.486

01:38:53.469 : en:01:38:53.469

01:48:15.364 : en:01:48:15.364

02:03:10.508 : en:02:03:10.508

02:07:36.816 : en:02:07:36.816

piratbit.ru

Скачать фильм Заклятие 2 через торрент в хорошем качестве бесплатно Заклятие 2 / The Conjuring 2 (Джеймс Ван) [2016 г.

Format : MatroskaFormat version : Version 4 / Version 2File size : 1.46 GiBDuration : 2h 13mnOverall bit rate : 1 560 KbpsMovie name : Заклятие 2 / The Conjuring 2 (2016) :: AFM ::Encoded date : UTC 2016-08-31 12:55:21Writing application : mkvmerge v8.3.0 ('Over the Horizon') 32bitWriting library : libebml v1.3.1 + libmatroska v1.4.2

VideoID : 1Format : AVCFormat/Info : Advanced Video CodecFormat profile : [email protected] settings, CABAC : YesFormat settings, ReFrames : 10 framesCodec ID : V_MPEG4/ISO/AVCDuration : 2h 13mnBit rate : 1 175 KbpsWidth : 984 pixelsHeight : 410 pixelsDisplay aspect ratio : 2.40:1Frame rate mode : ConstantFrame rate : 23.976 fpsColor space : YUVChroma subsampling : 4:2:0Bit depth : 8 bitsScan type : ProgressiveBits/(Pixel*Frame) : 0.121Stream size : 1.07 GiB (73%)Title : BDRip by AFM [RuTracker.org]Writing library : x264 core 148 r2705+54 9f484c1 t_mod_Custom [[email protected] X86_64]Encoding settings : cabac=1 / ref=10 / deblock=1:-2:-1 / analyse=0x3:0x113 / me=umh / subme=10 / psy=1 / fade_compensate=0.00 / psy_rd=1.00:0.00 / mixed_ref=1 / me_range=32 / chroma_me=1 / trellis=2 / 8x8dct=1 / cqm=0 / deadzone=21,11 / fast_pskip=0 / chroma_qp_offset=-2 / threads=6 / lookahead_threads=1 / sliced_threads=0 / nr=0 / decimate=0 / interlaced=0 / bluray_compat=0 / constrained_intra=0 / fgo=0 / bframes=14 / b_pyramid=2 / b_adapt=2 / b_bias=0 / direct=3 / weightb=1 / open_gop=0 / weightp=2 / keyint=250 / keyint_min=23 / scenecut=40 / intra_refresh=0 / rc_lookahead=40 / rc=2pass / mbtree=0 / bitrate=1175 / ratetol=1.0 / qcomp=0.65 / qpmin=0:0:0 / qpmax=69:69:69 / qpstep=4 / cplxblur=20.0 / qblur=0.5 / vbv_maxrate=50000 / vbv_bufsize=62500 / nal_hrd=none / filler=0 / ip_ratio=1.33 / pb_ratio=1.29 / aq=1:0.90 / aq-sensitivity=10.00 / aq-factor=1.00:1.00:1.00 / aq2=0 / aq3=0Language : EnglishDefault : YesForced : No

AudioID : 2Format : AC-3Format/Info : Audio Coding 3Mode extension : CM (complete main)Format settings, Endianness : BigCodec ID : A_AC3Duration : 2h 13mnBit rate mode : ConstantBit rate : 384 KbpsChannel(s) : 6 channelsChannel positions : Front: L C R, Side: L R, LFESampling rate : 48.0 KHzBit depth : 16 bitsCompression mode : LossyStream size : 368 MiB (25%)Title : Dub, AC3 5.1 ~384 kbpsLanguage : RussianDefault : YesForced : No

TextID : 3Format : UTF-8Codec ID : S_TEXT/UTF8Codec ID/Info : UTF-8 Plain TextTitle : forcedLanguage : RussianDefault : YesForced : No

Menu00:00:00.000 : en:Chapter 0100:08:24.671 : en:Chapter 0200:18:40.703 : en:Chapter 0300:28:34.212 : en:Chapter 0400:40:01.399 : en:Chapter 0500:48:46.841 : en:Chapter 0601:02:14.314 : en:Chapter 0701:09:29.665 : en:Chapter 0801:21:55.869 : en:Chapter 0901:29:26.486 : en:Chapter 1001:38:53.469 : en:Chapter 1101:48:15.364 : en:Chapter 1202:03:10.508 : en:Chapter 1302:07:36.816 : en:Chapter 14

piratbit.ru

Скачать фильм Заклятие 2 через торрент в хорошем качестве бесплатно BDRip от Twi7ter

Раздают: 2 [ 0 KB/s ]
Размер: 2.12 GB | Добавлен: 1 год 1 мес. назад | Торрент скачан:1863 раза
Реклама Дарим 3000 рублей за регистрацию, не упусти свой шанс получить шикарный бонус!!!

01-09-2016 20:02 Заклятие 2 Скачать торрент  

Заклятие 2 / The Conjuring 2

«The next true story from the case files of Ed and Lorraine Warren»

Год выпуска: 2016Страна: США, КанадаЖанр: ужасы, триллер, детективПродолжительность: 02:13:52Перевод: Профессиональный (полное дублирование) [iTunes]Субтитры: Русские (на надписи и прочее) - вшитыеРежиссер: Джеймс ВанВ ролях: Патрик Уилсон (Ed Warren), Вера Фармига (Lorraine Warren), Мэдисон Вульф (Janet Hodgson), Фрэнсис О’Коннор (Peggy Hodgson), Лорен Эспозито (Margaret Hodgson), Бенжамин Хэй (Billy Hodgson), Патрик МакОли (Johnny Hodgson), Саймон МакБерни (Maurice Grosse), Мария Дойл Кеннеди (Peggy Nottingham), Саймон Делани (Vic Nottingham), Франка Потенте (Anita Gregory), Боб Адриан (Bill Wilkins)Описание: Фильм основан на случае, с которым столкнулись практикующие исследователи паранормальных явлений Эд и Лоррэйн Уоррены. На этот раз вызов будет из северного пригорода Лондона, где семья, состоящая из четырех детей и матери-одиночки, подвергается нападениям потусторонних сил. Супругам предстоит выяснить, какова природа этих явлений, полтергейст ли это, или что-то другое, и главное - почему именно этот дом и именно эта семья.Рейтинг:

MPAA: R - Лицам до 17 лет обязательно присутствие взрослого

Качество: BDRip | исх. THE_CONJURING_2_REMUX_HDCLUB |Формат: AVIВидео кодек: XviDАудио кодек: AC3Видео: 720x304 (2.37:1), 23.976 fps, XviD build 73 ~1880 kbps avg, 0.36 bit/pixelАудио: 48 kHz, AC3 Dolby Digital, 3/2 (L,C,R,l,r) + LFE ch, ~384 kbps

Релиз: &

Скачать Заклятие 2 через торрент http://s018.radikal.ru/i528/1609/f7/1721dd4e223c.png Скачать фильм Заклятие 2 через торрент бесплантно в хорошем качестве Описание: Фильм основан на случае, с которым столкнулись практикующие исследователи паранормальных явлений Эд и Лоррэйн Уоррены. На этот ... 2016-09-01 20:02 9.4 10 27

Loading...

Loading...

% Раздел Тема Автор DL S | L
Фильмы 2016 [DVDrip, WEB-DLRip, HDrip] (DUB, MVO) [ 691 MB ] Заклятие 2 / The Conjuring 2 [2016 HDRip PsYcho Скачать
Фильмы [HD 720p, 1080p] (Хороший звук DUB, MVO) [ 14.23 GB ] Заклятие 2 / The Conjuring 2 [2016 BDRip 1080p / ] Ворон Скачать
Фильмы [HD 720p, 1080p] (Хороший звук DUB, MVO) [ 7.93 GB ] Заклятие 2 / The Conjuring 2 [2016 BDRip 720p] smaster Скачать
Фильмы 2016 [DVDrip, WEB-DLRip, HDrip] (DUB, MVO) [ 1.46 GB ] Заклятие 2 / The Conjuring 2 [2016 ВDRip-AVC] Dub / God_Slayer Скачать
Фильмы 2016 [DVDrip, WEB-DLRip, HDrip] (DUB, MVO) [ 2.05 GB ] Заклятие 2 / The Conjuring 2 [2016 HDRip ] Ворон Скачать
R.G.Resident - Фильмы, Видео [ 2.38 GB ] Заклятие 2 / The Conjuring 2 [2016 BDRip-AVC ] schultz Скачать

Рекламный пират

02-09-2016 05:23 Заклятие 2 Скачать торрент  

спасибо за фильм)

10-09-2016 14:36 Заклятие 2 Скачать торрент  

Дорогой пользователь! Огромная просьба, поблагодарите релизера, оцените раздачу и оставьте свои комментарий, если Вы скачали Заклятие 2 через торрент бесплатно! Внесите свою лепту в развитие PiratBit!

Комментировать посты могут только пользователи прошедшие не сложную регистрацию

Заклятие 2 через торрент Скачать бесплатно Заклятие 2 Заклятие 2 скачать торрент Заклятие 2 смотреть онлайн Cкачать фильм Заклятие 2 бесплатно Заклятие 2 скачать торрент в хорошем качестве Заклятие 2 смотреть онлайн бесплатно в хорошем качестве

Вы можете начинать темыВы можете отвечать на сообщенияВы не можете редактировать свои сообщенияВы не можете удалять свои сообщенияВы не можете голосовать в опросахВы не можете прикреплять файлы к сообщениямВы можете скачивать файлы

piratbit.ru


Смотрите также