Скачать фильм залив через торрент в хорошем качестве


Скачать фильм Залив (2012) через торрент

23 июня 2016 12:55 Залив / The Bay (2012) DVD9 от New-Team | P | лицензия .torrent   [Информация о файле (нажмите для просмотра)] Перевод: Профессиональный (многоголосый закадровый)Контейнер: DVD VideoВидео: PAL 16x9 (720х576) VBR ~ 8963 kbps, Auto LetterboxedАудио 1: 48 kHz, Dolby AC3 5.1 448 kbps, русскийАудио 2: 48 kHz, Dolby AC3 2.0 192 kbps, русскийАудио 3: 48 kHz, Dolby AC3 5.1 384 kbps, английский 5,68 Gb 5 8 23 июня 2016 12:55 Залив / The Bay (2012) BDRemux 1080p от HDCLUB | P .torrent   [Информация о файле (нажмите для просмотра)] Перевод: Профессиональный (многоголосый, закадровый), R5Формат: BDAVКодек: MPEG-4 AVCКачество: BDRemux 1080pВидео: 1920x1080 ~ 25948 kbps 23.976 fpsСубтитры: Russian, English, German 17,73 Gb 4 5 23 июня 2016 12:55 Залив / The Bay (2012) BDRip от HQCLUB | Лицензия .torrent   [Информация о файле (нажмите для просмотра)] Перевод: Профессиональный (многоголосый, закадровый) R5 + Оригинал (английский)Субтитры: русские, английскиеФормат: AVIКачество: BDRip (источник:Видео: 704x384 (1.83:1), 23.976 fps, XviD build 65 ~1814 kbps avg, 0.28 bit/pixelАудио #1: 48 kHz, AC3 Dolby Digital, 2/0 (L,R) ch, ~192 kbps avg (MVO) R5Аудио #2: 48 kHz, AC3 Dolby Digital, 3/2 (L,C,R,l,r) + LFE ch, ~448 kbps avg (ENG)Аудио #3: 48 kHz, AC3 Dolby Digital, 2/0 (L,R) ch, ~192 kbps avg (UKR.MVO.1PLUS1)(отдельно)Аудио #4: 48 kHz, AC3 Dolby Digital, 2/0 (L,R) ch, ~192 kbps avg (MVO.ROSSIYA)(отдельно)Аудио #5: 48 kHz, AC3 Dolby Digital, 2/0 (L,R) ch, ~192 kbps avg (MVO.REN-TV)(отдельно)Аудио #6: 48 kHz, AC3 Dolby Digital, 3/2 (L,C,R,l,r) + LFE ch, ~448 kbps avg (DVO.VIRUSE.PROJECT)(отдельно) 1,46 Gb 5 3 23 июня 2016 12:55 Залив / The Bay (2012) HDRip от BitTracker .torrent   [Информация о файле (нажмите для просмотра)] Перевод: Профессиональный (многоголосый закадровый)R5Кодек: XviDКачество: HDRip (Исх. BDRip 720p)Видео: 656x352 (1.86:1), 23.976 fps, XviD build 50 ~1093 kbps avg, 0.20 bit/pixelЗвук: 48 kHz, MPEG Layer 3, 2 ch, ~128.00 kbps avgСубтитры: нет 744,51 Mb 3 1 23 июня 2016 12:55 Залив / The Bay (2012) BDRip 720p от olegek70 | P, L2 .torrent   [Информация о файле (нажмите для просмотра)] Перевод: Профессиональный многоголосый (R5), любительский двухголосый (ViruseProject)Кодек: H.264Формат: MKVКачество: BDRip 720p (Blu-Ray Remux (1080р))Видео: MPEG-4 AVC, 4650 Кбит/с, 1280х688Звук: Русский (АС3, 2 ch, 192 Кбит/с - ПМ), (DTS, 6 ch, 1510 Кбит/с - ЛД), английский (DTS, 6 ch, 1510 Кбит/с) 4,64 Gb 4 3 23 июня 2016 12:55 Залив / The Bay (2012) BDRip-AVC от olegek70 | P, L2 .torrent   [Информация о файле (нажмите для просмотра)] Перевод: Профессиональный многоголосый (R5), любительский двухголосый (ViruseProject)Кодек: H.264Формат: MKVКачество: BDRip-AVC (Blu-Ray Remux (1080р))Видео: MPEG-4 AVC, 3563 Кбит/с, 1024х552Звук: Русский (АС3, 2 ch, 192 Кбит/с - ПМ), (АС3, 6 ch, 448 Кбит/с - ЛД), английский (АС3, 6 ch, 448 Кбит/с) 2,75 Gb 1 4 23 июня 2016 12:55 Залив / The Bay (2012) BDRip-AVc от potroks | P | Лицензия .torrent   [Информация о файле (нажмите для просмотра)] Перевод: Профессиональный (многоголосый закадровый) R5Субтитры: Английские, русские (R5)Качество: BDRip-AVC [BDRemux]Формат: MKVВидео: H.264, 960x518 (1,85:1), 23,976 fps, 3067 Кbps, 0.257 bit/pixelАудио#1: 48 kHz, AC3 Dolby Digital, 2/0 (L,C) ch, 192.00 kbps |RUSАудио#2: 48 kHz, AC3 Dolby Digital, 3/2 (L,C,R,l,r) + LFE ch, 448.00 kbps |ENGВидео: Идентификатор : 1 Формат : AVC Формат/Информация : Advanced Video Codec Профиль формата : [email protected] Параметр CABAC формата : Да Параметр ReFrames формата : 9 кадров Идентификатор кодека : V_MPEG4/ISO/AVC Продолжительность : 1 ч. 24 м. Битрейт : 3067 Кбит/сек Ширина : 960 пикселей Высота : 518 пикселей Соотношение сторон : 1,85:1 Режим частоты кадров : Постоянный Частота кадров : 23,976 кадра/сек Цветовое пространство : YUV Субдискретизация насыщенности : 4:2:0 Битовая глубина : 8 бит Тип развёртки : Прогрессивная Бит/(Пиксели*Кадры) : 0.257 Размер потока : 1,77 Гбайт (81%) Заголовок : The Bay Библиотека кодирования : x264 core 125 r2208 d9d2288 Настройки программы : cabac=1 / ref=9 / deblock=1:-2:-1 / analyse=0x3:0x133 / me=umh / subme=11 / psy=1 / psy_rd=1.12:0.08 / mixed_ref=1 / me_range=32 / chroma_me=1 / trellis=2 / 8x8dct=1 / cqm=0 / deadzone=21,11 / fast_pskip=0 / chroma_qp_offset=-3 / threads=9 / lookahead_threads=1 / sliced_threads=0 / nr=0 / decimate=1 / interlaced=0 / bluray_compat=0 / constrained_intra=0 / bframes=10 / b_pyramid=2 / b_adapt=2 / b_bias=0 / direct=3 / weightb=1 / open_gop=0 / weightp=2 / keyint=240 / keyint_min=23 / scenecut=40 / intra_refresh=0 / rc_lookahead=100 / rc=2pass / mbtree=1 / bitrate=3067 / ratetol=1.0 / qcomp=0.70 / qpmin=0 / qpmax=69 / qpstep=4 / cplxblur=20.0 / qblur=0.5 / vbv_maxrate=20000 / vbv_bufsize=25000 / nal_hrd=none / ip_ratio=1.35 / aq=1:0.80 Язык : English Default : Да Forced : НетАудио #1: Идентификатор : 2 Формат : AC-3 Формат/Информация : Audio Coding 3 Расширение режима : CM (complete main) Параметр Endianness формата : Big Идентификатор кодека : A_AC3 Продолжительность : 1 ч. 24 м. Вид битрейта : Постоянный Битрейт : 192 Кбит/сек Каналы : 2 канала Расположение каналов : Front: L R Частота : 48,0 КГц Битовая глубина : 16 бит Метод сжатия : С потерями Размер потока : 116 Мбайт (5%) Заголовок : MVO | DD 2.0 @ 192 kbps - R5 Язык : Russian Default : Да Forced : ДаАудио #2: Идентификатор : 3 Формат : AC-3 Формат/Информация : Audio Coding 3 Расширение режима : CM (complete main) Параметр Endianness формата : Big Идентификатор кодека : A_AC3 Продолжительность : 1 ч. 24 м. Вид битрейта : Постоянный Битрейт : 448 Кбит/сек Каналы : 6 каналов Расположение каналов : Front: L C R, Side: L R, LFE Частота : 48,0 КГц Битовая глубина : 16 бит Метод сжатия : С потерями Размер потока : 271 Мбайт (12%) Заголовок : Original | DD 5.1 @ 448 kbps Язык : English Default : Нет Forced : Нет 2,19 Gb 3 3 23 июня 2016 12:55 Залив / The Bay (2012) DVDRip AVC от Киномагия l P .torrent   [Информация о файле (нажмите для просмотра)] Перевод: Профессиональный (многоголосый, закадровый)лицензияКодек: H.264Качество: DVDRip AVCВидео: AVC, 720x576>1024x536, 2023 кб/с, 25. fpsЗвук: AC3, 6 ch, 448 кб/с, 48.0 KHz 1,43 Gb 2 5 23 июня 2016 12:55 Залив / The Bay (2012) DVDRip | Лицензия .torrent   [Информация о файле (нажмите для просмотра)] Перевод: Профессиональный многоголосый (Лицензия)Кодек: XviDКачество: DVDRipВидео: 1904 kb/s, 720x384Звук: AC3, 6 ch, 448 Кбит/с) 1,37 Gb 3 1

gig-torrent.net

Залив торрент скачать | Скачать торренты в BDRip и HDRip качестве

Тайны древних 5. Залив Мутные воды. Коллекционное издание (2016) PC873.6 MBГудзонов залив / Компания Гудзонова залива / Hudson’s Bay (Ирвинг Пичел / Irving Pichel) [1941, США, вестерн, приключения, DVD5 (Custom)] VO (NezPerce) + Original Eng3.94 GBDead Reckoning 5: Snowbird's Creek / Точный расчет 5: Залив Сноуберд (2016) [Ru] (1.0) Unofficial [Collector's Edition / Коллекционное издание]631 MBMystery of the Ancients 5: Mud Water Creek [CE] / Тайны древних 5: Залив Мутные воды [КИ] [P] [RUS / ENG] (2016)3.94 GBКровавый залив / Reazione a catena (1971) BDRip 720p | L14.49 GBКрасный залив / Red Billabong / 2016 / ПМ / HDRip / 1.46 ГБ31 MBDead Reckoning 5: Snowbird's Creek Collectors Edition / Точный расчет 5: Залив Сноуберд Коллекционное издание [P] [RUS / ENG] (2016)5 GBЗалив / The Bay (Барри Левинсон / Barry Levinson) [2012, США, ужасы, фантастика, триллер, HDRip] MVOx35.38 GBАлжирский залив / La baie d'Alger (Мерзак Аллуаш / Merzak Allouache) [2011, Франция, драма, комедия, экранизация, DVB -> DVD] Original (Fre) + Sub (Rus, Eng, Fre, Deu)1.46 GBЗалив / The Bay (2012) BDRemux 1080p от HDCLUB | P17.73 GBЗалив / The Bay (Барри Левинсон / Barry Levinson) [2012, США, Ужасы, триллер, фантастика, BDRip-AVC] MVO (R5) + DVO (ViruseProject) + Sub (Rus, Eng) + Original Eng44.7 MBЗалив / The Bay (Барри Левинсон / Barry Levinson) [2012, США, Ужасы, триллер, фантастика, HDRip] MVO (R5)46.57 GBЗалив Ангелов / La Baie des Anges / 1963 / ЛО, СТ / DVDRip / 817 МБ1.33 GBЗалив ангелов / La baie des anges / Bay of Angels (Жак Деми / Jacques Demy) [1963, Франция, драма, мелодрама, DVD9 (Custom)] [16:9 NTSC R1] Criterion#715, VO (mangeim) + Sub Eng Rus (Seandy) + Original Fre46.57 GBЗалив / The Bay (Барри Левинсон / Barry Levinson) [2012, США, ужасы, фантастика, триллер, BDRemux 1080p] MVO (R5) + DVO ( ViruseProject ) + Original (Eng) + Subs (Rus, Eng)46.57 GBМайн Рид - Гудзонов залив [Рябцев Е.Г, 2007, 128 кбит/с]5.4 GBNavionics 44XG gold Все Балтийское море, Ботнический залив, Финский залив, озеро Пейпси, Берлинское озеро. Вся Швеция, включая озера от юга Норвегии до Флеккефьорда. Финские озера, включая Инариярви, Портипадан Текоярви, Локан Текоярви, Миякоярви, Эм44.7 MBЗалив Аламо / Alamo Bay / 1985 / ПМ / BDRip / 1.46 ГБ1.83 GBКровавый залив / Reazione a catena / Twitch of the Death Nerve / A Bay of Blood (Марио Бава / Mario Bava) [1971, ужасы, триллер, детектив, BDRemux 1080p] VO4.1 GBGarmin Mapsource [RUSSIA][NORTH-WEST] [BlueChart] (gpsspbmap.narod.ru) Финский залив, Нева2.78 GBЗалив / The Bay (Барри Левинсон / Barry Levinson) [2012, США, Ужасы, триллер, фантастика, BDRip 720p] MVO (R5) + DVO (ViruseProject) + Sub (Rus, Eng) + Original Eng217.9 MBФинский залив23.88 GBЛунный залив (Мунфлит, Лунный свет) / Moonfleet / 1955 / ЛО, СТ / DVDRip / 1.37 ГБ8.45 GBЗалив счастья / 1987 / РУ / IPTVRip / 1.02 ГБ1.57 GBЗалив счастья (Владимир Лаптев) [1987, Исторический, SATRip]5.4 GBГудзонов залив / Компания Гудзонова залива / Hudson’s Bay (Ирвинг Пичел / Irving Pichel) [1941, США, вестерн, приключения, DVDRip] VO1.46 GBГудзонов залив / Hudson’s Bay / 1941 / ЛО / DVDRip / 1.37 ГБ1.46 GBОбучающее видео (Урок 1-12 из 12) Как залить раздачу / 2009 / РУ, СТ / CamStudio / 176 МБ5 GBDiscovery. Дикие блюда (1 сезон: 5 серия из 14) Мексиканский залив / Bizarre Foods / Bizarre Foods with Andrew ... / 2007 / ПО / IPTVRip / 471 МБ1.57 GBГудзонов залив / Hudson’s Bay / 1941 / ЛО / DVDRip / 744 МБ745 MBЛунный залив (Мунфлит, Лунный свет) / Moonfleet / 1955 / ЛО / DVDRip / 1.27 ГБ800 MBКрасный залив / Red Billabong (Люк Спарк / Luke Sparke) [2016 г., боевик, триллер, приключения, HDRip] MVO1.46 GBЗалив (Бухта) / The Bay / 2012 / ПМ, СТ / BDRip (1080p) / 5.72 ГБ800 MBЗалив / The Bay (2012) BDRip [H.264]2.19 GBDiscovery. Бристольский залив (1-8 серии из 8) / Alaska: Battle on the Bay / 2014 / ПО / HDTVRip (720p) / 9.97 ГБ23.88 GBЗалив / The Bay (2012) BDRip от HQCLUB | Лицензия1.46 GBDiscovery. Бристольский залив / Alaska: Battle on the Bay [01] (2014) HDTVRip от GeneralFilm | P1543.62 MBЛунный залив (Мунфлит, Лунный свет) / Moonfleet / 1955 / ЛО, СТ / DVD-9 / 7.55 ГБ5.44 GBЗалив (Бухта) / The Bay / 2012 / ЛД / BDRip (720p) / 2.63 ГБ4.1 GBЗалив Ангелов / La Baie des Anges / 1963 / ЛО, СТ / DVD-9 / 5.18 ГБ5.44 GBЗалив / The Bay (2012) DVD9 от New-Team | P | лицензия5.68 GBЗалив Аламо / Alamo Bay / 1985 / ПМ / Blu-Ray Remux (1080p) / 27.02 ГБ1.37 GBЗалив (Бухта) / The Bay / 2012 / ПМ / HDRip / 1.4 ГБ23.88 GBЛунный залив (Мунфлит, Лунный свет) / Moonfleet / 1955 / ЛО / DVDRip / 777 МБ1.36 GBDiscovery. Бристольский залив (1-8 серии из 8) / Alaska: Battle on the Bay / 2014 / ПО / HDTV (1080i) / 18.24 ГБ8.45 GBЗалив (Бухта) / The Bay / 2012 / ПМ, ЛД, СТ / BDRip (720p) / 4.64 ГБ2 MBОбучающее видео (Как залить раздачу видео) / 2011 / СТ / CamStudio / 114 МБ1.02 GBЗалив (Бухта) / The Bay / 2012 / 3 x ПМ / HDRip / 1.46 ГБ74 MBГудзонов залив / Hudson’s Bay / 1941 / ЛО / DVD-5 / 4.11 ГБ23.88 GBЗалив Сан-Франциско / San Francisco Bay / 1999 / БП / SATRip / 700 МБ130 MB tparser.org – торрент поисковик по популярным торрент трекерам. Находить и скачивать новинки кино в HDRip и BDRip качестве через tparser намного проще! Добро пожаловать на крупный торрент архив фильмов и игр tparser.org. Вам больше не придется искать торренты на основных торрент трекерах в поисках нужной раздачи – мы предлагаем найти и скачать фильмы в хорошем качестве прямо на нашем сайте. Наш сервис поиска торрентов в реальном времени собирает информацию с крупных торрент трекеров и сортирует полученные результаты в удобную таблицу. Скачивайте торренты без ограничений и без всяких регистраций на трекерах. Начните скачивать торрент Залив прямо сейчас!

tparser.org

Скачать фильм Залив Аламо через торрент в хорошем качестве бесплатно 1080p by msltel

ОбщееУникальный идентификатор : 214938894218005723851533768291948736791 (0xA1B3B9AA8F70649A969A07095E44B117)Полное имя : D:\Video\Залив Аламо.1985.BDRip.1080p.mkvФормат : MatroskaВерсия формата : Version 4 / Version 2Размер файла : 13,7 ГбайтПродолжительность : 1 ч. 38 м.Общий поток : 19,9 Мбит/секДата кодирования : UTC 2016-08-27 05:25:27Программа кодирования : mkvmerge v8.2.0 ('World of Adventure') 64bitБиблиотека кодирования : libebml v1.3.1 + libmatroska v1.4.2

ВидеоИдентификатор : 1Формат : AVCФормат/Информация : Advanced Video CodecПрофиль формата : [email protected]Параметр CABAC формата : ДаПараметр ReFrames формата : 4 кадраИдентификатор кодека : V_MPEG4/ISO/AVCПродолжительность : 1 ч. 38 м.Битрейт : 18,9 Мбит/секШирина : 1920 пикселейВысота : 1040 пикселейСоотношение сторон : 1,85:1Режим частоты кадров : ПостоянныйЧастота кадров : 23,976 (24000/1001) кадра/секЦветовое пространство : YUVСубдискретизация насыщенности : 4:2:0Битовая глубина : 8 битТип развёртки : ПрогрессивнаяБит/(Пиксели*Кадры) : 0.395Размер потока : 13,0 Гбайт (95%)Библиотека кодирования : x264 core 146 r2538 121396cНастройки программы : cabac=1 / ref=4 / deblock=1:-3:-3 / analyse=0x3:0x113 / me=umh / subme=10 / psy=1 / psy_rd=1.00:0.15 / mixed_ref=1 / me_range=32 / chroma_me=1 / trellis=2 / 8x8dct=1 / cqm=0 / deadzone=21,11 / fast_pskip=1 / chroma_qp_offset=-3 / threads=6 / lookahead_threads=1 / sliced_threads=0 / nr=0 / decimate=1 / interlaced=0 / bluray_compat=0 / constrained_intra=0 / bframes=8 / b_pyramid=2 / b_adapt=2 / b_bias=0 / direct=1 / weightb=1 / open_gop=0 / weightp=2 / keyint=230 / keyint_min=23 / scenecut=40 / intra_refresh=0 / rc_lookahead=40 / rc=crf / mbtree=0 / crf=20.7 / qcomp=0.60 / qpmin=0 / qpmax=69 / qpstep=4 / vbv_maxrate=40000 / vbv_bufsize=50000 / crf_max=0.0 / nal_hrd=none / filler=0 / ip_ratio=1.40 / pb_ratio=1.30 / aq=1:1.00Язык : EnglishDefault : ДаForced : Нет

Аудио #1Идентификатор : 2Формат : AC-3Формат/Информация : Audio Coding 3Расширение режима : CM (complete main)Параметр Endianness формата : BigИдентификатор кодека : A_AC3Продолжительность : 1 ч. 38 м.Вид битрейта : ПостоянныйБитрейт : 192 Кбит/секКаналы : 2 каналаРасположение каналов : Front: L RЧастота : 48,0 КГцЧастота кадров : 31,250 кадров/сек (1536 spf)Метод сжатия : С потерямиРазмер потока : 136 Мбайт (1%)Заголовок : MVOЯзык : RussianDefault : ДаForced : Нет

Аудио #2Идентификатор : 3Формат : DTSФормат/Информация : Digital Theater SystemsРежим : 16Параметр Endianness формата : BigИдентификатор кодека : A_DTSПродолжительность : 1 ч. 38 м.Вид битрейта : ПостоянныйБитрейт : 768 Кбит/секКаналы : 1 каналРасположение каналов : Front: CЧастота : 48,0 КГцЧастота кадров : 93,750 кадра/сек (512 spf)Битовая глубина : 24 битМетод сжатия : С потерямиРазмер потока : 542 Мбайт (4%)Заголовок : originalЯзык : EnglishDefault : НетForced : Нет

ТекстИдентификатор : 4Формат : UTF-8Идентификатор кодека : S_TEXT/UTF8Идентификатор кодека/Информация : UTF-8 Plain TextПродолжительность : 1 ч. 33 м.Битрейт : 52 бит/секCount of elements : 1092Размер потока : 35,7 Кбайт (0%)Заголовок : английские (для слабослышащих)Язык : EnglishDefault : НетForced : Нет

piratbit.ru

Скачать фильм Красный залив через торрент в хорошем качестве бесплатно HDRip

Раздают: 2 [ 0 KB/s ]
Размер: 1.46 GB | Добавлен: 9 мес. назад | Торрент скачан:208 раз
Реклама Дарим 3000 рублей за регистрацию, не упусти свой шанс получить шикарный бонус!!!

04-01-2017 13:35 Красный залив Скачать торрент  

Красный залив / Red Billabong

Год выпуска: 2016Страна: АвстралияЖанр: боевик, триллер, приключенияПродолжительность: 01:53:22Перевод: Любительский многоголосый [@[email protected]]Субтитры: Отсутствуют

Режиссер: Люк Спарк

Премьера в мире: 25 августа 2016

В ролях: Дэниэл Юинг, Тим Пакок, Джессика Грин, Бен Чишолм, Брюс Картер, Кол Эллиотт, Грегори Дж. Фрайер

Описание: В Австралийской глуши двое братьев узнают о старой семейной тайне. Когда начинают пропадать их друзья, становится очевидно, что их преследует кто-то или что-то из самых ужасных кошмаров. Но что это? Вымысел, легенда? Или же все по-настоящему?

Доп. информация: Присутствует реклама!

Качество: HDRipФормат: AVIВидео кодек: XviDАудио кодек: AC3Видео: XviD,720x304, 23,976 fps, 1639 Kbps.Аудио: AC-3,192 Kbps, 2 ch, 48,0 KHz

GeneralComplete name : H:\релизы.торрентфайл\Red_Billabong_2016_HDRip.aviFormat : AVIFormat/Info : Audio Video InterleaveFile size : 1.46 GiBDuration : 1h 53mnOverall bit rate : 1 840 KbpsWriting application : VirtualDubMod 1.5.10.2 (build 2540/release)Writing library : VirtualDubMod build 2540/release

VideoID : 0Format : MPEG-4 VisualFormat profile : Advanced [email protected] settings, BVOP : 2Format settings, QPel : NoFormat settings, GMC : No warppointsFormat settings, Matrix : CustomCodec ID : XVIDCodec ID/Hint : XviDDuration : 1h 53mnBit rate : 1 639 KbpsWidth : 720 pixelsHeight : 304 pixelsDisplay aspect ratio : 2.35:1Frame rate : 23.976 fpsColor space : YUVChroma subsampling : 4:2:0Bit depth : 8 bitsScan type : ProgressiveCompression mode : LossyBits/(Pixel*Frame) : 0.312Stream size : 1.30 GiB (89%)Writing library : XviD 1.2.1 (UTC 2008-12-04)

AudioID : 1Format : AC-3Format/Info : Audio Coding 3Mode extension : CM (complete main)Format settings, Endianness : BigCodec ID : 2000Duration : 1h 53mnBit rate mode : ConstantBit rate : 192 KbpsChannel(s) : 2 channelsChannel positions : Front: L RSampling rate : 48.0 KHzBit depth : 16 bitsCompression mode : LossyStream size : 156 MiB (10%)Alignment : Split accross interleavesInterleave, duration : 42 ms (1.00 video frame)Interleave, preload duration : 500 ms

Скачать Красный залив через торрент http://pic1.pb.wtf/images/11/hmqkc.jpg Скачать фильм Красный залив через торрент бесплантно в хорошем качестве Описание: В Австралийской глуши двое братьев узнают о старой семейной тайне. Когда начинают пропадать их друзья, становится очевидно, что ... 2017-01-04 13:35 9.4 10 14

Loading...

Loading...

Рекламный пират

05-01-2017 06:51 Красный залив Скачать торрент  

Австралийцы не совместно с кем-то, а "в одно лицо" всё же не умеют снимать фильмы. Все хотят иметь своё древнее и ужасное чудовище на фоне какой то местной легенды и австралийцы не исключение, но интересно и красиво снять у них не получилось от слова - никак. Не скажу про адекватность перевода, но сам фильм набор пустых и несвязных реплик и картинок. Скучно, не интересно, уныло и бессвязно. Работа актёров - на три с минусом, работа режиссёра на двойку, работа оператора - твёрдый ноль.з.ы. И кстати приготовитесь лицезреть немало раз по несколько минут плавающие по всему экрану рекламные строчки.

05-01-2017 16:01 Красный залив Скачать торрент  

Юный Чикатилла

05-01-2017 19:45 Красный залив Скачать торрент  

yellow_3000 писал(а):

Сиськи есть?

-Пол-фильма посмотрел ночью, пока ни одной не видел :=((

Сисег нет - деньги на ветер \ _ (ツ) _ /

Тут вообще, чо то мало актёров сымаетца ( ͡° ͜ʖ ͡°)

Дорогой пользователь! Огромная просьба, поблагодарите релизера, оцените раздачу и оставьте свои комментарий, если Вы скачали Красный залив через торрент бесплатно! Внесите свою лепту в развитие PiratBit!

Комментировать посты могут только пользователи прошедшие не сложную регистрацию

Красный залив через торрент Скачать бесплатно Красный залив Красный залив скачать торрент Красный залив смотреть онлайн Cкачать фильм Красный залив бесплатно Красный залив скачать торрент в хорошем качестве Красный залив смотреть онлайн бесплатно в хорошем качестве

Вы не можете начинать темыВы не можете отвечать на сообщенияВы не можете редактировать свои сообщенияВы не можете удалять свои сообщенияВы не можете голосовать в опросахВы не можете прикреплять файлы к сообщениямВы можете скачивать файлы

piratbit.ru


Смотрите также