Скачать фильм замуж на 2 дня через торрент в хорошем качестве


Скачать фильм Замуж на 2 дня (2012) через торрент

28 января 2016 12:32 Замуж на 2 дня / Un plan parfait (2012) BDRip от HQCLUB | Лицензия .torrent   [Информация о файле (нажмите для просмотра)] Перевод: Профессиональный (полное дублирование) + Оригинальная французская звуковая дорожкаСубтитры: нетФормат: AVIКачество: BDRip (источник / BD-Remux / 1080p)Видео: 720x304 (2.37:1), 23.976 fps, XviD build 65 ~2069 kbps avg, 0.39 bit/pixelАудио #1: 48 kHz, AC3 Dolby Digital, 3/2 (L,C,R,l,r) + LFE ch, ~448.00 kbps avgАудио #2: 48 kHz, AC3 Dolby Digital, 3/2 (L,C,R,l,r) + LFE ch, ~448.00 kbps avg 2,18 Gb 151 9 28 января 2016 12:31 Замуж на 2 дня / Un plan parfait (2012) BDRip 720p от NoLimits-Team .torrent   [Информация о файле (нажмите для просмотра)] Перевод: ДублированныйСубтитры: нетКачество: BDRip 720p (исходник Blu-ray Disc)Видео: 1280x544, 2 531 Кбит/сек, 24.000 кадр/сек, AVC, x264, 2.35:1, 0.151 Бит/(Пиксели*Кадры), 2-passАудио: AC-3, 448 Кбит/сек, 6 канала(ов), 48,0 КГц 2,18 Gb 39 3 28 января 2016 12:31 Замуж на 2 дня / Un plan parfait (2012) BDRip 1080p от NoLimits-Team .torrent   [Информация о файле (нажмите для просмотра)] Перевод: ДублированныйСубтитры: нетКачество: BDRip 1080p (исходник Blu-ray Disc)Видео: 1920x816, 5 521 Кбит/сек, 24.000 кадр/сек, AVC, x264, 2.35:1, 0.147 Бит/(Пиксели*Кадры), 2-passАудио: AC-3, 448 Кбит/сек, 6 канала(ов), 48,0 КГц 4,37 Gb 47 3 28 января 2016 12:31 Замуж на 2 дня / Un plan parfait (2012) BDRip-AVC | iPad .torrent   [Информация о файле (нажмите для просмотра)] Перевод: ДублированныйФормат: MP4 (контейнер m4v)Видео: AVC, 1024x432 (2.35:1) at 24.000 fps, AVC at 2927 kbps avg, 0.276 bit/pixelАудио: 48 kHz, AAC, 2ch, 132.3 Kbps | Russian | Дублированный 2,25 Gb 2 5 28 января 2016 12:31 Замуж на 2 дня / Un plan parfait (2012) DVD9 от New-Team | лицензия .torrent   [Информация о файле (нажмите для просмотра)] Перевод: Профессиональный (дублированный) [Лицензия]Кодек: MPEG2Качество: DVDВидео: PAL 16:9 (720x576(0.698)) MPEG Video, 25,000 кадр/сек, 7233 Кбит/секЗвук: Аудио #1: Russian (Dolby AC3, 6 ch) 448 Кбит/сек, 48,0 КГцАудио #2: Russian (DTS, 6 ch) 1536 Кбит/сек, 48,0 КГцСубтитры: украинские 7,71 Gb 2 4 28 января 2016 12:31 Замуж на 2 дня / Un plan parfait (2012) BDRip-AVC от ExKinoRay | D | Лицензия .torrent   [Информация о файле (нажмите для просмотра)] Перевод: ДублированныйКодек: H.264Качество: BDRip-AVCВидео: MPEG-4 AVC, 2629 Кбит/с, 1024x436Звук: AC3, 6 ch, 448 Кбит/сВидео: Идентификатор : 1 Формат : AVC Формат/Информация : Advanced Video Codec Профиль формата : [email protected] Параметр CABAC формата : Да Параметр ReFrames формата : 8 кадров Идентификатор кодека : V_MPEG4/ISO/AVC Продолжительность : 1 ч. 44 м. Битрейт : 2629 Кбит/сек Ширина : 1024 пикселя Высота : 436 пикселей Соотношение сторон : 2,35:1 Частота кадров : 24,000 кадра/сек Цветовое пространство : YUV Субдискретизация насыщенности : 4:2:0 Битовая глубина : 8 бит Тип развёртки : Прогрессивная Бит/(Пиксели*Кадры) : 0.245 Размер потока : 1,88 Гбайт (83%) Заголовок : Rip by Enigma-Vladislav71 Библиотека кодирования : x264 core 129 r2245 bc13772 Настройки программы : cabac=1 / ref=8 / deblock=1:-2:-2 / analyse=0x3:0x133 / me=umh / subme=11 / psy=1 / psy_rd=1.00:0.00 / mixed_ref=1 / me_range=48 / chroma_me=1 / trellis=2 / 8x8dct=1 / cqm=0 / deadzone=21,11 / fast_pskip=0 / chroma_qp_offset=-2 / threads=3 / lookahead_threads=1 / sliced_threads=0 / nr=0 / decimate=0 / interlaced=0 / bluray_compat=0 / constrained_intra=0 / bframes=8 / b_pyramid=2 / b_adapt=2 / b_bias=0 / direct=3 / weightb=1 / open_gop=0 / weightp=2 / keyint=240 / keyint_min=23 / scenecut=40 / intra_refresh=0 / rc_lookahead=40 / rc=2pass / mbtree=1 / bitrate=2629 / ratetol=1.0 / qcomp=0.60 / qpmin=10 / qpmax=51 / qpstep=4 / cplxblur=20.0 / qblur=0.5 / ip_ratio=1.40 / aq=2:1.00 Язык : EnglishАудио: Идентификатор : 2 Формат : AC-3 Формат/Информация : Audio Coding 3 Расширение режима : CM (complete main) Идентификатор кодека : A_AC3 Продолжительность : 1 ч. 44 м. Вид битрейта : Постоянный Битрейт : 448 Кбит/сек Каналы : 6 каналов Расположение каналов : Front: L C R, Side: L R, LFE Частота : 48,0 КГц Битовая глубина : 16 бит Метод сжатия : С потерями Размер потока : 336 Мбайт (15%) Язык : Russian 2,25 Gb 6 5 28 января 2016 12:31 Замуж на 2 дня / Un plan parfait (2012) HDRip от Scarabey | D | Лицензия .torrent   1,45 Gb 509 13 28 января 2016 12:31 Замуж на 2 дня / Un plan parfait (2012) HDRip от Scarabey | D | Лицензия .torrent   745,61 Mb 30 3 28 января 2016 12:31 Замуж на 2 дня / Un plan parfait (2012) BDRip от Rulya74 .torrent   2,06 Gb 5 1 28 января 2016 12:31 Замуж на 2 дня / Un plan parfait (2012) BDRip-AVC от potroks | D | Лицензия .torrent   [Информация о файле (нажмите для просмотра)] Перевод: Профессиональный (полное дублирование) Качество: BDRip-AVC [Zamuzh.na.2.dnja.2012.D.BD.IRONCLUB]Формат: MKVВидео: H.264, 1040x442 (2.35:1), 24,000 fps, 2529 Кbps, 0.229 bit/pixelАудио: 48 kHz, AC3 Dolby Digital, 3/2 (L,C,R,l,r) + LFE ch, ~448.00 kbps avg 2,18 Gb 30 5 28 января 2016 12:31 Замуж на 2 дня / Un plan parfait (2012) HDRip от Torrent-Xzona | КПК .torrent   [Информация о файле (нажмите для просмотра)] Перевод: ДублированноеКодек: х264Качество: HDRip | КПКВидео: 480х200, 23,976 кадра/сек, 353 Кбит/секЗвук: ААС LC, 2 ch, 128 Кбит/сек 340 Mb 9 2 28 января 2016 12:31 Замуж на 2 дня / Un plan parfait (2012) BDRip 1080p .torrent   [Информация о файле (нажмите для просмотра)] Перевод: Дублированный[Лицензия]Кодек: AVCКачество: BDRip 1080pВидео: 1920x816, 24 fps, 12.9 MbpsЗвук: DTS, 48 kHz, 6 ch, 755 kbps 10,18 Gb 8 6 28 января 2016 12:31 Замуж на 2 дня / Un plan parfait (2012) BDRip 720p .torrent   [Информация о файле (нажмите для просмотра)] Перевод: Дублированный[Лицензия]Кодек: AVCКачество: BDRip 720pВидео: 1280x544, 24 fps, 5448 kbpsЗвук: DTS, 48 kHz, 6 ch, 755 kbps 4,64 Gb 7 4 28 января 2016 12:31 Замуж на 2 дня / Un plan parfait (2012) DVDRip-AVC от New-Team .torrent   [Информация о файле (нажмите для просмотра)] Перевод: Профессиональный (дублированный) лицензияСубтитры: нетКонтейнер: MKVВидео: (2,25:1), 25 fps, h364 ~ 1620 kbps avg, 0.203 bit/pixelАудио: 48 kHz, AC3, 6 ch, 448.00 kbps[/align]Видео: Идентификатор : 1 Формат : AVC Формат/Информация : Advanced Video Codec Профиль формата : [email protected] Параметр CABAC формата : Да Параметр ReFrames формата : 11 кадров Идентификатор кодека : V_MPEG4/ISO/AVC Продолжительность : 1 ч. 40 м. Битрейт : 1620 Кбит/сек Ширина : 720 пикселей Высота : 444 пикселя Соотношение сторон : 2,25:1 Частота кадров : 25,000 кадров/сек Цветовое пространство : YUV Субдискретизация насыщенности : 4:2:0 Битовая глубина : 8 бит Тип развёртки : Прогрессивная Бит/(Пиксели*Кадры) : 0.203 Размер потока : 1,11 Гбайт (76%) Библиотека кодирования : x264 core 119 r2106 07efeb4 Настройки программы : cabac=1 / ref=11 / deblock=1:-2:-1 / analyse=0x3:0x113 / me=umh / subme=9 / psy=1 / psy_rd=1.00:0.20 / mixed_ref=1 / me_range=32 / chroma_me=1 / trellis=1 / 8x8dct=1 / cqm=0 / deadzone=21,11 / fast_pskip=0 / chroma_qp_offset=-3 / threads=3 / sliced_threads=0 / nr=0 / decimate=0 / interlaced=0 / bluray_compat=0 / constrained_intra=0 / bframes=8 / b_pyramid=2 / b_adapt=2 / b_bias=0 / direct=3 / weightb=1 / open_gop=0 / weightp=2 / keyint=250 / keyint_min=25 / scenecut=40 / intra_refresh=0 / rc_lookahead=60 / rc=2pass / mbtree=1 / bitrate=1620 / ratetol=1.0 / qcomp=0.60 / qpmin=0 / qpmax=69 / qpstep=4 / cplxblur=20.0 / qblur=0.5 / ip_ratio=1.40 / aq=1:1.00 Default : Да Forced : НетАудио: Идентификатор : 2 Формат : AC-3 Формат/Информация : Audio Coding 3 Расширение режима : CM (complete main) Идентификатор кодека : A_AC3 Продолжительность : 1 ч. 40 м. Вид битрейта : Постоянный Битрейт : 448 Кбит/сек Каналы : 6 каналов Расположение каналов : Front: L C R, Side: L R, LFE Частота : 48,0 КГц Битовая глубина : 16 бит Метод сжатия : С потерями Размер потока : 323 Мбайт (22%) Default : Да Forced : Нет 1,45 Gb 7 2 28 января 2016 12:31 Замуж на 2 дня / Un plan parfait (2012) DVDRip от New-Team .torrent   [Информация о файле (нажмите для просмотра)] Перевод: Профессиональный (дублированный) лицензияСубтитры: нетКонтейнер: AVIВидео: 704x304 (2.35:1), 25 fps, XviD ~ 1615 kbps avg, 0.304 bit/pixelАудио: 48 kHz, AC3, 6 ch, 448.00 kbpsВидео: Идентификатор : 0 Формат : MPEG-4 Visual Профиль формата : Advanced [email protected] Параметр BVOP формата : 1 Параметр QPel формата : Нет Параметр GMC формата : Без точки перехода Параметр матрицы формата : Выборочная Идентификатор кодека : XVID Идентификатор кодека/Подсказка : XviD Продолжительность : 1 ч. 40 м. Битрейт : 1615 Кбит/сек Ширина : 704 пикселя Высота : 304 пикселя Соотношение сторон : 2,35:1 Частота кадров : 25,000 кадров/сек Цветовое пространство : YUV Субдискретизация насыщенности : 4:2:0 Битовая глубина : 8 бит Тип развёртки : Прогрессивная Метод сжатия : С потерями Бит/(Пиксели*Кадры) : 0.302 Размер потока : 1,14 Гбайт (78%) Библиотека кодирования : XviD 65Аудио: Идентификатор : 1 Формат : AC-3 Формат/Информация : Audio Coding 3 Расширение режима : CM (complete main) Идентификатор кодека : 2000 Продолжительность : 1 ч. 40 м. Вид битрейта : Постоянный Битрейт : 448 Кбит/сек Каналы : 6 каналов Расположение каналов : Front: L C R, Side: L R, LFE Частота : 48,0 КГц Битовая глубина : 16 бит Метод сжатия : С потерями Размер потока : 323 Мбайт (22%) Выравнивание : Разделение по промежуткам Продолжительность промежутка : 40 мс. (1,00 видеокадр) Время предзагрузки промежутка : 500 мс 1,46 Gb 7 3

gig-torrent.net

Скачать фильм Замуж на 2 дня через торрент в хорошем качестве бесплатно BDRip-AVC

GeneralUnique ID : 240262636985218074043433319095189783840 (0xB4C0E694D8DE68AFB5ADAAB2113A4520)Complete name : D:\Un.plan.parfait.2012.BDRip.AVC.ExKinoRay.mkvFormat : MatroskaFormat version : Version 2File size : 3.05 GiBDuration : 1 h 45 minOverall bit rate : 4 146 kb/sMovie name : Замуж на 2 дня (2012) from ExKinoRayEncoded date : UTC 2017-06-28 18:52:12Writing application : mkvmerge v5.6.0 ('Kenya Kane') built on May 27 2012 16:44:04Writing library : libebml v1.2.3 + libmatroska v1.3.0

VideoID : 1Format : AVCFormat/Info : Advanced Video CodecFormat profile : [email protected] settings, CABAC : YesFormat settings, ReFrames : 12 framesCodec ID : V_MPEG4/ISO/AVCDuration : 1 h 45 minBit rate : 3 250 kb/sWidth : 1 024 pixelsHeight : 436 pixelsDisplay aspect ratio : 2.35:1Frame rate mode : ConstantFrame rate : 23.976 (23976/1000) FPSColor space : YUVChroma subsampling : 4:2:0Bit depth : 8 bitsScan type : ProgressiveBits/(Pixel*Frame) : 0.304Stream size : 2.33 GiB (76%)Title : EnigmaWriting library : x264 core 144 r2525 40bb568Encoding settings : cabac=1 / ref=12 / deblock=1:-2:-2 / analyse=0x3:0x113 / me=umh / subme=10 / psy=1 / psy_rd=0.96:0.00 / mixed_ref=1 / me_range=32 / chroma_me=1 / trellis=2 / 8x8dct=1 / cqm=0 / deadzone=21,11 / fast_pskip=1 / chroma_qp_offset=-2 / threads=12 / lookahead_threads=3 / sliced_threads=0 / nr=0 / decimate=0 / interlaced=0 / bluray_compat=0 / constrained_intra=0 / bframes=11 / b_pyramid=2 / b_adapt=2 / b_bias=0 / direct=3 / weightb=1 / open_gop=0 / weightp=2 / keyint=240 / keyint_min=23 / scenecut=40 / intra_refresh=0 / rc_lookahead=40 / rc=2pass / mbtree=0 / bitrate=3250 / ratetol=1.0 / qcomp=0.63 / qpmin=0 / qpmax=51 / qpstep=4 / cplxblur=20.0 / qblur=0.5 / vbv_maxrate=50000 / vbv_bufsize=62500 / nal_hrd=none / filler=0 / ip_ratio=1.40 / pb_ratio=1.30 / aq=1:0.80Language : EnglishDefault : YesForced : NoColor range : LimitedColor primaries : BT.709Transfer characteristics : BT.709Matrix coefficients : BT.709

Audio #1ID : 2Format : AC-3Format/Info : Audio Coding 3Mode extension : CM (complete main)Format settings, Endianness : BigCodec ID : A_AC3Duration : 1 h 45 minBit rate mode : ConstantBit rate : 448 kb/sChannel(s) : 6 channelsChannel positions : Front: L C R, Side: L R, LFESampling rate : 48.0 kHzFrame rate : 31.250 FPS (1536 spf)Compression mode : LossyStream size : 337 MiB (11%)Title : Dub (лицензия)Language : RussianDefault : YesForced : No

Audio #2ID : 3Format : AC-3Format/Info : Audio Coding 3Mode extension : CM (complete main)Format settings, Endianness : BigCodec ID : A_AC3Duration : 1 h 45 minBit rate mode : ConstantBit rate : 448 kb/sChannel(s) : 6 channelsChannel positions : Front: L C R, Side: L R, LFESampling rate : 48.0 kHzFrame rate : 31.250 FPS (1536 spf)Compression mode : LossyStream size : 337 MiB (11%)Language : FrenchDefault : NoForced : No

Text #1ID : 4Format : UTF-8Codec ID : S_TEXT/UTF8Codec ID/Info : UTF-8 Plain TextTitle : ForcedLanguage : FrenchDefault : NoForced : No

Text #2ID : 5Format : UTF-8Codec ID : S_TEXT/UTF8Codec ID/Info : UTF-8 Plain TextTitle : FullLanguage : FrenchDefault : NoForced : No

Text #3ID : 6Format : UTF-8Codec ID : S_TEXT/UTF8Codec ID/Info : UTF-8 Plain TextLanguage : EnglishDefault : NoForced : No

Menu00:00:00.000 : en:Chapter 100:09:54.050 : en:Chapter 200:19:37.467 : en:Chapter 300:29:24.846 : en:Chapter 400:39:56.852 : en:Chapter 500:49:57.202 : en:Chapter 600:59:09.671 : en:Chapter 701:08:54.588 : en:Chapter 801:17:58.298 : en:Chapter 901:26:30.059 : en:Chapter 1001:33:55.463 : en:Chapter 11

piratbit.ru

Замуж на 2 дня 2012

Название: Замуж на 2 дня / Un plan parfait (2012) BDRip-AVC от ExKinoRay | Лицензия
Качество видео: BDRip (AVC)
Перевод: Дубляж [Лицензия]
Формат видео: MKV
Видео: MPEG-4 AVC, 1024x428 (2.40:1), ~ 3250 kbps avg, 23.976 FPS, 0.304 bit/pixel
Аудио: AC-3, 48.0 KHz, 5.1 ch, 448 Kbps, CBR (Dub) RusAC-3, 48.0 KHz, 5.1 ch, 448 Kbps, CBR (Dub) Fra
Скачать

Загрузка начнется в течение 5 сек.

3.05 GB

Название: Замуж на 2 дня / Un plan parfait (2012) HDRip-AVC от ImperiaFilm | D
Качество видео: HDRip-AVC
Формат видео: MKV
Видео: 720х304 (2,35:1), 24 fps, x264, 904 kbps, 0.172 bit/pixel
Аудио: 48.0 kHz, AAC-LC, 2 ch, ~84 kbps avg
Скачать

Загрузка начнется в течение 5 сек.

742.15 MB

Название: Замуж на 2 дня / Un plan parfait (2012) BDRip от HQCLUB | Лицензия
Качество видео: BDRip (источник: / BD-Remux / 1080p)
Перевод: Профессиональный (полное дублирование) + Оригинальная французская звуковая дорожка
Формат видео: AVI
Видео: 720x304 (2.37:1), 23.976 fps, XviD build 65 ~2069 kbps avg, 0.39 bit/pixel
Аудио: 48 kHz, AC3 Dolby Digital, 3/2 (L,C,R,l,r) + LFE ch, ~448.00 kbps avg48 kHz, AC3 Dolby Digital, 3/2 (L,C,R,l,r) + LFE ch, ~448.00 kbps avg
Скачать

Загрузка начнется в течение 5 сек.

2.18 GB

Название: Замуж на 2 дня / Un plan parfait (2012) BDRip 720p от NoLimits-Team
Качество видео: BDRip 720p (исходник Blu-ray Disc)
Перевод: Дублированный
Видео: 1280x544, 2 531 Кбит/сек, 24.000 кадр/сек, AVC, x264, 2.35:1, 0.151 Бит/(Пиксели*Кадры), 2-pass
Аудио: AC-3, 448 Кбит/сек, 6 канала(ов), 48,0 КГц
Скачать

Загрузка начнется в течение 5 сек.

2.18 GB

Название: Замуж на 2 дня / Un plan parfait (2012) BDRip 1080p от NoLimits-Team
Качество видео: BDRip 1080p (исходник Blu-ray Disc)
Перевод: Дублированный
Видео: 1920x816, 5 521 Кбит/сек, 24.000 кадр/сек, AVC, x264, 2.35:1, 0.147 Бит/(Пиксели*Кадры), 2-pass
Аудио: AC-3, 448 Кбит/сек, 6 канала(ов), 48,0 КГц
Скачать

Загрузка начнется в течение 5 сек.

4.37 GB

Название: Замуж на 2 дня / Un plan parfait (2012) BDRip-AVC | iPad
Качество видео: BDRip Исходник: Blu-ray
Перевод: Дублированный
Формат видео: MP4 (контейнер m4v)
Видео: AVC, 1024x432 (2.35:1) at 24.000 fps, AVC at 2927 kbps avg, 0.276 bit/pixel
Аудио: 48 kHz, AAC, 2ch, 132.3 Kbps | Russian | Дублированный
Скачать

Загрузка начнется в течение 5 сек.

2.25 GB

Название: Замуж на 2 дня / Un plan parfait (2012) DVD9 от Youtracker | лицензия
Качество видео: DVD
Перевод: Профессиональный (дублированный) [Лицензия]
Видео: MPEG2 PAL 16:9 (720x576(0.698)) MPEG Video, 25,000 кадр/сек, 7233 Кбит/сек
Аудио: Russian (DTS, 6 ch) 1536 Кбит/сек, 48,0 КГц
Скачать

Загрузка начнется в течение 5 сек.

7.71 GB

Название: Замуж на 2 дня / Un plan parfait (2012) BDRip-AVC от ExKinoRay | D | Лицензия
Качество видео: BDRip-AVC
Перевод: Дублированный
Видео: H.264 MPEG-4 AVC, 2629 Кбит/с, 1024x436
Аудио: AC3, 6 ch, 448 Кбит/с
Скачать

Загрузка начнется в течение 5 сек.

2.25 GB

Название: Замуж на 2 дня / Un plan parfait (2012) BDRip от Rulya74
Качество видео: BDRip
Перевод: Дублированный [Лицензия] + Профессиональный (многоголосый закадровый) - (Украинский - AAA-Sound)
Видео: XVID 720х304, 24,000 fps, 1894 kbps, 0.360 bit/pixel
Аудио: 48 kHz, AC3 5.1, 448.00 kbps / Дубляж48 kHz, AC3 5.1, 448.00 kbps / Профессиональный (многоголосый закадровый) - (Украинский - AAA-Sound)
Скачать

Загрузка начнется в течение 5 сек.

2.06 GB

Название: Замуж на 2 дня / Un plan parfait (2012) HDRip от Scarabey | D | Лицензия
Перевод: Профессиональный (дублированный)
Видео: 688x288 (2.39:1), 24.000 fps, XviD build 50 ~856 kbps avg, 0.18 bit/pixel
Аудио: 48 kHz, MPEG Layer 3, 2 ch, ~128.00 kbps avg
Скачать

Загрузка начнется в течение 5 сек.

745.61 MB

Название: Замуж на 2 дня / Un plan parfait (2012) HDRip от Scarabey | D | Лицензия
Перевод: Профессиональный (дублированный)
Видео: 720x304 (2.37:1), 24.000 fps, XviD build 50 ~1522 kbps avg, 0.29 bit/pixel
Аудио: 48 kHz, AC3 Dolby Digital, 3/2 (L,C,R,l,r) + LFE ch, ~448.00 kbps avg
Скачать

Загрузка начнется в течение 5 сек.

1.45 GB

Название: Замуж на 2 дня / Un plan parfait (2012) BDRip-AVC от potroks | D | Лицензия
Перевод: Профессиональный (полное дублирование) лицензия
Формат видео: MKV
Видео: H.264, 1040x442 (2.35:1), 24,000 fps, 2529 Кbps, 0.229 bit/pixel
Аудио: 48 kHz, AC3 Dolby Digital, 3/2 (L,C,R,l,r) + LFE ch, ~448.00 kbps avg
Скачать

Загрузка начнется в течение 5 сек.

2.18 GB

Название: Замуж на 2 дня / Un plan parfait (2012) HDRip от Torrent-Xzona | КПК
Качество видео: HDRip | КПК
Перевод: Дублированное
Видео: х264 480х200, 23,976 кадра/сек, 353 Кбит/сек
Аудио: ААС LC, 2 ch, 128 Кбит/сек
Скачать

Загрузка начнется в течение 5 сек.

340.00 MB

Название: Замуж на 2 дня / Un plan parfait (2012) BDRip 1080p
Качество видео: BDRip 1080p
Перевод: Дублированный [Лицензия]
Видео: AVC 1920x816, 24 fps, 12.9 Mbps
Аудио: DTS, 48 kHz, 6 ch, 755 kbps
Скачать

Загрузка начнется в течение 5 сек.

10.18 GB

Название: Замуж на 2 дня / Un plan parfait (2012) BDRip 720p от R.G. GoldenShara
Качество видео: BDRip [720p]
Перевод: Дублированный [Лицензия]
Видео: 1280x544, 2538 Кбит/сек, 24,000 кадр/сек, AVC, x264, 2,35:1 , 0.152 Бит/[Пиксели*Кадры], 2pass
Аудио: AC-3, 448 Кбит/сек, 6 канала(ов), 48,0 КГц
Скачать

Загрузка начнется в течение 5 сек.

2.19 GB

Название: Замуж на 2 дня / Un plan parfait (2012) BDRip 1080p от R.G. GoldenShara
Качество видео: BDRip [1080p]
Перевод: Дублированный [Лицензия]
Видео: 1920x816, 5514 Кбит/сек, 24,000 кадр/сек, AVC, x264, 2,35:1, 0.147 Бит/[Пиксели*Кадры], 2pass
Аудио: AC-3, 448 Кбит/сек, 6 канала(ов), 48,0 КГц
Скачать

Загрузка начнется в течение 5 сек.

4.37 GB

Название: Замуж на 2 дня / Un plan parfait (2012) Blu-Ray
Качество видео: Blu-Ray (1080p)
Перевод: Дублированный [Лицензия]
Видео: MPEG-4 AVC, 24210 Кбит/с, 1920x1080
Аудио: DTS, 6 ch, 768 Кбит/с
Скачать

Загрузка начнется в течение 5 сек.

22.94 GB

Название: Замуж на 2 дня / Un plan parfait (2012) BDRip | Лицензия
Качество видео: BDRip [Рип с Blu-Ray]
Перевод: Дублированное [лицензия]
Формат видео: AVI (XviD)
Видео: 1522 kb/s, 720x304
Аудио: AC3, 448 kb/s (6 ch)
Скачать

Загрузка начнется в течение 5 сек.

1.45 GB

Название: Замуж на 2 дня / Un plan parfait (2012) BDRip 720p
Качество видео: BDRip 720p
Перевод: Дублированный [Лицензия]
Видео: AVC 1280x544, 24 fps, 5448 kbps
Аудио: DTS, 48 kHz, 6 ch, 755 kbps
Скачать

Загрузка начнется в течение 5 сек.

4.64 GB

Название: Замуж на 2 дня / Un plan parfait (2012) DVDRip от Scarabey | Лицензия
Перевод: Профессиональный (дублированный)
Видео: 672x288 (2.33:1), 25 fps, XviD build 50 ~895 kbps avg, 0.19 bit/pixel
Аудио: 48 kHz, MPEG Layer 3, 2 ch, ~128.00 kbps avg
Скачать

Загрузка начнется в течение 5 сек.

743.83 MB

Название: Замуж на 2 дня / Un plan parfait (2012) DVDRip от Scarabey | Лицензия
Перевод: Профессиональный (дублированный)
Видео: 704x304 (2.32:1), 25 fps, XviD build 50 ~1607 kbps avg, 0.30 bit/pixel
Аудио: 48 kHz, AC3 Dolby Digital, 3/2 (L,C,R,l,r) + LFE ch, ~448.00 kbps avg
Скачать

Загрузка начнется в течение 5 сек.

1.45 GB

Название: Замуж на 2 дня / Un plan parfait (2012) DVDRip от Youtracker
Перевод: Профессиональный (дублированный) лицензия
Видео: 704x304 (2.35:1), 25 fps, XviD ~ 1615 kbps avg, 0.304 bit/pixel
Аудио: 48 kHz, AC3, 6 ch, 448.00 kbps
Скачать

Загрузка начнется в течение 5 сек.

1.46 GB

Название: Замуж на 2 дня / Un plan parfait (2012) DVDRip от Youtracker
Перевод: Профессиональный (дублированный) лицензия
Видео: 704x304 (2,35:1), 25 fps, XviD ~ 900 kbps avg, 0.168 bit/pixel
Аудио: 48 kHz, MP3, 2 ch, 128.00 kbps
Скачать

Загрузка начнется в течение 5 сек.

746.98 MB

Название: Замуж на 2 дня / Un plan parfait (2012) DVDRip | Лицензия
Качество видео: DVDRip
Перевод: Дублированный [Лицензия]
Видео: XviD 720x304, 25 fps, 842 Kbps
Аудио: MP3, 48 kHz, 2 ch, 128 Kbps
Скачать

Загрузка начнется в течение 5 сек.

705.31 MB

Название: Замуж на 2 дня / Un plan parfait (2012) DVDRip-AVC от Youtracker
Перевод: Профессиональный (дублированный) лицензия
Видео: [email protected] (2,25:1), 25 fps, h364 ~ 1620 kbps avg, 0.203 bit/pixel
Аудио: 48 kHz, AC3, 6 ch, 448.00 kbps[/align]
Скачать

Загрузка начнется в течение 5 сек.

1.45 GB

www.kinovit.net

Скачать фильм Замуж на 2 дня через торрент в хорошем качестве бесплатно DVD9

Размер: 7.71 GB | Добавлен: 4 года 8 мес. назад | Торрент скачан:74 раза
Реклама Дарим 3000 рублей за регистрацию, не упусти свой шанс получить шикарный бонус!!!

13-02-2013 20:36 Замуж на 2 дня Скачать торрент  

Замуж на 2 дня / Un plan parfait Страна: ФранцияСтудия: Alvy Productions, Chaocorp Distribution, Ciné, Cinémage 5 Développement, Egérie Productions, Les Productions du Ch'timi, Lila Production, Orange Cinéma Séries, Quad Productions, Région Wallone, SCOPE Invest, Scope Pictures, TF1, TF1 Films Production, Universal Pictures International (UPI), YeardawnЖанр: мелодрама, комедия, приключенияГод выпуска: 2012Мировая премьера: 31 октября 2012Российская премьера: 6 декабря 2012,Дата выхода DVD: 11 февраля 2013Дата выхода Blu-Ray: 11 февраля 2013Продолжительность: 01:40:39Перевод: Профессиональный (дублированный) [Лицензия]Cубтитры: украинскиеОригинальная аудиодорожка: нетРежиссер: Паскаль Шомель / Pascal ChaumeilВ ролях: Дайан Крюгер, Дэни Бун, Алис Поль, Робер Планьоль, Джонатан Коэн, Бернадетт Ле Саше, Этьен Шико, Лорэ Кэлами, Мэлонн Левана, Оливье КлавериОписание: Изабель мечтает о свадьбе. Но на её семье лежит проклятие. Все первые браки неминуемо заканчиваются разводами. Поэтому, когда ее парень делает ей предложение, Изабель решает перехитрить судьбу. Она отыскивает первого попавшегося лузера, влюбляет его в себя и: вместо того, чтобы развестись, случайно влюбляется сама.Бонусы: Анонсы Качество: DVD9 R5Формат: DVD-VideoВидео кодек: MPEG2Аудио кодек: AC3 + DTSВидео: PAL 16:9 (720x576(0.698)) MPEG Video, 25,000 кадр/сек, 7233 Кбит/секАудио #1: Russian (Dolby AC3, 6 ch) 448 Кбит/сек, 48,0 КГцАудио #2: Russian (DTS, 6 ch) 1536 Кбит/сек, 48,0 КГцTitle: Zamuzh.na.2.dnja.2012.DVD9Size: 7.71 Gb ( 8 088 374,00 KBytes ) - DVD-9Enabled regions: 1, 2, 3, 4, 5, 6, 7, 8

VTS_01 :Play Length: 01:40:39Video: PAL 16:9 (720x576) VBR, Auto LetterboxedAudio:Russian (Dolby AC3, 6 ch)Russian (DTS, 6 ch)Subtitles:Ukrainian

VTS_02 :Play Length: 00:02:09+00:02:17+00:01:59+00:02:19+00:02:18+00:01:42+00:01:54+00:02:17+00:02:01+00:02:03Video: PAL 16:9 (720x576) VBR, Auto LetterboxedAudio:Russian (LinearPCM, 2 ch)

VTS_03 :Play Length: 00:00:15Video: PAL 4:3 (720x576) VBR

* Menus Information *

VIDEO_TS MenuVideo:PAL 16:9 (720x576) VBRAuto LetterboxedAudio:Not specified (LinearPCM, 2 ch)Russian Language Unit :Title Menu

VTS_01 MenuVideo:PAL 16:9 (720x576) VBRAuto LetterboxedAudio:Not specified (LinearPCM, 2 ch)Russian Language Unit :Root Menu

VTS_02 MenuVideo:PAL 16:9 (720x576) VBRAuto LetterboxedAudio:Not specified (LinearPCM, 2 ch)Russian Language Unit :Root Menu

VTS_03 MenuVideo:NTSC 4:3 (720x480) VBRAuto Pan&Scan, Auto LetterboxedLanguage Unit :Chapter (PTT) Menu

ОбщееПолное имя : J:Новинки 2012Zamuzh.na.2.dnja.2012.DVD9VIDEO_TSVTS_01_1.VOBФормат : MPEG-PSРазмер файла : 1024 МбайтПродолжительность : 15 м.Режим общего битрейта : ПеременныйОбщий поток : 9377 Кбит/сек

ВидеоИдентификатор : 224 (0xE0)Формат : MPEG VideoВерсия формата : Version 2Профиль формата : [email protected]Параметр BVOP формата : ДаПараметр матрицы формата : По умолчаниюПараметр GOP формата : M=3, N=12Продолжительность : 15 м.Вид битрейта : ПеременныйБитрейт : 7233 Кбит/секМаксимальный битрейт : 8000 Кбит/секШирина : 720 пикселейВысота : 576 пикселейСоотношение сторон : 16:9Частота кадров : 25,000 кадров/секСтандарт вещания : PALЦветовое пространство : YUVСубдискретизация насыщенности : 4:2:0Битовая глубина : 8 битТип развёртки : ПрогрессивнаяМетод сжатия : С потерямиБит/(Пиксели*Кадры) : 0.698Размер потока : 790 Мбайт (77%)

Аудио #1Идентификатор : 189 (0xBD)-128 (0x80)Формат : AC-3Формат/Информация : Audio Coding 3Расширение режима : CM (complete main)Параметр Endianness формата : BigРежим смешивания : DVD-VideoПродолжительность : 15 м.Вид битрейта : ПостоянныйБитрейт : 448 Кбит/секКаналы : 6 каналовРасположение каналов : Front: L C R, Side: L R, LFEЧастота : 48,0 КГцБитовая глубина : 16 битМетод сжатия : С потерямиРазмер потока : 48,9 Мбайт (5%)

Аудио #2Идентификатор : 189 (0xBD)-137 (0x89)Формат : DTSФормат/Информация : Digital Theater SystemsРежим : 16Параметр Endianness формата : BigРежим смешивания : DVD-VideoПродолжительность : 15 м.Вид битрейта : ПостоянныйБитрейт : 1510 Кбит/секКаналы : 6 каналовРасположение каналов : Front: L C R, Side: L R, LFEЧастота : 48,0 КГцБитовая глубина : 16 битМетод сжатия : С потерямиРазмер потока : 165 Мбайт (16%)

ТекстИдентификатор : 189 (0xBD)-32 (0x20)Формат : RLEФормат/Информация : Run-length encodingРежим смешивания : DVD-Video

Скачать Замуж на 2 дня через торрент http://i54.fastpic.ru/big/2013/0213/3b/598c1c01c1a3f89190e6bec168092a3b.jpg Скачать фильм Замуж на 2 дня через торрент бесплантно в хорошем качестве Описание: Изабель мечтает о свадьбе. Но на её семье лежит проклятие. Все первые браки неминуемо заканчиваются разводами. Поэтому, когда ее ... 2013-02-13 20:36 5 10 1

Loading...

Loading...

Рекламный пират

Дорогой пользователь! Огромная просьба, поблагодарите релизера, оцените раздачу и оставьте свои комментарий, если Вы скачали Замуж на 2 дня через торрент бесплатно! Внесите свою лепту в развитие PiratBit!

Комментировать посты могут только пользователи прошедшие не сложную регистрацию

Замуж на 2 дня через торрент Скачать бесплатно Замуж на 2 дня Замуж на 2 дня скачать торрент Замуж на 2 дня смотреть онлайн Cкачать фильм Замуж на 2 дня бесплатно Замуж на 2 дня скачать торрент в хорошем качестве Замуж на 2 дня смотреть онлайн бесплатно в хорошем качестве

Вы не можете начинать темыВы не можете отвечать на сообщенияВы не можете редактировать свои сообщенияВы не можете удалять свои сообщенияВы не можете голосовать в опросахВы не можете прикреплять файлы к сообщениямВы можете скачивать файлы

piratbit.ru

Замуж на 2 дня (2012) HD 1080p скачать торрент в хорошем качестве

[img][center][img]https://rutorg2.ru/uploads/posts/2017-07/1499055722_3626686ba29c732a44b3ca0d413ade0b.jpg[/img]

[/img][/center]

Информация о фильмеНазвание: Замуж на 2 дняОригинальное название: Un plan parfaitГод выхода: 2012Жанр: Комедия, приключенияРежиссер: Паскаль ШомельВ ролях: Дайан Крюгер, Дани Бун, Алис Поль, Робер Планьоль, Джонатан Коэн, Бернадетт Ле Саше, Этьен Шико, Лорэ Кэлами, Мэлонн Левана, Оливье Клавери, Жан-Ив Шило, Мюриэль Солвэ, Амели Денарие, Эмелин Баяр, Жан-Поль Беццина, Дэмиен Боннар, Нэнси Тейт, Каролин Гонсе, Габриэлль Атже, Лан Хоанг Ксюан, Жан-Шарль Делом, Наталья Колдашова, Олег Мокш

Сюжет фильма:

Изабель мечтает о свадьбе. Но на её семье лежит проклятие. Все первые браки неминуемо заканчиваются разводами. Поэтому, когда ее парень делает ей предложение, Изабель решает перехитрить судьбу. Она отыскивает первого попавшегося лузера, влюбляет его в себя и : вместо того, чтобы развестись, случайно влюбляется сама.

Выпущено: Франция, Alvy Productions, Chaocorp Distribution, Cin, Cinmage 5 Dveloppement, Egrie Productions, Les Productions du Ch'timi, Lila Production, Orange Cinma Sries, Quad Productions, Rgion Wallone, SCOPE Invest, Scope Pictures, TF1, TF1 Films Production, Universal Pictures International (UPI), YeardawnПродолжительность: 01:44:52Перевод: ДублированныйСубтитры: нет

ФайлКачество: BDRip 1080p (исходник Blu-ray Disc) Видео: 1920x816, 5 521 Кбит/сек, 24.000 кадр/сек, AVC, x264, 2.35:1, 0.147 Бит/(Пиксели*Кадры), 2-passАудио: AC-3, 448 Кбит/сек, 6 канала(ов), 48,0 КГцЧаптеры: есть

Format : MatroskaFormat version : Version 4 / Version 2File size : 4.37 GiBDuration : 1h 44mnOverall bit rate : 5 969 KbpsMovie name : Замуж на 2 дня.(2012).BDRip.1080.NoLimits-TeamEncoded date : UTC 2013-03-09 07:26:57Writing application : mkvmerge v6.1.0 ('Old Devil') built on Mar 2 2013 14:32:37Writing library : libebml v1.3.0 + libmatroska v1.4.0

VideoID : 1Format : AVCFormat/Info : Advanced Video CodecFormat profile : [email protected] settings, CABAC : YesFormat settings, ReFrames : 5 framesCodec ID : V_MPEG4/ISO/AVCDuration : 1h 44mnBit rate : 5 521 KbpsWidth : 1 920 pixelsHeight : 816 pixelsDisplay aspect ratio : 2.35:1Frame rate mode : ConstantFrame rate : 24.000 fpsColor space : YUVChroma subsampling : 4:2:0Bit depth : 8 bitsScan type : ProgressiveBits/(Pixel*Frame) : 0.147Stream size : 3.96 GiB (91%)Title : Замуж на 2 дня.(2012).BDRip.1080.NoLimits-TeamWriting library : x264 core 130 r2273 b3065e6Encoding settings : cabac=1 / ref=5 / deblock=1:-3:-3 / analyse=0x3:0x113 / me=umh / subme=11 / psy=1 / psy_rd=1.00:0.10 / mixed_ref=1 / me_range=32 / chroma_me=1 / trellis=2 / 8x8dct=1 / cqm=0 / deadzone=21,11 / fast_pskip=0 / chroma_qp_offset=-3 / threads=6 / lookahead_threads=1 / sliced_threads=0 / nr=0 / decimate=0 / interlaced=0 / bluray_compat=0 / constrained_intra=0 / bframes=8 / b_pyramid=2 / b_adapt=2 / b_bias=0 / direct=3 / weightb=1 / open_gop=0 / weightp=2 / keyint=240 / keyint_min=24 / scenecut=40 / intra_refresh=0 / rc_lookahead=60 / rc=2pass / mbtree=1 / bitrate=5521 / ratetol=1.0 / qcomp=0.60 / qpmin=0 / qpmax=69 / qpstep=4 / cplxblur=20.0 / qblur=0.5 / ip_ratio=1.40 / aq=1:1.00Language : EnglishDefault : YesForced : No

AudioID : 2Format : AC-3Format/Info : Audio Coding 3Mode extension : CM (complete main)Format settings, Endianness : BigCodec ID : A_AC3Duration : 1h 44mnBit rate mode : ConstantBit rate : 448 KbpsChannel(s) : 6 channelsChannel positions : Front: L C R, Side: L R, LFESampling rate : 48.0 KHzBit depth : 16 bitsCompression mode : LossyStream size : 336 MiB (8%)Title : ДублированныйLanguage : RussianDefault : YesForced : No

Menu00:00:00.000 : en:en:00:00:00.00000:00:24.208 : en:en:00:00:24.20800:09:40.666 : en:en:00:09:40.66600:22:34.666 : en:en:00:22:34.66600:32:16.041 : en:en:00:32:16.04100:49:55.583 : en:en:00:49:55.58301:02:38.291 : en:en:01:02:38.29101:16:53.625 : en:en:01:16:53.62501:30:07.208 : en:en:01:30:07.208

3 21 5-07-2017, 12:00 4.37 GB Связанные раздачи

rutorg2.ru


Смотрите также