Скачать фильм железный кулак через торрент в хорошем качестве бесплатно


Скачать фильм Железный кулак через торрент в хорошем качестве бесплатно HDRip

Размер: 1.46 GB | Добавлен: 4 года 7 мес. назад | Торрент скачан:2238 раз
Реклама Дарим 3000 рублей за регистрацию, не упусти свой шанс получить шикарный бонус!!!

25-03-2013 21:47 Железный кулак Скачать торрент  

Железный кулак / The Man with the Iron Fists

******************** Год выпуска: 2012Страна: США, ГонконгВыпущено: Arcade Pictures, Iron FistsЖанр: боевик,Продолжительность: 01:35:16Перевод: Дубляж, Лицензия

Режиссер: RZAПродюссер: Марк Абрахам, Эрик Ньюман, Элай РотСценарий: RZA, Элай РотПремьера в мире: 2 ноября 2012

В ролях: RZA, Рассел Кроу, Люси Лью, Байрон Манн, Джейми Чунг, Рик Юн, Дэйв Батиста, Кунг Ле, Джин Онг, Джа Хуи Лью, Александр Носков, Денис Беспалый, Ольга Зверева, Диомид Виноградов, Дарья Фролова,

Описание: События развернутся в древнем феодальном Китае. Фильм расскажет историю чернокожего кузнеца, который умеет делать оружие и с легкой руки снабжает им всех, у кого есть чем заплатить. Китай того времени — жестокое место, поэтому оружие и знание навыков кунг-фу помогут жителям близлежащей деревни защитить свои дома и семьи от других кланов...

Сэмпл / Трейлер

Качество: HDRipФормат: AVIВидео кодек: XviDАудио кодек: AC3Видео: MPEG4, XviD, 720x304 (2.35:1), 23.976 fps, 1 730 Kbps (0.330 bit/pixel)Аудио: AC-3, 48.0 KHz, 6 ch, 448 Kbps, CBR

********************                  Скачать Железный кулак через торрент http://i5.imageban.ru/out/2013/03/26/9f40ba39cb3f5d493a3a9275280eb073.png Скачать фильм Железный кулак через торрент бесплантно в хорошем качестве Описание: События развернутся в древнем феодальном Китае. Фильм расскажет историю чернокожего кузнеца, который умеет делать оружие и с ... 2013-03-25 21:47 9.1 10 78

Loading...

Loading...

Рекламный пират

26-03-2013 05:49 Железный кулак Скачать торрент  

историю чернокожего кузнеца в древнем феодальном Китае :jest3:

04-04-2013 17:42 Железный кулак Скачать торрент  

китайские фильмы всегда бессмысленные и беспощадные. не вижу смысла смотреть

12-04-2013 09:21 Железный кулак Скачать торрент  

13-04-2013 14:09 Железный кулак Скачать торрент  

спасибо.фильм на разок

21-04-2013 17:36 Железный кулак Скачать торрент  

stan-fild писал(а):

историю чернокожего кузнеца в древнем феодальном Китае :jest3:присоединяюсь

Цитата:

В ролях: RZA, Рассел Кроу, Люси Лью, Байрон Манн, Джейми Чунг, Рик Юн, Дэйв Батиста, Кунг Ле, Джин Онг, Джа Хуи Лью, Александр Носков, Денис Беспалый, Ольга Зверева, Диомид Виноградов, Дарья Фролова.

ЩИТО!!??

07-06-2013 10:39 Железный кулак Скачать торрент  

Цитата:

В ролях: RZA, Рассел Кроу, Люси Лью, Байрон Манн, Джейми Чунг, Рик Юн, Дэйв Батиста, Кунг Ле, Джин Онг, Джа Хуи Лью, Александр Носков, Денис Беспалый, Ольга Зверева, Диомид Виноградов, Дарья Фролова.

ЩИТО!!?? Это дубляж

Дорогой пользователь! Огромная просьба, поблагодарите релизера, оцените раздачу и оставьте свои комментарий, если Вы скачали Железный кулак через торрент бесплатно! Внесите свою лепту в развитие PiratBit!

Комментировать посты могут только пользователи прошедшие не сложную регистрацию

Железный кулак через торрент Скачать бесплатно Железный кулак Железный кулак скачать торрент Железный кулак смотреть онлайн Cкачать фильм Железный кулак бесплатно Железный кулак скачать торрент в хорошем качестве Железный кулак смотреть онлайн бесплатно в хорошем качестве

Вы не можете начинать темыВы не можете отвечать на сообщенияВы не можете редактировать свои сообщенияВы не можете удалять свои сообщенияВы не можете голосовать в опросахВы не можете прикреплять файлы к сообщениямВы можете скачивать файлы

piratbit.ru

Скачать сериал Железный кулак 1 сезон (2017) через торрент

3 мая 2017 16:36 Железный кулак (1 сезон: 1-13 серии из 13) WEBRip | LostFilm.torrent   [Информация о файле (нажмите для просмотра)] ✦ Продолжительность: ~ 00:55:00 серия✦ Перевод: профессиональный (многоголосый, закадровый) - LostFilm

Информация о файле:✦ Формат: | XviD | AVI |✦ Качество: WEBRip | чистый видеоряд |✦ Видео: ~ 1350 kbps | 720x400 (16:9) | 23.976✦ Аудио Rus: MP3 | 48.0 KHz | 2 ch | 128 kbps ✦ Аудио Eng: MP3 | 48.0 KHz | 2 ch | 128 kbps ✦ Субтитры: | отсутствуют |✦ полностью отсутствует реклама.

8 Gb 572 240 3 мая 2017 05:54 Железный кулак (1 сезон: 1-13 серии из 13) WEBRip 720p | LostFilm.torrent   [Информация о файле (нажмите для просмотра)] Качество: WEBRip (720p)Видео: MPEG-4 AVC, ~ 8000 Кбит/с, 1280x720Аудио: Русский (AC3, 2 ch, 384 Кбит/с), английский (AC3, 6 ch, 384 Кбит/с)Размер: 41.32 ГБПродолжительность: 13 x ~ 00:58:00Перевод: Профессиональный многоголосый 41,32 Gb 1 6 11 апреля 2017 15:45 Железный кулак (1 сезон: 1-13 серии из 13) WEBRip | Jaskier.torrent   [Информация о файле (нажмите для просмотра)] ✦ Продолжительность: 1 x ~ 00:55:00✦ Перевод: профессиональный (многоголосый, закадровый) - Jaskier

Информация о файле:✦ Формат: XviD | Avi✦ Качество: WEBRip ✦ Видео: ~ 1350 kbps, 720x400✦ Аудио RU: MP3, 2 ch, 128 kbps✦ Аудио EN: MP3, 2 ch, 128 kbps✦ Субтитры: отсутствуют✦ Присутствует аудиореклама.

8,36 Gb 60 46 11 апреля 2017 15:45 Железный кулак (1 сезон: 1-13 серии из 13) WEBRip 720p | Jaskier.torrent   [Информация о файле (нажмите для просмотра)] Продолжительность: ~00:50:00Перевод: Профессиональный (многоголосый закадровый) студия Jaskier

ФайлКодек: AVCКачество: WEBRip 720pВидео: AVC, 1280x720 23.976fps ~7000Kbps, 0.308 bit/pixelЗвук: Аудио 1 (русская дорожка): Dolby AC3 48000Hz 6ch 384kbpsАудио 2 (оригинал): Dolby AC3 48000Hz 6ch 384kbps

В раздаче присутствует аудио-реклама.

37,45 Gb 24 38 11 апреля 2017 15:45 Железный кулак (1 сезон: 1-13 серии из 13) WEBRip 1080p | Jaskier.torrent   [Информация о файле (нажмите для просмотра)] Продолжительность: ~00:50:00Перевод: Профессиональный (многоголосый закадровый) студия Jaskier

ФайлКодек: AVCКачество: WEBRip 1080pВидео: AVC, 1920x1080 23.976fps ~15000Kbps, 0.302 bit/pixelЗвук: Аудио 1 (русская дорожка): Dolby AC3 48000Hz 6ch 384kbpsАудио 2 (оригинал): Dolby AC3 48000Hz 6ch 384kbps

В раздаче присутствует аудио-реклама.

80,33 Gb 23 49 25 марта 2017 19:58 Железный кулак (1 сезон: 1-13 серии из 13) WEBRip 1080p | NewStudio.torrent   [Информация о файле (нажмите для просмотра)] Качество: WEBRip (1080p)Видео: MPEG-4 AVC, ~ 15300 Кбит/с, 1920x1080Аудио: Русский, английский (AC3, 6 ch, 384 Кбит/с)Размер: 80.43 ГБПродолжительность: 13 x ~ 00:43:00Перевод: Профессиональный многоголосыйБЕЗ РЕКЛАМЫ 80,43 Gb 6 4 21 марта 2017 23:32 Железный кулак (1 сезон: 1-13 серия из 13) WEBRip | Newstudio.torrent   [Информация о файле (нажмите для просмотра)] ✦ Продолжительность: ~ 00:55:00 серия✦ Перевод: профессиональный (многоголосый, закадровый) - NewStudio

Информация о файле:✦ Формат: | XviD | AVI |✦ Качество: WEBRip | чистый видеоряд |✦ Видео: ~ 1350 kbps | 720x400 (16:9) | 23.976✦ Аудио Rus: MP3 | 48.0 KHz | 2 ch | 128 kbps ✦ Аудио Eng: MP3 | 48.0 KHz | 2 ch | 128 kbps ✦ Субтитры: | отсутствуют |✦ полностью отсутствует реклама.

8 Gb 583 213 21 марта 2017 18:38 Железный кулак (1 сезон: 1-13 серия из 13) WEBRip 720p | Newstudio.torrent   [Информация о файле (нажмите для просмотра)] ✦ Продолжительность: ~ 00:55:00 серия✦ Перевод: профессиональный (многоголосый, закадровый) - NewStudio

Информация о файле:✦ Формат: | MKV | H.264 |✦ Качество: WEBRip 720p | чистый видеоряд |✦ Видео: ~ 7000 kbps | 1280x720 (16:9) | 23.976 ✦ Аудио RUS: AC3 | 48.0 KHz | 6 ch | 384 kbps ✦ Аудио ENG: AC3 | 48.0 KHz | 6 ch | 384 kbps ✦ Субтитры: | английские |✦ полностью отсутствует реклама.

40,09 Gb 79 117 21 марта 2017 14:03 Железный кулак (1 сезон: 1-13 серии из 13) WEBRip | IdeaFilm.torrent   [Информация о файле (нажмите для просмотра)] Продолжительность: 00:55:00Перевод: Профессиональный многоголосый (IdeaFilm)

ФайлКодек: XviDКачество: WEBRipВидео:1500 Кбит/с, 720x400Аудио: AC3, 6 ch, 384 Кбит/с

Внимание, присутствует реклама!

9,54 Gb 311 106 21 марта 2017 14:03 Железный кулак (1 сезон: 1-13 серии из 13) WEBRip 720p | IdeaFilm.torrent   [Информация о файле (нажмите для просмотра)] Продолжительность: 00:55:00Перевод: Профессиональный многоголосый (IdeaFilm)

ФайлКодек: H.264Качество: WEBRip (720p)Видео: MPEG-4 AVC, ~ 4000 Кбит/с, 1280x720Аудио: Русский (AC3, 6 ch, 384 Кбит/с), английский (AC3, 6 ch, 640 Кбит/с)

Внимание, присутствует реклама!

24,67 Gb 37 39 21 марта 2017 14:02 Железный кулак (1 сезон: 1-13 серии из 13) WEBRip 1080p | IdeaFilm.torrent   [Информация о файле (нажмите для просмотра)] Продолжительность: 00:55:00Перевод: Профессиональный многоголосый (IdeaFilm)

ФайлКодек: H.264Качество: WEBRip (1080p)Видео: MPEG-4 AVC, ~ 9000 Кбит/с, 1920x1080Аудио: Русский (AC3, 6 ch, 384 Кбит/с), английский (AC3, 6 ch, 640 Кбит/с)

Внимание, присутствует реклама!

49,1 Gb 29 51

gig-torrent.net

Скачать фильм Железный кулак через торрент в хорошем качестве бесплатно WEB-DLRip

Размер: 40.09 GB | Добавлен: 6 мес. назад | Торрент скачан:1 раз
Реклама Дарим 3000 рублей за регистрацию, не упусти свой шанс получить шикарный бонус!!!

29-03-2017 08:43 Железный кулак Скачать торрент  

Железный кулак / Iron Fist

Год выпуска: 2017Страна: СШАЖанр: фантастика, боевик, триллер, криминалПродолжительность: ~ 00:55:00Перевод: Профессиональный (многоголосый)Тип релиза: ПираткаСубтитры: -

Режиссер: Джон Дал, Фэррен Блэкберн, Ута Бризвитц

В ролях: Финн Джонс, Джессика Хенвик, Джессика Строуп, Розарио Доусон, Людовик Куто, Крэйг Джерати, Тихуана Рикс и др

Описание: Спустя годы после исчезновения, Дэниэл Рэнд возвращается в Нью-Йорк и начинает борьбу с криминалом, используя свои невообразимые навыки кунг-фу и способность вызывать силу Железного кулака.

Качество: WEB-DLRipФормат: MKVАудио кодек: AC3Видео: X264, 1280x720 (16:9), 23,976 fps, ~7000 kbpsАудио#1: AC3, 48 kHz, 6 ch, 384 kbps, CBR - RUSАудио#2: : AC3, 48 kHz, 6 ch, 384 kbps, CBR - ENGРелиз от: || NewStudio ||

Скачать Железный кулак через торрент http://www.pillow.su/wp-content/uploads/2016/07/iron-fist-2017-1.jpg Скачать фильм Железный кулак через торрент бесплантно в хорошем качестве Описание: Спустя годы после исчезновения, Дэниэл Рэнд возвращается в Нью-Йорк и начинает борьбу с криминалом, используя свои невообразимые ... 2017-03-29 08:43 7 10 3

Loading...

Loading...

  мультитрекерные раздачи сериалов запрещены, выдал -Lexx-

Рекламный пират

29-03-2017 13:36 Железный кулак Скачать торрент  

Mr_Trockiy, оформите в соответствии с Правилами оформления раздач в разделе Зарубежные сериалы

1. Встаньте на раздачу, мультитрекерные раздачи в разделе Зарубежные сериалы запрещены.2. Поправьте заголовок.3. Укажите правильно качество.4. Добавьте скриншоты.5. Добавьте отчет МедиаИнфо.

Когда исправите, или если есть вопросы, пишите здесь или в л/с.Напоминаю, срок хранения релизов в разделе для недооформленных раздач - три дня.

Дорогой пользователь! Огромная просьба, поблагодарите релизера, оцените раздачу и оставьте свои комментарий, если Вы скачали Железный кулак через торрент бесплатно! Внесите свою лепту в развитие PiratBit!

Комментировать посты могут только пользователи прошедшие не сложную регистрацию

Железный кулак через торрент Скачать бесплатно Железный кулак Железный кулак скачать торрент Железный кулак смотреть онлайн Cкачать фильм Железный кулак бесплатно Железный кулак скачать торрент в хорошем качестве Железный кулак смотреть онлайн бесплатно в хорошем качестве

Вы можете начинать темыВы можете отвечать на сообщенияВы не можете редактировать свои сообщенияВы не можете удалять свои сообщенияВы не можете голосовать в опросахВы не можете прикреплять файлы к сообщениямВы можете скачивать файлы

piratbit.ru

Скачать фильм Железный кулак 2 через торрент в хорошем качестве бесплатно 1080p

GeneralUnique ID                                : 205158768908539372701371484181625952741 (0x9A5824427BC6A5B48C2B3372D5D1D9E5)Complete name                            : D:\Торенты\HD\The.Man.with.the.Iron.Fists.2.2015.1080p._ Release for Piratbit.net_R.G. HD-Films.mkvFormat                                   : MatroskaFormat version                           : Version 4 / Version 2File size                                : 10.5 GiBDuration                                 : 1h 30mnOverall bit rate                         : 16.6 MbpsMovie name                               : Release for Piratbit.net_R.G. HD-FilmsEncoded date                             : UTC 2015-05-20 19:43:53Writing application                      : mkvmerge v6.7.0 ('Back to the Ground') 64bit built on Jan  8 2014 15:10:52Writing library                          : libebml v1.3.0 + libmatroska v1.4.1Attachment                               : Yes

VideoID                                       : 1Format                                   : AVCFormat/Info                              : Advanced Video CodecFormat profile                           : [email protected] settings, CABAC                   : YesFormat settings, ReFrames                : 4 framesCodec ID                                 : V_MPEG4/ISO/AVCDuration                                 : 1h 30mnBit rate                                 : 15.9 MbpsWidth                                    : 1 920 pixelsHeight                                   : 1 080 pixelsDisplay aspect ratio                     : 16:9Frame rate                               : 23.976 fpsColor space                              : YUVChroma subsampling                       : 4:2:0Bit depth                                : 8 bitsScan type                                : ProgressiveBits/(Pixel*Frame)                       : 0.319Stream size                              : 10.0 GiB (96%)Title                                    : Release for Piratbit.net_R.G. HD-FilmsWriting library                          : x264 core 142 r2431+42 c69a006 tMod [[email protected] X86_64]Encoding settings                        : cabac=1 / ref=4 / deblock=1:-3:-3 / analyse=0x3:0x133 / me=umh / subme=11 / psy=1 / fade_compensate=0.00 / psy_rd=1.05:0.00 / mixed_ref=1 / me_range=24 / chroma_me=1 / trellis=2 / 8x8dct=1 / cqm=0 / deadzone=21,11 / fast_pskip=0 / chroma_qp_offset=-2 / threads=24 / lookahead_threads=4 / sliced_threads=0 / nr=0 / decimate=0 / interlaced=0 / bluray_compat=0 / constrained_intra=0 / fgo=0 / bframes=8 / b_pyramid=2 / b_adapt=2 / b_bias=0 / direct=3 / weightb=1 / open_gop=0 / weightp=2 / keyint=250 / keyint_min=23 / scenecut=40 / intra_refresh=0 / rc=crf / mbtree=0 / crf=19.0000 / qcomp=0.75 / qpmin=0:0:0 / qpmax=69:69:69 / qpstep=4 / ip_ratio=1.30 / pb_ratio=1.20 / aq=1:0.85 / aq-sensitivity=10.00 / aq-factor=1.00:1.00:1.00 / aq2=0 / aq3=0Language                                 : RussianDefault                                  : YesForced                                   : No

AudioID                                       : 2Format                                   : AC-3Format/Info                              : Audio Coding 3Mode extension                           : CM (complete main)Codec ID                                 : A_AC3Duration                                 : 1h 30mnBit rate mode                            : ConstantBit rate                                 : 384 KbpsChannel(s)                               : 6 channelsChannel positions                        : Front: L C R, Side: L R, LFESampling rate                            : 48.0 KHzBit depth                                : 16 bitsCompression mode                         : LossyStream size                              : 248 MiB (2%)Title                                    : Дубляж - [Лицензия]Language                                 : RussianDefault                                  : YesForced                                   : Yes

Menu00:00:00.000                             : en:00:00:00.00000:04:46.661                             : en:00:04:46.66100:09:44.375                             : en:00:09:44.37500:13:03.116                             : en:00:13:03.11600:15:54.745                             : en:00:15:54.74500:20:53.085                             : en:00:20:53.08500:26:05.689                             : en:00:26:05.68900:30:07.305                             : en:00:30:07.30500:33:04.441                             : en:00:33:04.44100:37:55.023                             : en:00:37:55.02300:42:22.707                             : en:00:42:22.70700:47:48.407                             : en:00:47:48.40700:53:28.539                             : en:00:53:28.53900:55:57.020                             : en:00:55:57.02001:02:02.260                             : en:01:02:02.26001:05:19.499                             : en:01:05:19.49901:10:52.707                             : en:01:10:52.70701:15:58.220                             : en:01:15:58.22001:22:05.045                             : en:01:22:05.04501:25:48.894                             : en:01:25:48.894

piratbit.ru

Скачать фильм Железный кулак 2 (2014) через торрент

9 июня 2016 13:30 Железный кулак 2 / The Man with the Iron Fists 2 (2015) Blu-ray CEE 1080p | D .torrent   [Информация о файле (нажмите для просмотра)] Перевод: Профессиональный (полное дублирование) + Испанский + Чешский + Венгерский + Польский + Тайский + Оригинал (Английский) + КомментарииСубтитры: Чешский, Венгерский, Испанский, Польский, Русский, Тайский, Болгарский, Китайский, Греческий, Корейский, Румынский, Турецкий (Вшитые, отключаемые / PGS)Качество: Blu-ray CEE 1080pФормат: BDMVВидео: 1920x1080 (16:9), 23.976 fps, MPEG-4 AVC Video, ~31994 kbps, High Profile 4.1Аудио#1: DTS-HD Master Audio English 3965 kbps 5.1 / 48 kHz / 3965 kbps / 24-bit (DTS Core: 5.1 / 48 kHz / 1509 kbps / 24-bit)Аудио#2: DTS Audio Czech 768 kbps 5.1 / 48 kHz / 768 kbps / 24-bitАудио#3: DTS Audio Hungarian 768 kbps 5.1 / 48 kHz / 768 kbps / 24-bitАудио#4: DTS Audio Spanish 768 kbps 5.1 / 48 kHz / 768 kbps / 24-bitАудио#5: DTS Audio Polish 768 kbps 5.1 / 48 kHz / 768 kbps / 24-bitАудио#6: DTS Audio Russian 768 kbps 5.1 / 48 kHz / 768 kbps / 24-bit |Профессиональный (полное дублирование)|Аудио#7: DTS Audio Thai 768 kbps 5.1 / 48 kHz / 768 kbps / 24-bitАудио#8: Dolby Digital Audio English 192 kbps 2.0 / 48 kHz / 192 kbps / DN -4dB / Dolby Surround |Комментарии| 34,35 Gb 7 4 9 июня 2016 13:30 Железный кулак 2 / The Man with the Iron Fists 2 (2015) BDRip 1080p от HDCLUB | D | Лицензия .torrent   [Информация о файле (нажмите для просмотра)] Перевод: Дублированный [Лицензия]Формат: MKVКодек: MPEG-4 AVCКачество: BDRip 1080pВидео: 1920x1080 (16:9), 23.976 fps, 13 800 KbpsСубтитры: Russian, English, English(SDH) 10,26 Gb 3 3 9 июня 2016 13:30 Железный Кулак 2 / The Man with the Iron Fists 2 (2015) BDRip 720p | Дополнительные материалы .torrent   [Информация о файле (нажмите для просмотра)] Качество: BDRip 720pВидео: 1280x720 (16:9), 23,976 fps, h364, ~4000 kbps avg, ~0.181 bit/pixelАудио: 48 kHz, AC3 Dolby Digital, 2/0 (L,R) ch, ~192.00 kbps avgПеревод: СубтитрыСубтитры: Русские субтитры: есть 718,84 Mb 5 2 9 июня 2016 13:30 Человек с железными кулаками 2 / The Man with the Iron Fists 2 (2015) HDRip | Лицензия .torrent   [Информация о файле (нажмите для просмотра)] Кодек: XviDКачество: HDRipВидео: 2381 Кбит/с, 720x400Звук: Русский (AC3, 6 ch, 384 Кбит/с), английский (AC3, 6 ch, 448 Кбит/с)Субтитры: Отсутствуют 2,04 Gb 90 4 9 июня 2016 13:30 Железный кулак 2 / The Man with the Iron Fists 2 (2015) ВDRip 720p | D | Лицензия .torrent   [Информация о файле (нажмите для просмотра)] Перевод: Дублированный [Лицензия]Кодек: MPEG-4 AVCКачество: BDRip (720p)Видео: 7843 Кбит/сек, 1280x720Звук: Русский (AC3, 6 ch, 384 Кбит/с), английский (DTS 6 ch, 1510 Кбит/с)Субтитры: Английские 6,27 Gb 3 3 9 июня 2016 13:30 Железный кулак 2 / The Man with the Iron Fists 2 (2015) HDRip-AVC от ExKinoRay | D, L2 | Лицензия .torrent   [Информация о файле (нажмите для просмотра)] Качество: HDRip (AVC)Видео: MPEG-4 AVC, 2512 Кбит/с, 1024x576Аудио: Русский (AC3, 6 ch, 384 Кбит/с), английский (AC3, 6 ch, 448 Кбит/с)Субтитры: Английские 2,35 Gb 7 4 9 июня 2016 13:30 Железный кулак 2 / The Man with the Iron Fists 2 (2015) ВDRip 1080р | D | Лицензия .torrent   [Информация о файле (нажмите для просмотра)] Перевод: Дублированный [Лицензия]Кодек: MPEG-4 AVCКачество: BDRip (1080p)Видео: 15,9 Мбит/сек, 1920x1080Звук: Русский (AC3, 6 ch, 384 Кбит/с) 10,48 Gb 3 3 9 июня 2016 13:30 Железный кулак 2 / The Man with the Iron Fists 2 (2015) HDRip | Лицензия .torrent   [Информация о файле (нажмите для просмотра)] Формат: AVI (XviD)Качество: HDRip [Рип с BDRip 720p]Видео: 1772 kb/s, 720x400Аудио: AC3, 384 kb/s (6 ch) 1,37 Gb 8 3 9 июня 2016 13:30 Железный кулак 2 / The Man with the Iron Fists 2 (2015) HDRip от AleksSin | L2 .torrent   [Информация о файле (нажмите для просмотра)] Перевод: Любительский двухголосый [Студия Пиратского дубляжа]Кодек: AVI (XviD)Качество: HDRip (Исх. BDRip 720p)Видео: 688x384 (1.79:1), 23.976 fps, XviD build 73 ~1910 kbps avg, 0.30 bit/pixelЗвук: 48 kHz, AC3 Dolby Digital, 3/2 (L,C,R,l,r) + LFE ch, ~384.00 kbps avgСубтитры: нетВидео: Идентификатор : 0 Формат : MPEG-4 Visual Профиль формата : Advanced [email protected] Параметр BVOP формата : 1 Параметр QPel формата : Нет Параметр GMC формата : Без точки перехода Параметр матрицы формата : Выборочная Идентификатор кодека : XVID Идентификатор кодека/Подсказка : XviD Продолжительность : 1 ч. 30 м. Битрейт : 1910 Кбит/сек Ширина : 688 пикс. Высота : 384 пикс. Соотношение сторон : 16:9 Частота кадров : 23,976 кадр/сек Цветовое пространство : YUV Подвыборка цветности : 4:2:0 Битовая глубина : 8 бит Тип развёртки : Прогрессивная Метод сжатия : С потерями Бит/(Пиксели*Кадры) : 0.302 Размер потока : 1,21 Гбайт (83%) Библиотека кодирования : XviD 73Аудио: Идентификатор : 1 Формат : AC-3 Формат/Информация : Audio Coding 3 Расширение режима : CM (complete main) Идентификатор кодека : 2000 Продолжительность : 1 ч. 30 м. Вид битрейта : Постоянный Битрейт : 384 Кбит/сек Каналы : 6 каналов Расположение каналов : Front: L C R, Side: L R, LFE Частота : 48,0 КГц Битовая глубина : 16 бит Метод сжатия : С потерями Размер потока : 248 Мбайт (17%) Выравнивание : Разделение по промежуткам Продолжительность промежутка : 42 мс. (1,00 видеокадр) Время предзагрузки промежутка : 500 ms 1,46 Gb 4 4 9 июня 2016 13:30 Железный кулак 2 / The Man with the Iron Fists 2 (2015) HDRip | L2 .torrent   [Информация о файле (нажмите для просмотра)] Формат: AVI (XviD)Качество: HDRip [Рип с BDRip 720p]Видео: 1772 kb/s, 720x400Аудио: Russian/English: AC3, 192 kb/s (2 ch) 1,37 Gb 3 5

gig-torrent.net


Смотрите также