Скачать фильм живое в хорошем качестве торрент


Скачать фильм Живое через торрент в хорошем качестве бесплатно 1080p

Раздают: 2 [ 0 KB/s ]
Размер: 3.31 GB | Добавлен: 4 мес. 29 д. назад | Торрент скачан:423 раза
Реклама Дарим 3000 рублей за регистрацию, не упусти свой шанс получить шикарный бонус!!!

27-05-2017 06:03 Живое Скачать торрент  

Живое / Life«Умное. Сильное. Бездушное» Год выпуска: 2017Страна: СШАЖанр: ужасы, фантастика, триллерПродолжительность: 01:35:55Перевод: ДубляжСубтитры: Китайские (вшитые)Режиссер: Даниэль ЭспиносаВ ролях: Хироюки Санада (Sho Murakami), Райан Рейнольдс (Rory Adams), Ребекка Фергюсон (Miranda North), Джейк Джилленхол (David Jordan), Ольга Дыховичная (Ekaterina Golovkina), Эрион Бакаре (Hugh Derry), Хесус Дель Орден (Student 2), Аллен МакЛин (Student 1), Лейла Грэйс Боствик-Ридделл (Student 3), Мари Гвелесиани (Student 4), Дэвид Мьюир (20 / 20 Anchor), Элизабет Варгас (20 / 20 Anchor)Описание: Группа исследователей с международного космического корабля обнаруживает жизнь на Марсе. Они еще не подозревают, какие события повлечет за собой их открытие.Рейтинг: MPAA: R - Лицам до 17 лет обязательно присутствие взрослогоПремьера (мир): 18 марта 2017Премьера (РФ): 23 марта 2017, «WDSSPR»Качество: TeleCine 1080pФормат: MKVВидео: AVC, 1920x846 (2.25:1), 4555 kbps, 23,976 fps, 0,117 bppАудио: AC3 / 2.0 / 48 kHz / 384 kbps /Примечание: Присутствуют видео, голосовые и текстовые вставки рекламыGeneralUnique ID : 215725050254229451763514907634238057213 (0xA24B2226C226324AA9FF6D50B6D16AFD)Complete name : Life.2017.D.Telecine.1O8Op.mkvFormat : MatroskaFormat version : Version 2File size : 3.31 GiBDuration : 1 h 35 minOverall bit rate mode : VariableOverall bit rate : 4 941 kb/sEncoded date : UTC 2017-05-26 15:01:14Writing application : mkvmerge v8.3.0 ('Over the Horizon') 64bitWriting library : libebml v1.3.1 + libmatroska v1.4.2

VideoID : 1Format : AVCFormat/Info : Advanced Video CodecFormat profile : [email protected] settings, CABAC : YesFormat settings, ReFrames : 5 framesCodec ID : V_MPEG4/ISO/AVCDuration : 1 h 35 minBit rate mode : VariableBit rate : 4 555 kb/sMaximum bit rate : 5 000 kb/sWidth : 1 920 pixelsHeight : 846 pixelsDisplay aspect ratio : 2.25:1Frame rate mode : ConstantFrame rate : 23.976 (24000/1001) FPSStandard : ComponentColor space : YUVChroma subsampling : 4:2:0Bit depth : 8 bitsScan type : ProgressiveBits/(Pixel*Frame) : 0.117Stream size : 3.05 GiB (92%)Default : YesForced : NoColor range : LimitedColor primaries : BT.709Transfer characteristics : BT.709Matrix coefficients : BT.709

AudioID : 2Format : AC-3Format/Info : Audio Coding 3Mode extension : CM (complete main)Format settings, Endianness : BigCodec ID : A_AC3Duration : 1 h 35 minBit rate mode : ConstantBit rate : 384 kb/sChannel(s) : 2 channelsChannel positions : Front: L RSampling rate : 48.0 kHzFrame rate : 31.250 FPS (1536 spf)Compression mode : LossyStream size : 263 MiB (8%)Default : YesForced : No

Скриншоты Скачать Живое через торрент http://i92.fastpic.ru/big/2017/0527/98/744ec7931c920a53926c7fe32f99be98.png Скачать фильм Живое через торрент бесплантно в хорошем качестве Описание: Группа исследователей с международного космического корабля обнаруживает жизнь на Марсе. Они еще не подозревают, какие события ... 2017-05-27 06:09 9.1 10 16

Loading...

Loading...

% Раздел Тема Автор DL S | L
Фильмы 2017 [DVDrip, WEB-DLRip, HDrip] (DUB, MVO) [ 1.45 GB ] Живое / Life [2017 BDRip] - [] Twi7ter Скачать
Фильмы 2017 [DVDrip, WEB-DLRip, HDrip] (DUB, MVO) [ 1.41 GB ] Живое / Life [2017 BDRip] - Twi7ter Скачать
Фильмы 2017 [DVDrip, WEB-DLRip, HDrip] (DUB, MVO) [ 2.08 GB ] Живое / Life [2017 HDRip ""] coc900 Скачать
R.G.Resident - Фильмы, Видео [ 1.72 GB ] Живое / Life [2017 BDRip-AVC от R.G. Resident] - -Lexx- Скачать
Фильмы (WEB-DL 720p, 1080p) [ 3.96 GB ] Живое / Life [2017 WEB-DL 1080p] -Lexx- Скачать
R.G.Resident - Фильмы, Видео [ 4.26 GB ] Живое / Life [2017 BDRip 720p] - - R.G.Resident schultz Скачать
R.G.Resident - Фильмы, Видео [ 1.45 GB ] Живое / Life [2017 BDRip от R.G. Resident] - -Lexx- Скачать

Рекламный пират

27-05-2017 06:53 Живое Скачать торрент  

...пипец...у TS качество лучше!!!

27-05-2017 08:37 Живое Скачать торрент  

блин месяц назад фильм шел в кино а качества нету, логан через неделю уже в двд был....

27-05-2017 08:40 Живое Скачать торрент  

27-05-2017 14:51 Живое Скачать торрент  

Layo писал(а):

блин месяц назад фильм шел в кино а качества нету, логан через неделю уже в двд был.... с чего вдруг через неделю?

27-05-2017 15:33 Живое Скачать торрент  

SASHA66 писал(а):

фильм хорош

отвратительный фильмдаже на 6.6 не тянет

27-05-2017 16:59 Живое Скачать торрент  

Wolk писал(а):

SASHA66 писал(а):

фильм хорош

отвратительный фильмдаже на 6.6 не тянеттянет и даже на большее!!!

27-05-2017 19:41 Живое Скачать торрент  

Классный фильм в отличие от Завета, смахивает на первую часть Чужого, лучше не портите себе впечатление смотря это мыло, подождите немного скоро выходит в iTunes.

30-05-2017 09:36 Живое Скачать торрент  

да уж!качество катях!будем ждать лучшего!

Pекламный агент PB

30-05-2017 09:37 Живое Скачать торрент  

Денвир78 писал(а):

Классный фильм в отличие от Завета, смахивает на первую часть Чужого, лучше не портите себе впечатление смотря это мыло, подождите немного скоро выходит в iTunes.

ну я не смотрел Живое!но Завет муть ещё та

31-05-2017 16:25 Живое Скачать торрент  

Нормальный фильмец, концовка шикарна!

Дорогой пользователь! Огромная просьба, поблагодарите релизера, оцените раздачу и оставьте свои комментарий, если Вы скачали Живое через торрент бесплатно! Внесите свою лепту в развитие PiratBit!

Комментировать посты могут только пользователи прошедшие не сложную регистрацию

Живое через торрент Скачать бесплатно Живое Живое скачать торрент Живое смотреть онлайн Cкачать фильм Живое бесплатно Живое скачать торрент в хорошем качестве Живое смотреть онлайн бесплатно в хорошем качестве

Вы можете начинать темыВы можете отвечать на сообщенияВы не можете редактировать свои сообщенияВы не можете удалять свои сообщенияВы не можете голосовать в опросахВы не можете прикреплять файлы к сообщениямВы можете скачивать файлы

piratbit.ru

Скачать фильм Живое через торрент в хорошем качестве бесплатно 720p

x264 [info]: frame I:1151 Avg QP:11.18 size:101138x264 [info]: frame P:33275 Avg QP:13.71 size: 41171x264 [info]: frame B:115142 Avg QP:15.51 size: 14015

GeneralUnique ID : 232924338586845397300113499083423664392 (0xAF3B98895EB798A5A85AA6DB0A1CC908)Complete name : D:\download\Life.2017.BDRiр 720р by schultz R.G.Resident.mkvFormat : MatroskaFormat version : Version 4 / Version 2File size : 4.26 GiBDuration : 1 h 43 minOverall bit rate : 5 871 kb/sEncoded date : UTC 2017-06-10 21:25:15Writing application : mkvmerge v8.9.0 ('Father Daughter') 64bitWriting library : libebml v1.3.3 + libmatroska v1.4.4

VideoID : 1Format : AVCFormat/Info : Advanced Video CodecFormat profile : [email protected] settings, CABAC : YesFormat settings, ReFrames : 11 framesCodec ID : V_MPEG4/ISO/AVCDuration : 1 h 43 minBit rate : 3 976 kb/sWidth : 1 280 pixelsHeight : 536 pixelsDisplay aspect ratio : 2.40:1Frame rate mode : ConstantFrame rate : 23.976 (23976/1000) FPSColor space : YUVChroma subsampling : 4:2:0Bit depth : 8 bitsScan type : ProgressiveBits/(Pixel*Frame) : 0.242Stream size : 2.89 GiB (68%)Writing library : x264 core 146 r2538 121396cEncoding settings : cabac=1 / ref=11 / deblock=1:-3:-3 / analyse=0x3:0x113 / me=umh / subme=11 / psy=1 / psy_rd=1.00:0.00 / mixed_ref=1 / me_range=48 / chroma_me=1 / trellis=2 / 8x8dct=1 / cqm=0 / deadzone=21,11 / fast_pskip=0 / chroma_qp_offset=-2 / threads=12 / lookahead_threads=3 / sliced_threads=0 / nr=0 / decimate=0 / interlaced=0 / bluray_compat=0 / constrained_intra=0 / bframes=10 / b_pyramid=2 / b_adapt=2 / b_bias=0 / direct=3 / weightb=1 / open_gop=0 / weightp=2 / keyint=240 / keyint_min=23 / scenecut=40 / intra_refresh=0 / rc_lookahead=40 / rc=2pass / mbtree=0 / bitrate=3976 / ratetol=1.0 / qcomp=0.60 / qpmin=0 / qpmax=69 / qpstep=4 / cplxblur=20.0 / qblur=0.5 / vbv_maxrate=50000 / vbv_bufsize=62500 / nal_hrd=none / filler=0 / ip_ratio=1.40 / pb_ratio=1.30 / aq=1:1.00Language : EnglishDefault : YesForced : No

Audio #1ID : 2Format : AC-3Format/Info : Audio Coding 3Mode extension : CM (complete main)Format settings, Endianness : BigCodec ID : A_AC3Duration : 1 h 43 minBit rate mode : ConstantBit rate : 384 kb/sChannel(s) : 6 channelsChannel positions : Front: L C R, Side: L R, LFESampling rate : 48.0 kHzFrame rate : 31.250 FPS (1536 spf)Compression mode : LossyStream size : 286 MiB (7%)Language : RussianDefault : YesForced : No

Audio #2ID : 3Format : DTSFormat/Info : Digital Theater SystemsMode : 16Format settings, Endianness : BigCodec ID : A_DTSDuration : 1 h 43 minBit rate mode : ConstantBit rate : 1 509 kb/sChannel(s) : 6 channelsChannel positions : Front: L C R, Side: L R, LFESampling rate : 48.0 kHzFrame rate : 93.750 FPS (512 spf)Bit depth : 16 bitsCompression mode : LossyStream size : 1.10 GiB (26%)Language : EnglishDefault : NoForced : No

Text #1ID : 4Format : UTF-8Codec ID : S_TEXT/UTF8Codec ID/Info : UTF-8 Plain TextDuration : 1 h 9 minBit rate : 2 b/sCount of elements : 26Stream size : 1.18 KiB (0%)Title : ForcedLanguage : RussianDefault : YesForced : No

Text #2ID : 5Format : UTF-8Codec ID : S_TEXT/UTF8Codec ID/Info : UTF-8 Plain TextDuration : 1 h 41 minBit rate : 73 b/sCount of elements : 1128Stream size : 54.5 KiB (0%)Title : fullLanguage : RussianDefault : NoForced : No

Text #3ID : 6Format : UTF-8Codec ID : S_TEXT/UTF8Codec ID/Info : UTF-8 Plain TextDuration : 49 minBit rate : 0 b/sCount of elements : 15Stream size : 282 Bytes (0%)Title : ForcedLanguage : EnglishDefault : NoForced : No

Text #4ID : 7Format : UTF-8Codec ID : S_TEXT/UTF8Codec ID/Info : UTF-8 Plain TextDuration : 1 h 31 minBit rate : 46 b/sCount of elements : 1105Stream size : 30.9 KiB (0%)Title : fullLanguage : EnglishDefault : NoForced : No

Menu00:00:00.000 : en:00:00:00.00000:09:32.864 : en:00:09:32.86400:13:13.084 : en:00:13:13.08400:15:36.894 : en:00:15:36.89400:19:35.341 : en:00:19:35.34100:24:57.454 : en:00:24:57.45400:34:36.992 : en:00:34:36.99200:40:45.109 : en:00:40:45.10900:43:59.303 : en:00:43:59.30300:52:21.805 : en:00:52:21.80500:58:33.927 : en:00:58:33.92701:06:37.785 : en:01:06:37.78501:11:43.257 : en:01:11:43.25701:17:50.875 : en:01:17:50.87501:22:39.621 : en:01:22:39.62101:28:34.309 : en:01:28:34.309

piratbit.ru

Скачать фильм Живое через торрент в хорошем качестве бесплатно TS

Раздают: 2 [ 0 KB/s ]
Размер: 1.37 GB | Добавлен: 6 мес. назад | Торрент скачан:481 раз
Реклама Дарим 3000 рублей за регистрацию, не упусти свой шанс получить шикарный бонус!!!

30-03-2017 07:31 Живое Скачать торрент  

Живое / Life Страна: США Производство: Columbia Pictures, Skydance Productions, Sony Pictures Entertainment (SPE)Год выпуска: 2017Жанр: ужасы, фантастика, триллерПродолжительность: 01:35:33Перевод: Профессиональный (полное дублирование)Субтитры: нет

Режиссер: Даниэль ЭспиносаАвторы сценария: Ретт Риз, Пол Верник

В ролях: Джейк Джилленхол, Ребекка Фергюсон, Райан Рейнольдс, Ольга Дыховичная, Эрион Бакаре, Хироюки Санада, Наоко Мори, Хиу Ун-Син

Описание: Группа исследователей с международного космического корабля обнаруживает жизнь на Марсе. Они ещё не подозревают, какие события повлечёт за собой их открытие...

Дата премьеры (мир): 18 марта 2017Дата премьеры (РФ): 23 марта 2017, «WDSSPR»

Качество: TSФормат: АVIВидео кодек: XviDАудио кодек: АС3Видео: 720x288 (2.500), 30.000 fps, XviD ~1 843 kbps avgАудио: 48 kHz, AC3 Dolby Digital, 2/0 (L,R) ch, ~192 kbps

Скачать Живое через торрент http://img11.lostpic.net/2017/03/28/356957e57f05987d6912f8bd1b27185a.png Скачать фильм Живое через торрент бесплантно в хорошем качестве Описание: Группа исследователей с международного космического корабля обнаруживает жизнь на Марсе. Они ещё не подозревают, какие события ... 2017-03-30 07:31 9.3 10 13

Loading...

Loading...

% Раздел Тема Автор DL S | L
Ultra HD (UHD: 2K, 4K, 8K) — видео сверхвысокой чёткости [ 46.57 GB ] Живое / Life [2017 UHD BDRemux 2160p] DUB+3xAVO [] bober100 Скачать
Фильмы (Blu-ray, BD-Remux, HDDVD) [ 24.45 GB ] Живое / Life [2017 BD Remux 1080p] [] DUB+2xAVO bober100 Скачать
Фильмы [HD 720p, 1080p] (Хороший звук DUB, MVO) [ 7.76 GB ] Живое / Life [2017 BDRip 1080p] DUB + AVO potroks Скачать
Фильмы (HD 720p, 1080p) (48-60 fps) [ 4.26 GB ] Живое / Life [2017 BDRip 720p 60 fps от еnvy / NNNB] DUB | еnvy Скачать
Фильмы (Blu-ray, BD-Remux, HDDVD) [ 31.28 GB ] Живое / Life [2017 Blu-Ray EUR 1080p] DUB [] bober100 Скачать
Фильмы [HD 720p, 1080p] (Хороший звук DUB, MVO) [ 4.37 GB ] Живое / Life [2017 BDRip 720p] potroks Скачать
Фильмы 2017 [DVDrip, WEB-DLRip, HDrip] (DUB, MVO) [ 1.45 GB ] Живое / Life [2017 BDRip] - [] Twi7ter Скачать

Рекламный пират

05-04-2017 20:39 Живое Скачать торрент  

За долгие годы первый американский фильм показывающий совместную научную работу Русских и Американцев.К чему бы это хмм.

P.s Фильм спокойно можно брать в коллекцию научной фантастики,смотрится очень хорошо.

16-04-2017 04:11 Живое Скачать торрент  

хороший фильмец.с удовольствием посмотрел

Дорогой пользователь! Огромная просьба, поблагодарите релизера, оцените раздачу и оставьте свои комментарий, если Вы скачали Живое через торрент бесплатно! Внесите свою лепту в развитие PiratBit!

Комментировать посты могут только пользователи прошедшие не сложную регистрацию

Живое через торрент Скачать бесплатно Живое Живое скачать торрент Живое смотреть онлайн Cкачать фильм Живое бесплатно Живое скачать торрент в хорошем качестве Живое смотреть онлайн бесплатно в хорошем качестве

Вы можете начинать темыВы можете отвечать на сообщенияВы не можете редактировать свои сообщенияВы не можете удалять свои сообщенияВы не можете голосовать в опросахВы не можете прикреплять файлы к сообщениямВы можете скачивать файлы

piratbit.ru

Скачать фильм Живое через торрент в хорошем качестве бесплатно HDRip

Раздают: 10 [ 0 KB/s ]
Размер: 2.08 GB | Добавлен: 4 мес. 14 д. назад | Торрент скачан:959 раз
Реклама Дарим 3000 рублей за регистрацию, не упусти свой шанс получить шикарный бонус!!!

11-06-2017 18:25 Живое Скачать торрент  

Живое / Life

Год выпуска: 2017Страна: США / Columbia Pictures, Skydance Media, Sony Pictures Entertainment (SPE)Жанр: Ужасы, фантастика, триллерПродолжительность: 01:43:59Перевод: Дубляж (iTunes)Субтитры: Русские форсированные - вшитые

Режиссер: Даниэль Эспиноса

В ролях: Джейк Джилленхол, Ребекка Фергюсон (II), Райан Рейнольдс, Ольга Дыховичная, Эрион Бакаре, Хироюки Санада, Наоко Мори, Александр Нгуйен, Камиль Уоррен-Тейлор, Хиу Ун-Син

Описание: Международная космическая станция. Наши дни. С Марса прилетает модуль с образцами пород, куда совершенно случайно затесалась тамошняя инфузория-тапочка в свежезамороженном состоянии. Команда исследователей с упоением начинает издеваться над чужеродным организмом: помещает его в кислотную среду, кормит денатуратом с ложечки, бьет электрическим шокером и поджаривает лазерным резаком. В результате перенесенных потрясений инопланетный гость превращается в агрессивно настроенного пожирателя мозгов, выбирается из инкубатора и устраивает экипажу станции веселую жизнь.

Качество: HDRipФормат: AVIВидео кодек: XviDАудио кодек: AC3Видео: 720x304 (2.37:1), 23.976 fps, XviD build 50 ~2472 kbps avg, 0.47 bit/pixelАудио: 48 kHz, AC3 Dolby Digital, 3/2 (L,C,R,l,r) + LFE ch, ~384 kbps

ОбщееПолное имя : F:\ФИЛЬМЫ\Живое.2017.D.HDRip.aviФормат : AVIФормат/Информация : Audio Video InterleaveПрофиль формата : OpenDMLРазмер файла : 2,08 ГбайтПродолжительность : 1 ч. 43 м.Общий поток : 2863 Кбит/секПрограмма кодирования : VirtualDubMod 1.5.10.3 | www.virtualdub-fr.org || (build 2550/release)Библиотека кодирования : VirtualDubMod build 2550/release

ВидеоИдентификатор : 0Формат : MPEG-4 VisualПрофиль формата : Advanced [email protected]Параметр BVOP формата : 1Параметр QPel формата : НетПараметр GMC формата : Без точки переходаПараметр матрицы формата : Default (MPEG)Идентификатор кодека : XVIDИдентификатор кодека/Подсказка : XviDПродолжительность : 1 ч. 43 м.Битрейт : 2467 Кбит/секШирина : 720 пикселейВысота : 304 пикселяСоотношение сторон : 2,35:1Частота кадров : 23,976 (24000/1001) кадра/секЦветовое пространство : YUVСубдискретизация насыщенности : 4:2:0Битовая глубина : 8 битТип развёртки : ПрогрессивнаяМетод сжатия : С потерямиБит/(Пиксели*Кадры) : 0.470Размер потока : 1,79 Гбайт (86%)Библиотека кодирования : XviD 1.2.1 (UTC 2008-12-04)

АудиоИдентификатор : 1Формат : AC-3Формат/Информация : Audio Coding 3Параметр Endianness формата : BigИдентификатор кодека : 2000Продолжительность : 1 ч. 43 м.Вид битрейта : ПостоянныйБитрейт : 384 Кбит/секКаналы : 6 каналовРасположение каналов : Front: L C R, Side: L R, LFEЧастота : 48,0 КГцЧастота кадров : 31,250 кадров/сек (1536 spf)Битовая глубина : 16 битМетод сжатия : С потерямиРазмер потока : 286 Мбайт (13%)Выравнивание : Разделение по промежуткамПродолжительность промежутка : 42 мс. (1,00 видеокадр)Время предзагрузки промежутка : 500 мс.ServiceKind/String : Complete Main

Скачать Живое через торрент http://pic1.pb.wtf/images/11/ybkav.jpg Скачать фильм Живое через торрент бесплантно в хорошем качестве Описание: Международная космическая станция. Наши дни. С Марса прилетает модуль с образцами пород, куда совершенно случайно затесалась ... 2017-06-11 18:25 8.8 10 15

Loading...

Loading...

% Раздел Тема Автор DL S | L
Ultra HD (UHD: 2K, 4K, 8K) — видео сверхвысокой чёткости [ 46.57 GB ] Живое / Life [2017 UHD BDRemux 2160p] DUB+3xAVO [] bober100 Скачать
Фильмы (Blu-ray, BD-Remux, HDDVD) [ 24.45 GB ] Живое / Life [2017 BD Remux 1080p] [] DUB+2xAVO bober100 Скачать
Фильмы [HD 720p, 1080p] (Хороший звук DUB, MVO) [ 7.76 GB ] Живое / Life [2017 BDRip 1080p] DUB + AVO potroks Скачать
Фильмы (HD 720p, 1080p) (48-60 fps) [ 4.26 GB ] Живое / Life [2017 BDRip 720p 60 fps от еnvy / NNNB] DUB | еnvy Скачать
Фильмы (Blu-ray, BD-Remux, HDDVD) [ 31.28 GB ] Живое / Life [2017 Blu-Ray EUR 1080p] DUB [] bober100 Скачать
Фильмы [HD 720p, 1080p] (Хороший звук DUB, MVO) [ 4.37 GB ] Живое / Life [2017 BDRip 720p] potroks Скачать
Фильмы 2017 [DVDrip, WEB-DLRip, HDrip] (DUB, MVO) [ 1.45 GB ] Живое / Life [2017 BDRip] - [] Twi7ter Скачать

Рекламный пират

12-06-2017 09:05 Живое Скачать торрент  

Прикольное опиание

12-06-2017 22:28 Живое Скачать торрент  

самый предсказуемый фильм который я видел, а может это римэйк чего то старого весь фильм было чувство что я его смотрел, что вот щас они его загонят и его опять кто то отпустит и как всегда угадывалось кто

08-07-2017 15:52 Живое Скачать торрент  

"Задорнов был прав......... " - это лучшее описание к этому фильму

Дорогой пользователь! Огромная просьба, поблагодарите релизера, оцените раздачу и оставьте свои комментарий, если Вы скачали Живое через торрент бесплатно! Внесите свою лепту в развитие PiratBit!

Комментировать посты могут только пользователи прошедшие не сложную регистрацию

Живое через торрент Скачать бесплатно Живое Живое скачать торрент Живое смотреть онлайн Cкачать фильм Живое бесплатно Живое скачать торрент в хорошем качестве Живое смотреть онлайн бесплатно в хорошем качестве

Вы не можете начинать темыВы не можете отвечать на сообщенияВы не можете редактировать свои сообщенияВы не можете удалять свои сообщенияВы не можете голосовать в опросахВы не можете прикреплять файлы к сообщениямВы можете скачивать файлы

piratbit.ru


Смотрите также