Скачать фильм зомби по имени шон скачать торрент в хорошем качестве


Зомби по имени Шон через торрент

ОбщееУникальный идентификатор : 195838003392778365636296865333571084325 (0x9355070A2130520E979973FE4231E025)Полное имя : D:\Video\Зомби по имени Шон.2004.BDRip.720p by msltel.mkvФормат : MatroskaВерсия формата : Version 4 / Version 2Размер файла : 4,42 ГбайтПродолжительность : 1 ч. 39 м.Общий поток : 6369 Кбит/секНазвание фильма : Rip by msltelДата кодирования : UTC 2017-07-05 04:14:41Программа кодирования : mkvmerge v8.2.0 ('World of Adventure') 64bitБиблиотека кодирования : libebml v1.3.1 + libmatroska v1.4.2

ВидеоИдентификатор : 1Формат : AVCФормат/Информация : Advanced Video CodecПрофиль формата : [email protected]Параметр CABAC формата : ДаПараметр ReFrames формата : 9 кадровИдентификатор кодека : V_MPEG4/ISO/AVCПродолжительность : 1 ч. 39 м.Битрейт : 4798 Кбит/секШирина : 1280 пикселейВысота : 560 пикселейСоотношение сторон : 2,25:1Режим частоты кадров : ПостоянныйЧастота кадров : 23,976 (24000/1001) кадра/секЦветовое пространство : YUVСубдискретизация насыщенности : 4:2:0Битовая глубина : 8 битТип развёртки : ПрогрессивнаяБит/(Пиксели*Кадры) : 0.279Размер потока : 3,33 Гбайт (75%)Библиотека кодирования : x264 core 146 r2538 121396cНастройки программы : cabac=1 / ref=9 / deblock=1:-3:-2 / analyse=0x3:0x113 / me=umh / subme=11 / psy=1 / psy_rd=1.00:0.15 / mixed_ref=1 / me_range=32 / chroma_me=1 / trellis=2 / 8x8dct=1 / cqm=0 / deadzone=21,11 / fast_pskip=0 / chroma_qp_offset=-3 / threads=6 / lookahead_threads=1 / sliced_threads=0 / nr=0 / decimate=1 / interlaced=0 / bluray_compat=0 / constrained_intra=0 / bframes=8 / b_pyramid=2 / b_adapt=2 / b_bias=0 / direct=1 / weightb=1 / open_gop=0 / weightp=2 / keyint=230 / keyint_min=23 / scenecut=40 / intra_refresh=0 / rc_lookahead=40 / rc=crf / mbtree=0 / crf=20.1 / qcomp=0.60 / qpmin=0 / qpmax=69 / qpstep=4 / vbv_maxrate=62500 / vbv_bufsize=78125 / crf_max=0.0 / nal_hrd=none / filler=0 / ip_ratio=1.40 / pb_ratio=1.30 / aq=1:1.00Язык : EnglishDefault : ДаForced : Нет

Аудио #1Идентификатор : 2Формат : AC-3Формат/Информация : Audio Coding 3Параметр Endianness формата : BigИдентификатор кодека : A_AC3Продолжительность : 1 ч. 39 м.Вид битрейта : ПостоянныйБитрейт : 448 Кбит/секКаналы : 6 каналовРасположение каналов : Front: L C R, Side: L R, LFEЧастота : 48,0 КГцЧастота кадров : 31,250 кадров/сек (1536 spf)Битовая глубина : 16 битМетод сжатия : С потерямиРазмер потока : 318 Мбайт (7%)Заголовок : MVO (Blu-Ray EUR)Язык : RussianServiceKind/String : Complete MainDefault : ДаForced : Нет

Аудио #2Идентификатор : 3Формат : AC-3Формат/Информация : Audio Coding 3Параметр Endianness формата : BigИдентификатор кодека : A_AC3Продолжительность : 1 ч. 39 м.Вид битрейта : ПостоянныйБитрейт : 224 Кбит/секКаналы : 2 каналаРасположение каналов : Front: L RЧастота : 48,0 КГцЧастота кадров : 31,250 кадров/сек (1536 spf)Битовая глубина : 16 битМетод сжатия : С потерямиРазмер потока : 159 Мбайт (4%)Заголовок : MVO (OPT)Язык : RussianServiceKind/String : Complete MainDefault : НетForced : Нет

Аудио #3Идентификатор : 4Формат : AC-3Формат/Информация : Audio Coding 3Параметр Endianness формата : BigИдентификатор кодека : A_AC3Продолжительность : 1 ч. 39 м.Вид битрейта : ПостоянныйБитрейт : 448 Кбит/секКаналы : 6 каналовРасположение каналов : Front: L C R, Side: L R, LFEЧастота : 48,0 КГцЧастота кадров : 31,250 кадров/сек (1536 spf)Битовая глубина : 16 битМетод сжатия : С потерямиРазмер потока : 318 Мбайт (7%)Заголовок : MVO (Tycoon)Язык : RussianServiceKind/String : Complete MainDefault : НетForced : Нет

Аудио #4Идентификатор : 5Формат : AC-3Формат/Информация : Audio Coding 3Параметр Endianness формата : BigИдентификатор кодека : A_AC3Продолжительность : 1 ч. 39 м.Вид битрейта : ПостоянныйБитрейт : 448 Кбит/секКаналы : 6 каналовРасположение каналов : Front: L C R, Side: L R, LFEЧастота : 48,0 КГцЧастота кадров : 31,250 кадров/сек (1536 spf)Битовая глубина : 16 битМетод сжатия : С потерямиРазмер потока : 318 Мбайт (7%)Заголовок : originalЯзык : EnglishServiceKind/String : Complete MainDefault : НетForced : Нет

Текст #1Идентификатор : 6Формат : UTF-8Идентификатор кодека : S_TEXT/UTF8Идентификатор кодека/Информация : UTF-8 Plain TextПродолжительность : 1 ч. 38 м.Битрейт : 112 бит/секElementCount : 1266Размер потока : 80,7 Кбайт (0%)Заголовок : русскиеЯзык : RussianDefault : НетForced : Нет

Текст #2Идентификатор : 7Формат : UTF-8Идентификатор кодека : S_TEXT/UTF8Идентификатор кодека/Информация : UTF-8 Plain TextПродолжительность : 1 ч. 34 м.Битрейт : 75 бит/секElementCount : 1610Размер потока : 52,5 Кбайт (0%)Заголовок : английскиеЯзык : EnglishDefault : НетForced : Нет

Меню00:00:00.000 : :Chapter 0100:03:35.048 : :Chapter 0200:05:02.885 : :Chapter 0300:07:26.570 : :Chapter 0400:08:52.490 : :Chapter 0500:12:14.942 : :Chapter 0600:13:50.538 : :Chapter 0700:15:58.957 : :Chapter 0800:18:26.855 : :Chapter 0900:21:48.515 : :Chapter 1000:25:34.991 : :Chapter 1100:28:43.388 : :Chapter 1200:30:53.268 : :Chapter 1300:33:05.775 : :Chapter 1400:35:23.871 : :Chapter 1500:36:59.592 : :Chapter 1600:39:33.704 : :Chapter 1700:40:34.931 : :Chapter 1800:42:11.070 : :Chapter 1900:46:04.553 : :Chapter 2000:47:41.190 : :Chapter 2100:48:35.996 : :Chapter 2200:51:32.964 : :Chapter 2300:55:00.672 : :Chapter 2400:56:49.239 : :Chapter 2500:58:04.564 : :Chapter 2601:00:09.147 : :Chapter 2701:04:20.398 : :Chapter 2801:07:50.483 : :Chapter 2901:10:42.947 : :Chapter 3001:13:57.349 : :Chapter 3101:16:39.428 : :Chapter 3201:21:23.295 : :Chapter 3301:25:24.828 : :Chapter 3401:29:58.393 : :Chapter 3501:31:36.490 : :Chapter 3601:33:47.662 : :Chapter 3701:39:19.870 : :Chapter 38

piratbit.ru

Скачать фильм Зомби по имени Шон (2004) через торрент

5 июля 2016 07:21 Зомби по имени Шон / Shaun of the Dead (2004) BDRip 1080p .torrent   [Информация о файле (нажмите для просмотра)] Перевод: Многоголосый закадровый (лицензия Blu-ray EUR) + Профессиональный многоголосый закадровый (Tycoon-Studio) + ОригиналКодек: x264Качество: BDRip 1080pВидео: 1872x820, 9842 Kbps, 23.976 fpsАудио #1: AC-3, 6 ch, 448 kbps (Rus)|Многоголосый закадровый, лицензия Blu-ray EUR|Аудио #2: AC-3, 6 ch, 448 kbps (Rus)|Многоголосый закадровый, Tycoon-Studio|(с ненормативной лексикой)Аудио #3: AC-3, 6 ch, 448 kbps (Eng)Субтитры: русские(2 вида), английскиеВидео: Идентификатор : 1 Формат : AVC Формат/Информация : Advanced Video Codec Профиль формата : [email protected] Параметр CABAC формата : Да Параметр ReFrames формата : 5 кадров Идентификатор кодека : V_MPEG4/ISO/AVC Продолжительность : 1 ч. 39 м. Битрейт : 9842 Кбит/сек Ширина : 1872 пикселя Высота : 820 пикселей Соотношение сторон : 2,25:1 Режим частоты кадров : Постоянный Частота кадров : 23,976 кадра/сек Цветовое пространство : YUV Субдискретизация насыщенности : 4:2:0 Битовая глубина : 8 бит Тип развёртки : Прогрессивная Бит/(Пиксели*Кадры) : 0.267 Размер потока : 6,67 Гбайт (86%) Заголовок : Rip by Boriy Библиотека кодирования : x264 core 140 r2377 1ca7bb9 Настройки программы : cabac=1 / ref=5 / deblock=1:-3:-3 / analyse=0x3:0x113 / me=umh / subme=11 / psy=1 / psy_rd=1.00:0.00 / mixed_ref=1 / me_range=32 / chroma_me=1 / trellis=2 / 8x8dct=1 / cqm=0 / deadzone=21,11 / fast_pskip=0 / chroma_qp_offset=-2 / threads=12 / lookahead_threads=1 / sliced_threads=0 / nr=0 / decimate=0 / interlaced=0 / bluray_compat=0 / constrained_intra=0 / bframes=6 / b_pyramid=2 / b_adapt=2 / b_bias=0 / direct=3 / weightb=1 / open_gop=0 / weightp=2 / keyint=240 / keyint_min=23 / scenecut=40 / intra_refresh=0 / rc=2pass / mbtree=0 / bitrate=9842 / ratetol=1.0 / qcomp=0.60 / qpmin=0 / qpmax=69 / qpstep=4 / cplxblur=20.0 / qblur=0.5 / ip_ratio=1.40 / pb_ratio=1.30 / aq=1:0.80 Язык : English Default : Да Forced : НетАудио #1: Идентификатор : 2 Формат : AC-3 Формат/Информация : Audio Coding 3 Расширение режима : CM (complete main) Параметр Endianness формата : Big Идентификатор кодека : A_AC3 Продолжительность : 1 ч. 39 м. Вид битрейта : Постоянный Битрейт : 448 Кбит/сек Каналы : 6 каналов Расположение каналов : Front: L C R, Side: L R, LFE Частота : 48,0 КГц Битовая глубина : 16 бит Метод сжатия : С потерями Размер потока : 318 Мбайт (4%) Заголовок : Многоголосый закадровый (лицензия Blu-ray EUR) Язык : Russian Default : Да Forced : НетАудио #2: Идентификатор : 3 Формат : AC-3 Формат/Информация : Audio Coding 3 Расширение режима : CM (complete main) Параметр Endianness формата : Big Идентификатор кодека : A_AC3 Продолжительность : 1 ч. 39 м. Вид битрейта : Постоянный Битрейт : 448 Кбит/сек Каналы : 6 каналов Расположение каналов : Front: L C R, Side: L R, LFE Частота : 48,0 КГц Битовая глубина : 16 бит Метод сжатия : С потерями Задержка видео : 16 мс. Размер потока : 318 Мбайт (4%) Заголовок : Профессиональный многоголосый закадровый (Tycoon-Studio)(с ненормативной лексикой) Язык : Russian Default : Нет Forced : НетАудио #3: Идентификатор : 4 Формат : AC-3 Формат/Информация : Audio Coding 3 Расширение режима : CM (complete main) Параметр Endianness формата : Big Идентификатор кодека : A_AC3 Продолжительность : 1 ч. 39 м. Вид битрейта : Постоянный Битрейт : 448 Кбит/сек Каналы : 6 каналов Расположение каналов : Front: L C R, Side: L R, LFE Частота : 48,0 КГц Битовая глубина : 16 бит Метод сжатия : С потерями Размер потока : 318 Мбайт (4%) Заголовок : Оригинал Язык : English Default : Нет Forced : Нет 7,76 Gb 11 3 5 июля 2016 07:21 Зомби по имени Шон / Shaun of the Dead (2004) BDRip 720p от Leonardo | P2 | Tycoon .torrent   [Информация о файле (нажмите для просмотра)] Перевод: Профессиональный (двухголосый закадровый) | Tycoon (ненормативная лексика)Формат: MKVВидео кодек: MPEG-4 AVC Аудио кодек: AC3Видео: AVC, 1280x560 (2.25:1) at 23.976 fps, AVC at 7595 kbps avg, 0.442 bit/pixelАудио: 48 kHz, AC3 Dolby Digital, 3/2 (L,C,R,l,r) + LFE ch, 448.00 kbps - RussianСубтитры: Русские, английские 5,69 Gb 7 2 5 июля 2016 07:21 Зомби по имени Шон / Shaun of the Dead (2004) HDRip от New-Team | P | Лицензия .torrent   [Информация о файле (нажмите для просмотра)] Перевод: Профессиональный (многоголосый закадровый)Видео: 720x304 (2.37:1), 23.976 fps, XviD build 65, 1633 kbps avg, 0.31 bit/pixelАудио: AC3 Dolby Digital, 48 kHz, 6 ch, 448 kbps |MVO 1,45 Gb 77 2 5 июля 2016 07:21 Зомби по имени Шон / Shaun of the Dead (2004) HDRip от New-Team | P | Лицензия .torrent   [Информация о файле (нажмите для просмотра)] Перевод: Профессиональный (многоголосый закадровый)Видео: 640x272 (2.35:1), 23.976 fps, XviD build 65, 910 kbps avg, 0.22 bit/pixelАудио: MPEG Layer 3, 48 kHz, 2 ch, 128 kbps |MVO 744,63 Mb 7 2 5 июля 2016 07:21 Зомби по имени Шон / Shaun of the Dead (2004) HDRip от New-Team | P2 | Tycoon .torrent   [Информация о файле (нажмите для просмотра)] Перевод: Профессиональный (двухголосый закадровый)Видео: 720x304 (2.37:1), 23.976 fps, XviD build 65, 1633 kbps avg, 0.31 bit/pixelАудио: AC3 Dolby Digital, 48 kHz, 6 ch, 448 kbps |DVO 1,45 Gb 6 4 5 июля 2016 07:21 Зомби по имени Шон / Shaun of the Dead (2004) HDRip от New-Team | P2 | Tycoon .torrent   [Информация о файле (нажмите для просмотра)] Перевод: Профессиональный (двухголосый закадровый)Видео: 640x272 (2.35:1), 23.976 fps, XviD build 65, 910 kbps avg, 0.22 bit/pixelАудио: MPEG Layer 3, 48 kHz, 2 ch, 128 kbps |DVO 744,63 Mb 4 2 5 июля 2016 07:21 Зомби по имени Шон / Shaun of the Dead (2004) HDRip-AVC | P, Р2 .torrent   [Информация о файле (нажмите для просмотра)] Перевод: Профессиональный (многоголосый, закадровый)[с лицензии], Профессиональный (двухголосый, закадровый) - Tycoon StudioКачество: HDRip-AVCФормат: MKVВидео: 1024x432, 23.976, ~1650 kbps, 0.156 bppАудио №1: AAC, 6сh, ~234 kbps- русский многоголосый, закадровый перевод с лицензии,Аудио №2: AAC, 6сh, ~248 kbps- русский двухголосый, закадровый перевод от студии TycoonСубтитры: русские, английскиеВидео: Идентификатор : 1 Формат : AVC Формат/Информация : Advanced Video Codec Профиль формата : [email protected] Параметр CABAC формата : Да Параметр ReFrames формата : 4 кадра Идентификатор кодека : V_MPEG4/ISO/AVC Продолжительность : 1 ч. 39 м. Номинальный битрейт : 1650 Кбит/сек Ширина : 1024 пикселя Высота : 432 пикселя Соотношение сторон : 2,35:1 Частота кадров : 23,976 кадра/сек Цветовое пространство : YUV Субдискретизация насыщенности : 4:2:0 Битовая глубина : 8 бит Тип развёртки : Прогрессивная Бит/(Пиксели*Кадры) : 0.156 Библиотека кодирования : x264 core 67 r1137M 1fda882 Настройки программы : cabac=1 / ref=4 / deblock=1:0:0 / analyse=0x1:0x131 / me=umh / subme=6 / psy_rd=1.0:0.0 / mixed_ref=1 / me_range=16 / chroma_me=1 / trellis=2 / 8x8dct=0 / cqm=0 / deadzone=21,11 / chroma_qp_offset=-2 / threads=3 / nr=0 / decimate=0 / mbaff=0 / bframes=2 / b_pyramid=0 / b_adapt=2 / b_bias=0 / direct=1 / wpredb=1 / keyint=250 / keyint_min=25 / scenecut=40 / rc=abr / bitrate=1650 / ratetol=1.0 / qcomp=0.60 / qpmin=10 / qpmax=51 / qpstep=4 / ip_ratio=1.40 / pb_ratio=1.30 / aq=1:1.00 Язык : English Default : Да Forced : НетАудио #1: Идентификатор : 2 Формат : AAC Формат/Информация : Advanced Audio Codec Профиль формата : HE-AAC / LC Идентификатор кодека : A_AAC Продолжительность : 1 ч. 39 м. Каналы : 6 каналов Расположение каналов : Front: L C R, Side: L R, LFE Частота : 48,0 КГц / 24,0 КГц Метод сжатия : С потерями Заголовок : License ~234 kbps Язык : Russian Default : Да Forced : НетАудио #2: Идентификатор : 3 Формат : AAC Формат/Информация : Advanced Audio Codec Профиль формата : HE-AAC / LC Идентификатор кодека : A_AAC Продолжительность : 1 ч. 39 м. Каналы : 6 каналов Расположение каналов : Front: L C R, Side: L R, LFE Частота : 48,0 КГц / 24,0 КГц Метод сжатия : С потерями Заголовок : Tycoon-Studio ~248 kbps Язык : Russian Default : Нет Forced : Нет 1,46 Gb 3 3 5 июля 2016 07:21 Зомби по имени Шон / Shaun of the Dead (2004) BDRip 720p | P .torrent   [Информация о файле (нажмите для просмотра)] Перевод: Профессиональный (многоголосый, закадровый) - Tycoon StudioКачество: BDRipФормат: MKVВидео: 1280x560, 23.976 fps, 7038 kbpsАудио: Русский AC3 5.1 448 Kbps; Английский AC3 5.1 640 KbpsСубтитры: Русские, АнглийскиеВидео: Идентификатор : 1 Формат : AVC Формат/Информация : Advanced Video Codec Профиль формата : [email protected] Параметр CABAC формата : Да Параметр ReFrames формата : 5 кадров Идентификатор кодека : V_MPEG4/ISO/AVC Продолжительность : 1 ч. 39 м. Битрейт : 7038 Кбит/сек Ширина : 1280 пикселей Высота : 560 пикселей Соотношение сторон : 2,25:1 Частота кадров : 23,976 кадра/сек Цветовое пространство : YUV Субдискретизация насыщенности : 4:2:0 Битовая глубина : 8 бит Тип развёртки : Прогрессивная Бит/(Пиксели*Кадры) : 0.410 Размер потока : 4,78 Гбайт (85%) Заголовок : Shaun of the Dead (2004) Библиотека кодирования : x264 core 77 r1280M 5cda2cf Настройки программы : cabac=1 / ref=5 / deblock=1:-3:-3 / analyse=0x3:0x113 / me=tesa / subme=9 / psy=1 / psy_rd=1.1:0.0 / mixed_ref=1 / me_range=16 / chroma_me=1 / trellis=2 / 8x8dct=1 / cqm=0 / deadzone=21,11 / chroma_qp_offset=-2 / threads=6 / nr=0 / decimate=0 / mbaff=0 / constrained_intra=0 / bframes=6 / b_pyramid=0 / b_adapt=2 / b_bias=0 / direct=3 / wpredb=1 / keyint=250 / keyint_min=25 / scenecut=40 / rc_lookahead=40 / rc=2pass / mbtree=1 / bitrate=7038 / ratetol=1.0 / qcomp=0.60 / qpmin=10 / qpmax=51 / qpstep=4 / cplxblur=20.0 / qblur=0.5 / ip_ratio=1.40 / aq=1:0.85 / zones=31403,32788,b=1.35/92557,131791,b=1.25 Язык : English Default : Да Forced : НетАудио #1: Идентификатор : 2 Формат : AC-3 Формат/Информация : Audio Coding 3 Расширение режима : CM (complete main) Идентификатор кодека : A_AC3 Продолжительность : 1 ч. 39 м. Вид битрейта : Постоянный Битрейт : 448 Кбит/сек Каналы : 6 каналов Расположение каналов : Front: L C R, Side: L R, LFE Частота : 48,0 КГц Битовая глубина : 16 бит Метод сжатия : С потерями Задержка видео : 24 мс. Размер потока : 319 Мбайт (6%) Заголовок : AC3 5.1 448 Kbps Язык : Russian Default : Да Forced : НетАудио #2: Идентификатор : 3 Формат : AC-3 Формат/Информация : Audio Coding 3 Расширение режима : CM (complete main) Идентификатор кодека : A_AC3 Продолжительность : 1 ч. 39 м. Вид битрейта : Постоянный Битрейт : 640 Кбит/сек Каналы : 6 каналов Расположение каналов : Front: L C R, Side: L R, LFE Частота : 48,0 КГц Битовая глубина : 16 бит Метод сжатия : С потерями Размер потока : 455 Мбайт (8%) Заголовок : AC3 5.1 640 Kbps Язык : English Default : Нет Forced : Нет 5,65 Gb 3 4 5 июля 2016 07:21 Зомби по имени Шон / Shaun of the Dead (2004) HDRip от Scarabey .torrent   [Информация о файле (нажмите для просмотра)] Перевод: Профессиональный (многоголосый, закадровый)Качество: HDRipФормат: AVIВидео: 720x304 (2.37:1), 23.976 fps, XviD build 50 ~1635 kbps avg, 0.31 bit/pixelАудио: 48 kHz, AC3 Dolby Digital, 3/2 (L,C,R,l,r) + LFE ch, ~448.00 kbps avg 1,45 Gb 5 2 5 июля 2016 07:21 Зомби по имени Шон / Shaun of the Dead (2004) HDRip от Scarabey .torrent   [Информация о файле (нажмите для просмотра)] Перевод: Профессиональный (многоголосый, закадровый)Качество: HDRipФормат: AVIВидео: 640x272 (2.35:1), 23.976 fps, XviD build 50 ~908 kbps avg, 0.22 bit/pixelАудио: 48 kHz, MPEG Layer 3, 2 ch, ~128.00 kbps avg 742,89 Mb 3 2 5 июля 2016 07:21 Зомби по имени Шон / Shaun of the Dead (2004) BDRip-AVC от HELLYWOOD .torrent   [Информация о файле (нажмите для просмотра)] Контейнер: MKVКачество: BDRip-AVCВидео: [email protected], 1040х456 (2,25:1) at 23,976 fps, ~2719 Kbps avgАудио#1: Russian: HE-AAC, 224 Kbps, 48 kHz, 6 channels[Многоголосый (Tycoon-Studio)]Аудио#2: English: HE-AAC, 208 Kbps, 48 kHz, 6 channels[Оригинал]Субтитры#1: RussianСубтитры#2: English 2,18 Gb 15 1 5 июля 2016 07:21 Зомби по имени Шон / Shaun of the Dead (2004) BDRip от HELLYWOOD .torrent   [Информация о файле (нажмите для просмотра)] Перевод: Многоголосый закадровый, Tycoon-Studio (ненормативная лексика) + Многоголосый закадровый (цензурный) (отдельно) + оригинальная звуковая дорожка (отдельно)Субтитры: Русские (мат), Русские (без мата), Русские (мат, sunny-sko), Русские (мат, Beez-one), Русские (мат), Английские .srtФормат: AVIКачество: BDRip (источник: Blu-ray Remux/1080p/) 2,08 Gb 3 5 5 июля 2016 07:20 Зомби по имени Шон / Shaun of the Dead (2004) BDRip от HQCLUB .torrent   [Информация о файле (нажмите для просмотра)] Перевод: Профессиональный (многоголосый) + Английская дорожкаСубтитры: Русские (5 видов), английские внешниеФормат: AVIКачество: BDRip (источник: HDCLUB /Blu-Ray Remux/1080p)Видео: 720x304 (2.37:1), 23.976 fps, XviD build 50 ~2244 kbps avg, 0.43 bit/pixelАудио #1: 48 kHz, AC3 Dolby Digital, 3/2 (L,C,R,l,r) + LFE ch, ~448 kbps avgАудио #2: 48 kHz, AC3 Dolby Digital, 3/2 (L,C,R,l,r) + LFE ch, ~448 kbps avgАудио #3: 48 kHz, AC3 Dolby Digital, 2/0 (L,R) ch, ~192 kbps avg (UKR)(отдельно) 2,18 Gb 3 4 5 июля 2016 07:20 Зомби по имени Шон / Shaun of the Dead (2004) HDRip от HQ-ViDEO .torrent   1,46 Gb 3 4

gig-torrent.net

Зомби по имени Шон через торрент

ОбщееУникальный идентификатор : 244333195713762764127921298960929390786 (0xB7D0DC9F240D1444B911BFCEA43E00C2)Полное имя : D:\Video\Зомби по имени Шон.2004.BDRip.1080p by msltel.mkvФормат : MatroskaВерсия формата : Version 4 / Version 2Размер файла : 11,3 ГбайтПродолжительность : 1 ч. 39 м.Общий поток : 16,3 Мбит/секНазвание фильма : Rip by msltelДата кодирования : UTC 2017-07-06 01:50:32Программа кодирования : mkvmerge v8.2.0 ('World of Adventure') 64bitБиблиотека кодирования : libebml v1.3.1 + libmatroska v1.4.2

ВидеоИдентификатор : 1Формат : AVCФормат/Информация : Advanced Video CodecПрофиль формата : [email protected]Параметр CABAC формата : ДаПараметр ReFrames формата : 4 кадраИдентификатор кодека : V_MPEG4/ISO/AVCПродолжительность : 1 ч. 39 м.Битрейт : 12,3 Мбит/секШирина : 1874 пикселяВысота : 820 пикселейСоотношение сторон : 2,25:1Режим частоты кадров : ПостоянныйЧастота кадров : 23,976 (24000/1001) кадра/секЦветовое пространство : YUVСубдискретизация насыщенности : 4:2:0Битовая глубина : 8 битТип развёртки : ПрогрессивнаяБит/(Пиксели*Кадры) : 0.333Размер потока : 8,52 Гбайт (75%)Библиотека кодирования : x264 core 146 r2538 121396cНастройки программы : cabac=1 / ref=4 / deblock=1:-3:-2 / analyse=0x3:0x113 / me=umh / subme=11 / psy=1 / psy_rd=1.00:0.15 / mixed_ref=1 / me_range=32 / chroma_me=1 / trellis=2 / 8x8dct=1 / cqm=0 / deadzone=21,11 / fast_pskip=0 / chroma_qp_offset=-3 / threads=6 / lookahead_threads=1 / sliced_threads=0 / nr=0 / decimate=1 / interlaced=0 / bluray_compat=0 / constrained_intra=0 / bframes=8 / b_pyramid=2 / b_adapt=2 / b_bias=0 / direct=1 / weightb=1 / open_gop=0 / weightp=2 / keyint=230 / keyint_min=23 / scenecut=40 / intra_refresh=0 / rc_lookahead=40 / rc=crf / mbtree=0 / crf=19.7 / qcomp=0.60 / qpmin=0 / qpmax=69 / qpstep=4 / vbv_maxrate=62500 / vbv_bufsize=78125 / crf_max=0.0 / nal_hrd=none / filler=0 / ip_ratio=1.40 / pb_ratio=1.30 / aq=1:1.00Язык : EnglishDefault : ДаForced : Нет

Аудио #1Идентификатор : 2Формат : DTSФормат/Информация : Digital Theater SystemsРежим : 16Параметр Endianness формата : BigИдентификатор кодека : A_DTSПродолжительность : 1 ч. 39 м.Вид битрейта : ПостоянныйБитрейт : 768 Кбит/секКаналы : 6 каналовРасположение каналов : Front: L C R, Side: L R, LFEЧастота : 48,0 КГцЧастота кадров : 93,750 кадра/сек (512 spf)Битовая глубина : 16 битМетод сжатия : С потерямиРазмер потока : 546 Мбайт (5%)Заголовок : MVO (Blu-Ray EUR)Язык : RussianDefault : ДаForced : Нет

Аудио #2Идентификатор : 3Формат : AC-3Формат/Информация : Audio Coding 3Параметр Endianness формата : BigИдентификатор кодека : A_AC3Продолжительность : 1 ч. 39 м.Вид битрейта : ПостоянныйБитрейт : 224 Кбит/секКаналы : 2 каналаРасположение каналов : Front: L RЧастота : 48,0 КГцЧастота кадров : 31,250 кадров/сек (1536 spf)Битовая глубина : 16 битМетод сжатия : С потерямиРазмер потока : 159 Мбайт (1%)Заголовок : MVO (OPT)Язык : RussianServiceKind/String : Complete MainDefault : НетForced : Нет

Аудио #3Идентификатор : 4Формат : DTSФормат/Информация : Digital Theater SystemsРежим : 16Параметр Endianness формата : BigИдентификатор кодека : A_DTSПродолжительность : 1 ч. 39 м.Вид битрейта : ПостоянныйБитрейт : 1509 Кбит/секКаналы : 6 каналовРасположение каналов : Front: L C R, Side: L R, LFEЧастота : 48,0 КГцЧастота кадров : 93,750 кадра/сек (512 spf)Битовая глубина : 24 битМетод сжатия : С потерямиРазмер потока : 1,05 Гбайт (9%)Заголовок : MVO (Tycoon)Язык : RussianDefault : НетForced : Нет

Аудио #4Идентификатор : 5Формат : DTSФормат/Информация : Digital Theater SystemsРежим : 16Параметр Endianness формата : BigИдентификатор кодека : A_DTSПродолжительность : 1 ч. 39 м.Вид битрейта : ПостоянныйБитрейт : 1509 Кбит/секКаналы : 6 каналовРасположение каналов : Front: L C R, Side: L R, LFEЧастота : 48,0 КГцЧастота кадров : 93,750 кадра/сек (512 spf)Битовая глубина : 24 битМетод сжатия : С потерямиРазмер потока : 1,05 Гбайт (9%)Заголовок : originalЯзык : EnglishDefault : НетForced : Нет

Текст #1Идентификатор : 6Формат : UTF-8Идентификатор кодека : S_TEXT/UTF8Идентификатор кодека/Информация : UTF-8 Plain TextПродолжительность : 1 ч. 38 м.Битрейт : 112 бит/секElementCount : 1266Размер потока : 80,7 Кбайт (0%)Заголовок : русскиеЯзык : RussianDefault : НетForced : Нет

Текст #2Идентификатор : 7Формат : UTF-8Идентификатор кодека : S_TEXT/UTF8Идентификатор кодека/Информация : UTF-8 Plain TextПродолжительность : 1 ч. 34 м.Битрейт : 75 бит/секElementCount : 1610Размер потока : 52,5 Кбайт (0%)Заголовок : английскиеЯзык : EnglishDefault : НетForced : Нет

Меню00:00:00.000 : :Chapter 0100:03:35.048 : :Chapter 0200:05:02.885 : :Chapter 0300:07:26.570 : :Chapter 0400:08:52.490 : :Chapter 0500:12:14.942 : :Chapter 0600:13:50.538 : :Chapter 0700:15:58.957 : :Chapter 0800:18:26.855 : :Chapter 0900:21:48.515 : :Chapter 1000:25:34.991 : :Chapter 1100:28:43.388 : :Chapter 1200:30:53.268 : :Chapter 1300:33:05.775 : :Chapter 1400:35:23.871 : :Chapter 1500:36:59.592 : :Chapter 1600:39:33.704 : :Chapter 1700:40:34.931 : :Chapter 1800:42:11.070 : :Chapter 1900:46:04.553 : :Chapter 2000:47:41.190 : :Chapter 2100:48:35.996 : :Chapter 2200:51:32.964 : :Chapter 2300:55:00.672 : :Chapter 2400:56:49.239 : :Chapter 2500:58:04.564 : :Chapter 2601:00:09.147 : :Chapter 2701:04:20.398 : :Chapter 2801:07:50.483 : :Chapter 2901:10:42.947 : :Chapter 3001:13:57.349 : :Chapter 3101:16:39.428 : :Chapter 3201:21:23.295 : :Chapter 3301:25:24.828 : :Chapter 3401:29:58.393 : :Chapter 3501:31:36.490 : :Chapter 3601:33:47.662 : :Chapter 3701:39:19.870 : :Chapter 38

piratbit.ru

Зомби по имени Шон 2004

Название: Зомби по имени Шон / Shaun of the Dead (2004) BDRip 720p | P
Качество видео: BDRip 720p
Перевод: Профессиональный (многоголосый, закадровый)
Формат видео: Matroska
Видео: 1280x560 at 23.976 fps, [email protected], ~4798 kbps avg
Аудио: Russian: 48 kHz, AC3 Dolby Digital, 3/2 (L,C,R,l,r) + LFE ch, ~448 kbps avg |Многоголосый закадровый, Blu-ray EUR|Russian: 48 kHz, AC3 Dolby Digital, 2/0 (L,R) ch, ~224 kbps avg |Многоголосый закадровый, OPT|Russian: 48 kHz, AC3 Dolby Digital, 3/2 (L,C,R,l,r) + LFE ch, ~448 kbps avg |Многоголосый закадровый, Tycoon-Studio|English: 48 kHz, AC3 Dolby Digital, 3/2 (L,C,R,l,r) + LFE ch, ~448 kbps avg
Скачать

Загрузка начнется в течение 5 сек.

4.42 GB

Название: Зомби по имени Шон / Shaun of the Dead (2004) BDRip 1080p
Качество видео: BDRip 1080p
Перевод: Многоголосый закадровый (лицензия Blu-ray EUR) + Профессиональный многоголосый закадровый (Tycoon-Studio) + Оригинал
Видео: x264 1872x820, 9842 Kbps, 23.976 fps
Аудио: AC-3, 6 ch, 448 kbps (Rus)|Многоголосый закадровый, лицензия Blu-ray EUR|AC-3, 6 ch, 448 kbps (Rus)|Многоголосый закадровый, Tycoon-Studio|(с ненормативной лексикой)AC-3, 6 ch, 448 kbps (Eng)
Скачать

Загрузка начнется в течение 5 сек.

7.76 GB

Название: Зомби по имени Шон / Shaun of the Dead (2004) BDRip 720p от leonardo 59 | Tycoon
Качество видео: BDRip 720p Исходник: Blu-ray
Перевод: Профессиональный (двухголосый закадровый) | Tycoon (ненормативная лексика)
Формат видео: MKV Видео кодек: MPEG-4 AVC Аудио кодек: AC3
Видео: AVC, 1280x560 (2.25:1) at 23.976 fps, AVC at 7595 kbps avg, 0.442 bit/pixel
Аудио: 48 kHz, AC3 Dolby Digital, 3/2 (L,C,R,l,r) + LFE ch, 448.00 kbps - Russian
Скачать

Загрузка начнется в течение 5 сек.

5.69 GB

Название: Зомби по имени Шон / Shaun of the Dead (2004) HDRip от Youtracker | P | Лицензия
Качество видео: HDRip (видео отсюда)
Перевод: Профессиональный (многоголосый закадровый) | R5
Видео: 640x272 (2.35:1), 23.976 fps, XviD build 65, 910 kbps avg, 0.22 bit/pixel
Аудио: MPEG Layer 3, 48 kHz, 2 ch, 128 kbps | MVO
Скачать

Загрузка начнется в течение 5 сек.

744.63 MB

Название: Зомби по имени Шон / Shaun of the Dead (2004) HDRip от Youtracker | P2 | Tycoon
Качество видео: HDRip / источник: BDRip 720p
Перевод: Профессиональный (двухголосый закадровый) | Tycoon (ненормативная лексика)
Видео: 640x272 (2.35:1), 23.976 fps, XviD build 65, 910 kbps avg, 0.22 bit/pixel
Аудио: MPEG Layer 3, 48 kHz, 2 ch, 128 kbps | DVO
Скачать

Загрузка начнется в течение 5 сек.

744.63 MB

Название: Зомби по имени Шон / Shaun of the Dead (2004) HDRip от Youtracker | P | Лицензия
Качество видео: HDRip (видео отсюда)
Перевод: Профессиональный (многоголосый закадровый) | R5
Видео: 720x304 (2.37:1), 23.976 fps, XviD build 65, 1633 kbps avg, 0.31 bit/pixel
Аудио: AC3 Dolby Digital, 48 kHz, 6 ch, 448 kbps | MVO
Скачать

Загрузка начнется в течение 5 сек.

1.45 GB

Название: Зомби по имени Шон / Shaun of the Dead (2004) HDRip от Youtracker | P2 | Tycoon
Качество видео: HDRip / источник: BDRip 720p
Перевод: Профессиональный (двухголосый закадровый) | Tycoon (ненормативная лексика)
Видео: 720x304 (2.37:1), 23.976 fps, XviD build 65, 1633 kbps avg, 0.31 bit/pixel
Аудио: AC3 Dolby Digital, 48 kHz, 6 ch, 448 kbps | DVO
Скачать

Загрузка начнется в течение 5 сек.

1.45 GB

Название: Зомби по имени Шон / Shaun of the Dead (2004) DVD9 | Tycoon-studio
Качество видео: DVD9 (customs)
Перевод: Профессиональный (двухголосый) (Tycoon-studio)
Формат видео: DVD Video
Видео: MPEG2 PAL 16:9 (720x576) VBR Auto Letterboxed
Аудио: AC3, DTS Аудио русский: DTS, 768Kbps - МВО (с ненормативной лексикой)
Скачать

Загрузка начнется в течение 5 сек.

7.79 GB

Название: Зомби по имени Шон / Shaun of the Dead (2004) HDRip-AVC | P
Качество видео: HDRip-AVC
Перевод: Профессиональный (многоголосый, закадровый)[с лицензии], профессиональный (многоголосый, закадровый) - Tycoon Studio
Формат видео: MKV
Видео: 1024x432, 23.976, ~1650 kbps, 0.156 bpp
Аудио: AAC, 6сh, ~234 kbps- русский многоголосый, закадровый перевод с лицензии,AAC, 6сh, ~248 kbps- русский многоголосый, закадровый перевод от студии Tycoon
Скачать

Загрузка начнется в течение 5 сек.

1.46 GB

Название: Зомби по имени Шон / Shaun of the Dead (2004) BDRip 720p | P
Качество видео: BDRip
Перевод: Профессиональный (многоголосый, закадровый) - Tycoon Studio
Формат видео: MKV
Видео: 1280x560, 23.976 fps, 7038 kbps
Аудио: Русский AC3 5.1 448 Kbps; Английский AC3 5.1 640 Kbps
Скачать

Загрузка начнется в течение 5 сек.

5.65 GB

Название: Зомби по имени Шон / Shaun of the Dead (2004) HDRip от Scarabey
Качество видео: HDRip
Перевод: Профессиональный (многоголосый, закадровый)
Формат видео: AVI
Видео: 720x304 (2.37:1), 23.976 fps, XviD build 50 ~1635 kbps avg, 0.31 bit/pixel
Аудио: 48 kHz, AC3 Dolby Digital, 3/2 (L,C,R,l,r) + LFE ch, ~448.00 kbps avg
Скачать

Загрузка начнется в течение 5 сек.

1.45 GB

Название: Зомби по имени Шон / Shaun of the Dead (2004) HDRip от Scarabey
Качество видео: HDRip
Перевод: Профессиональный (многоголосый, закадровый)
Формат видео: AVI
Видео: 640x272 (2.35:1), 23.976 fps, XviD build 50 ~908 kbps avg, 0.22 bit/pixel
Аудио: 48 kHz, MPEG Layer 3, 2 ch, ~128.00 kbps avg
Скачать

Загрузка начнется в течение 5 сек.

742.89 MB

www.kinovit.net


Смотрите также