Сквозь горизонт фильм 1997 скачать торрент в хорошем качестве


Сквозь горизонт / Event Horizon (1997/BDRip-AVC) от Rulya74

Информация о фильме: Название: Сквозь горизонт / Горизонт Событий Оригинальное название: Event Horizon Год выхода: 1997 Жанр: ужасы, фантастика, триллер, детектив Режиссер: Пол У. С. Андерсон В главных ролях: Лоренс Фишбёрн (Captain Miller), Сэм Нил (Dr. William Weir), Кэтлин Куинлен (Peters, Med Tech), Джоэли Ричардсон (Lt. Starck), Ричард Т. Джонс (Cooper), Джек Ноузуорти (Justin), Джейсон Айзекс (D.J.), Шон Пертуи (Smith), Питер Маринкер (Captain John Kilpack), Холли Чант (Claire), Барклай Райт (Denny Peters), Ной Хантли (Burning Man, Edward Corrick)

Описание: 2047 год. Спасательный космический корабль послан к границе Солнечной системы с целью выяснить, что произошло с экипажем первого звездолета "Event Horizon", созданного для путешествий со сверхсветовой скоростью и бесследно исчезнувшего при первом же полете. Внезапно появившийся из ниоткуда, он был обнаружен возле далекой планеты Нептун. Шаг за шагом находя ответы на свои вопросы, команда начинает поддаваться чувству жуткого страха и ужаса, глубина которых соизмерима только с бескрайними просторами космоса...

[kinopoisk]3728[/kinopoisk] Выпущено: США, Великобритания (Paramount Pictures) Продолжительность: 01:35:57 Перевод: Профессиональный (Многоголосый, закадровый)

Файл: Формат: MKV Качество видео: BDRip-AVC Видео: x264, размер кадра: 1022x436, битрейт: 1904 кб/с, bit/pixel: 0.178 Аудио: AC3 5.1, битрейт: 384.00 кб/с

» Конструкция звездолета «Сквозь горизонт» была смоделирована на основе кафедрального собора Нотр-Дам. Даже его внутренний интерьер имел много крестообразных форм. » Космические скафандры, которые носили актеры во время съемок, весили 65 фунтов каждый (около 25 килограмм). » Съемки картины проводились с 18 ноября 1996 по 14 марта 1997 года. » Идея пространства хаоса была позаимствована из вселенной Warhammer 40,000, в которой Варп является, по-сути, адом. » Другой перевод названия фильма «Горизонт событий» - астрономический термин, обозначающий границу в пространстве, пройдя которую тело уже не сможет преодолеть притяжения Черной дыры и неминуемо будет поглощено. » Полу Андерсону пришлось вырезать около 20 минут особо жестоких сцен, чтобы фильм получил рейтинг R. » Номер шлюза, где «Льюис и Кларк» стыкуется с «Сквозь горизонт», - 13. » Производство фильма целиком прошло в Великобритании. » Изначально Пол Андерсон хотел, чтобы «Orbital» записали саундтрек к фильму. Однако чиновники студии были против такой идеи. В результате было решено породнить оркестровую музыку и техно: «Orbital» записали саундтрек к фильму вместе с Майклом Кэменом. » В первоначальной версии сценария Филип Эйснер предлагал использование «Сквозь горизонт» в качестве лаборатории неизвестной инопланетной расы, ставящей опыты над членами экипажа. Однако, когда Пол Андерсон занял режиссерское кресло, он сразу же предложил отказаться от инопланетян и сделать «Дом с привидениями в космосе». » Период пост-продакшна был сокращен с шести до четырех недель, т.к. Пол Андерсон обязан был подготовить картину к выпуску на экраны в августе 1997 года. » Строительство декораций для фильма (от поиска подрядчиков до финального результата) заняло 4 недели. » Эндрю Кевин Уолкер переписывал сценарий, однако его имя не упоминается в титрах. » Пол Андерсон и Джереми Болт планировали сделать режиссерскую версию фильма, однако большинство негативов было потеряно или уничтожено после завершения пост-продакшна. » Рабочее название картины «The Stars My Destination». » Гари Синьор сыграл одного из членов экипажа «Сквозь горизонт» » На космических костюмах каждого персонажа есть флаг страны, откуда они родом.

Скриншоты:

[screens] http://mirvideo.tv/uploads/posts/23111eb7d43.jpg http://mirvideo.tv/uploads/posts/23118a35554.jpg http://forum.nnov.org/photoplog/images/1504/2_03.jpg http://torrentszona.com/torrents/images/Skvoz_gorizont_-_The_Adventures_of_Pluto_Nash_1997_DvDRip_1291569606-150104.jpg [/screens]

n-torrents.ru

Сквозь горизонт 1997 - скачать бесплатно через торрент в хорошем качестве. Без регистрации

Название: Сквозь горизонт / Event Horizon (1997) HDRip-AVC | P, P2, A
Качество видео: HDRip-AVC
Перевод: Профессиональный многоголосый, профессиональный двухголосый, авторский одноголосый
Видео: 1002x418 (2.40:1), 23.976 fps, ~1516 Kbps
Аудио: AAC, 2 ch, ~64 Kbps (Russian) - многоголосый (Киномания)AAC, 2 ch, ~64 Kbps (Russian) - многоголосый (Селена интернешенел)AAC, 2 ch, ~64 Kbps (Russian) - двухголосый (Tycoon)AAC, 2 ch, ~64 Kbps (Russian) - двухголосый (П.Гланц и И.Королёва)AAC, 2 ch, ~64 Kbps (Russian) - двухголосый (Премьер видео)AAC, 2 ch, ~64 Kbps (Russian) - авторский А.ГавриловAAC, 2 ch, ~64 Kbps (Russian) - авторский Ю.ЖивовAAC, 2 ch, ~64 Kbps (Russian) - авторский В.ГорчаковAAC, 2 ch, ~64 Kbps (Russian) - авторский С.ВизгуновAAC, 2 ch, ~64 Kbps (English) - оригинал
Скачать

Загрузка начнется в течение 5 сек.

1.45 GB

Название: Сквозь горизонт / Event Horizon (1997) HDRip | Горчаков
Качество видео: HDRip
Перевод: Авторский (одноголосый, закадровый) В.Горчаков
Видео: 720x304 (2.37:1), 23.976 fps, XviD build 73 ~1716 kbps, 0.33 bit/pixel
Аудио: 48 kHz, AC3 Dolby Digital, 3/2 (L,C,R,l,r) + LFE ch, ~448 kbps
Скачать

Загрузка начнется в течение 5 сек.

1.46 GB

Название: Сквозь горизонт (Горизонт событий) / Event Horizon (1997) BDRip 1080p от MediaClub | P, P2, A
Качество видео: BDRip 1080p
Перевод: Профессиональный многоголосый, профессиональный двухголосый, авторский
Видео: x264 MPEG-4 AVC, 14 Мбит/с, 1916x820, 23.976 кадр/с
Аудио: Русский (AC3, 2 ch, 192 Кбит/с) / Профессиональный многоголосый (Селена интернешнл по заказу СТС)Русский (AC3, 6 ch, 448 Кбит/с) / Профессиональный двухголосый (Tycoon)Русский (AC3, 6 ch, 448 Кбит/с) / Профессиональный двухголосый (Петр Гланц и Инна Королева)Русский (AC3, 6 ch, 384 Кбит/с) / Профессиональный двухголосый (Премьер видео)Русский (AC3, 6 ch, 448 Кбит/с) / Авторский одноголосый (Андрей Гаврилов)Русский (AC3, 6 ch, 448 Кбит/с) / Авторский одноголосый (Юрий Живов)Русский (AC3, 6 ch, 448 Кбит/с) / Авторский одноголосый (Сергей Визгунов)Украинский (AC3, 6 ch, 384 Кбит/с) / Профессиональный двухголосый (ICTV)Английский (AC3, 6 ch, 448 Кбит/с)
Скачать

Загрузка начнется в течение 5 сек.

12.13 GB

Название: Сквозь горизонт / Event Horizon (1997) BDRip 720p от NNNB | P2
Качество видео: BDRip 720p (исходник Blu-ray Disc Remux)
Перевод: Профессиональный (Двухголосый, закадровый)
Видео: 1280x548, 7500 Кбит/сек, 23,976 кадр/сек, AVC, x264, [email protected], 2.35:1, 0.446 Бит/[Пиксели*Кадры]
Аудио: AC-3, 448 Кбит/сек, 6 канала(ов), 48,0 КГц - Двухголосый закадровый, Киномания / РусскийAC-3, 640 Кбит/сек, 6 канала(ов), 48,0 КГц - Оригинал / Английский
Скачать

Загрузка начнется в течение 5 сек.

5.75 GB

Название: Сквозь горизонт / Event Horizon (1997) HDRip от Scarabey | Р
Качество видео: HDRip
Перевод: Профессиональный (многоголосый, закадровый)
Формат видео: AVI
Видео: 720x304 (2.37:1), 23.976 fps, XviD build 50 ~952 kbps avg, 0.18 bit/pixel
Аудио: 48 kHz, MPEG Layer 3, 2 ch, ~128.00 kbps avg
Скачать

Загрузка начнется в течение 5 сек.

747.86 MB

Название: Сквозь горизонт / Event Horizon (1997) HDRip от Scarabey | Р
Качество видео: HDRip
Перевод: Профессиональный (многоголосый, закадровый)
Формат видео: AVI
Видео: 720x304 (2.37:1), 23.976 fps, XviD build 50 ~1765 kbps avg, 0.34 bit/pixel
Аудио: 48 kHz, AC3 Dolby Digital, 3/2 (L,C,R,l,r) + LFE ch, ~384.00 kbps avg
Скачать

Загрузка начнется в течение 5 сек.

1.45 GB

Название: Сквозь горизонт / Event Horizon (1997) BDRip-AVC от ExKinoRay
Качество видео: BDRip (AVC)
Перевод: Профессиональный многоголосый, профессиональный двухголосый, авторский
Видео: H.264 MPEG-4 AVC, 3500 Кбит/с, 1024x438
Аудио: Аудио №1: Русский (AC3, 6 ch, 448 Кбит/с) - Профессиональный многоголосый (Superbit)
Скачать

Загрузка начнется в течение 5 сек.

4.15 GB

Название: Сквозь горизонт / Event Horizon (1997) BDRip 1080p
Качество видео: BDRip (источник: Blu-ray Disc)
Перевод: Профессиональный (многоголосый, закадровый)
Видео: x264 1920x824 (2,35:1), 23.976 fps, 9151 kbps
Аудио: AC-3, 6 ch, 448 kbps (Многоголосый закадровый, Киномания)AC-3, 6 ch, 448 kbps (Двухголосый закадровый, Tycoon)AC-3, 6 ch, 448 kbps (Двухголосый закадровый, П.Гланц и И.Королева)AC-3, 6 ch, 448 kbps (Одноголосый закадровый, Ю.Живов)AC-3, 6 ch, 640 kbps (Оригинал)
Скачать

Загрузка начнется в течение 5 сек.

7.76 GB

Название: Сквозь горизонт / Event Horizon (1997) BDRip 1080р от Freeisland
Качество видео: BDRip.1080p
Формат видео: MKV
Видео: H.264
Аудио: AC3 AC3, 448 Kbps, 48.0 KHz, 6 ch (RUS MVO - Киномания)
Скачать

Загрузка начнется в течение 5 сек.

7.18 GB

Название: Сквозь горизонт / Event Horizon (1997) BDRip-AVC от PowerTracker
Качество видео: BDRip-AVC
Видео: кодек: x264, размер кадра: 1022x436, битрейт: 1904 кб/с, bit/pixel: 0.178
Аудио: язык: Русский , перевод: профессиональный многоголосый закадровый (СуперБит), кодек: AC3 5.1, битрейт: 384.00 кб/сязык: Русский , перевод: профессиональный двухголосый закадровый (Tycoon), кодек: AC3 5.1, битрейт: 384.00 кб/сязык: Украинский , перевод: профессиональный двухголосый закадровый (ICTV), кодек: AC3 5.1, битрейт: 384.00 кб/сязык: Английский , перевод: оригинал, кодек: AC3 2.0, битрейт: 192.00 кб/с
Скачать

Загрузка начнется в течение 5 сек.

2.18 GB

www.kinovit.net

Сквозь горизонт (1997) HD 1080p скачать торрент в хорошем качестве

Информация о фильмеНазвание: Сквозь горизонтОригинальное название: Event HorizonГод выхода: 1997Жанр: ужасы, фантастика, триллер, детективРежиссер: Пол У. С. АндерсонВ ролях: Лоренс Фишбёрн, Сэм Нил, Кэтлин Куинлен, Джоэли Ричардсон, Ричард Т. Джонс, Джек Ноузуорти, Джейсон Айзекс, Шон Пертуи, Питер Маринкер, Холли Чант

О фильме: 2047 год. Спасательный космический корабль послан к границе Солнечной системы с целью выяснить, что произошло с экипажем первого звездолета, созданного для путешествий со сверхсветовой скоростью и бесследно исчезнувшего при первом же полете. Внезапно появившийся из ниоткуда, он был обнаружен возле далекой планеты Нептун.

Выпущено: Paramount Pictures Продолжительность: 01:35:57Перевод: Профессиональный (многоголосый, закадровый)

ФайлКодек: x264Качество: BDRip (источник: Blu-ray Disc)Видео: 1920x824 (2,35:1), 23.976 fps, 9151 kbpsАудио #1: AC-3, 6 ch, 448 kbps (Многоголосый закадровый, Киномания)Аудио #2: AC-3, 6 ch, 448 kbps (Двухголосый закадровый, Tycoon)Аудио #3: AC-3, 6 ch, 448 kbps (Двухголосый закадровый, П.Гланц и И.Королева)Аудио #4: AC-3, 6 ch, 448 kbps (Одноголосый закадровый, Ю.Живов)Аудио #5: AC-3, 6 ch, 640 kbps (Оригинал)Субтитры: Русские, Английские

ОбщееУникальный идентификатор : 190042649283741433581156975530962774662 (0x8EF8E205835D71F4A4A8555A190AEA86)Полное имя : Event.Horizon.1997.BDRip.1080p.Rus.Eng.mkvФормат : MatroskaВерсия формата : Version 2Размер файла : 7,76 ГбайтПродолжительность : 1 ч. 35 м.Общий поток : 11,6 Мбит/секНазвание фильма : Сквозь горизонт / Event Horizon (1997)Дата кодирования : UTC 2012-06-17 16:21:52Программа кодирования : mkvmerge v5.5.0 ('Healer') built on Apr 6 2012 21:43:24Библиотека кодирования : libebml v1.2.3 + libmatroska v1.3.0

ВидеоИдентификатор : 1Формат : AVCФормат/Информация : Advanced Video CodecПрофиль формата : [email protected]Параметр CABAC формата : ДаПараметр ReFrames формата : 5 кадровИдентификатор кодека : V_MPEG4/ISO/AVCПродолжительность : 1 ч. 35 м.Битрейт : 9151 Кбит/секШирина : 1920 пикселейВысота : 824 пикселяСоотношение сторон : 2,35:1Частота кадров : 23,976 кадра/секЦветовое пространство : YUVСубдискретизация насыщенности : 4:2:0Битовая глубина : 8 битТип развёртки : ПрогрессивнаяБит/(Пиксели*Кадры) : 0.241Размер потока : 5,97 Гбайт (77%)Заголовок : Release by AlexKaБиблиотека кодирования : x264 core 125 r2200 999b753Настройки программы : cabac=1 / ref=5 / deblock=1:0:0 / analyse=0x3:0x133 / me=umh / subme=10 / psy=1 / psy_rd=1.00:0.10 / mixed_ref=1 / me_range=32 / chroma_me=1 / trellis=2 / 8x8dct=1 / cqm=0 / deadzone=21,11 / fast_pskip=0 / chroma_qp_offset=-3 / threads=12 / lookahead_threads=2 / sliced_threads=0 / nr=0 / decimate=0 / interlaced=0 / bluray_compat=0 / constrained_intra=0 / bframes=5 / b_pyramid=2 / b_adapt=2 / b_bias=0 / direct=3 / weightb=1 / open_gop=0 / weightp=2 / keyint=240 / keyint_min=23 / scenecut=40 / intra_refresh=0 / rc_lookahead=60 / rc=2pass / mbtree=1 / bitrate=9151 / ratetol=1.0 / qcomp=0.60 / qpmin=0 / qpmax=69 / qpstep=4 / cplxblur=20.0 / qblur=0.5 / ip_ratio=1.40 / aq=1:1.00Язык : English

Аудио #1Идентификатор : 2Формат : AC-3Формат/Информация : Audio Coding 3Расширение режима : CM (complete main)Идентификатор кодека : A_AC3Продолжительность : 1 ч. 35 м.Вид битрейта : ПостоянныйБитрейт : 448 Кбит/секКаналы : 6 каналовРасположение каналов : Front: L C R, Side: L R, LFEЧастота : 48,0 КГцБитовая глубина : 16 битМетод сжатия : С потерямиРазмер потока : 307 Мбайт (4%)Заголовок : Многоголосый закадровый, КиноманияЯзык : Russian

Аудио #2Идентификатор : 3Формат : AC-3Формат/Информация : Audio Coding 3Расширение режима : CM (complete main)Идентификатор кодека : A_AC3Продолжительность : 1 ч. 35 м.Вид битрейта : ПостоянныйБитрейт : 448 Кбит/секКаналы : 6 каналовРасположение каналов : Front: L C R, Side: L R, LFEЧастота : 48,0 КГцБитовая глубина : 16 битМетод сжатия : С потерямиРазмер потока : 307 Мбайт (4%)Заголовок : Двухголосый закадровый, TycoonЯзык : Russian

Аудио #3Идентификатор : 4Формат : AC-3Формат/Информация : Audio Coding 3Расширение режима : CM (complete main)Идентификатор кодека : A_AC3Продолжительность : 1 ч. 35 м.Вид битрейта : ПостоянныйБитрейт : 448 Кбит/секКаналы : 6 каналовРасположение каналов : Front: L C R, Side: L R, LFEЧастота : 48,0 КГцБитовая глубина : 16 битМетод сжатия : С потерямиРазмер потока : 307 Мбайт (4%)Заголовок : Двухголосый закадровый, П.Гланц и И.КоролеваЯзык : Russian

Аудио #4Идентификатор : 5Формат : AC-3Формат/Информация : Audio Coding 3Расширение режима : CM (complete main)Идентификатор кодека : A_AC3Продолжительность : 1 ч. 35 м.Вид битрейта : ПостоянныйБитрейт : 448 Кбит/секКаналы : 6 каналовРасположение каналов : Front: L C R, Side: L R, LFEЧастота : 48,0 КГцБитовая глубина : 16 битМетод сжатия : С потерямиРазмер потока : 307 Мбайт (4%)Заголовок : Одноголосый закадровый, Ю.ЖивовЯзык : Russian

Аудио #5Идентификатор : 6Формат : AC-3Формат/Информация : Audio Coding 3Расширение режима : CM (complete main)Идентификатор кодека : A_AC3Продолжительность : 1 ч. 35 м.Вид битрейта : ПостоянныйБитрейт : 640 Кбит/секКаналы : 6 каналовРасположение каналов : Front: L C R, Side: L R, LFEЧастота : 48,0 КГцБитовая глубина : 16 битМетод сжатия : С потерямиРазмер потока : 439 Мбайт (6%)Заголовок : ОригиналЯзык : English

Текст #1Идентификатор : 7Формат : UTF-8Идентификатор кодека : S_TEXT/UTF8Идентификатор кодека/Информация : UTF-8 Plain TextЗаголовок : RusЯзык : Russian

Текст #2Идентификатор : 8Формат : UTF-8Идентификатор кодека : S_TEXT/UTF8Идентификатор кодека/Информация : UTF-8 Plain TextЗаголовок : EngЯзык : English

Меню00:00:00.000 : :Chapter 0100:05:41.007 : :Chapter 0200:08:26.964 : :Chapter 0300:12:11.981 : :Chapter 0400:18:38.951 : :Chapter 0500:23:19.731 : :Chapter 0600:29:05.785 : :Chapter 0700:34:01.080 : :Chapter 0800:39:23.319 : :Chapter 0900:45:08.622 : :Chapter 1000:51:09.608 : :Chapter 1100:58:17.702 : :Chapter 1201:04:37.957 : :Chapter 1301:09:29.957 : :Chapter 1401:15:05.167 : :Chapter 1501:22:20.560 : :Chapter 1601:29:34.952 : :Chapter 17

x264 [info]: frame I:1082 Avg QP:19.20 size:173526x264 [info]: frame P:31631 Avg QP:22.32 size: 74101x264 [info]: frame B:105318 Avg QP:23.47 size: 38405

rutorg2.ru

Скачать фильм Сквозь горизонт через торрент в хорошем качестве бесплатно 1080p

ОбщееУникальный идентификатор : 235978492337722178271090201742216060893 (0xB187CDF14068FAA2B8E586392B04DFDD)Полное имя : E:Фильмы1080pEvent. Horizon.1997.1080p.BluRay.DTS.x264.Rus.Eng.HDCLUB.mkvФормат : MatroskaВерсия формата : Version 1Размер файла : 9,37 ГбайтПродолжительность : 1 ч. 35 м.Общий поток : 14,0 Мбит/секНазвание фильма : Event Horizon 1080p Дата кодирования : UTC 2009-01-03 07:39:44Программа кодирования : mkvmerge v2.4.0 ('Fumbling Towards Ecstasy') built on Oct 11 2008 20:13:15Библиотека кодирования : libebml v0.7.7 + libmatroska v0.8.1

ВидеоИдентификатор : 1Формат : AVCФормат/Информация : Advanced Video CodecПрофиль формата : [email protected]Параметр CABAC формата : ДаПараметр ReFrames формата : 4 кадраИдентификатор кодека : V_MPEG4/ISO/AVCПродолжительность : 1 ч. 35 м.Битрейт : 10,3 Мбит/секШирина : 1920 пикселейВысота : 820 пикселейСоотношение сторон : 2,40:1Соотношение сторон в оригинале : 2,35:1Режим частоты кадров : ПостоянныйЧастота кадров : 23,976 кадра/секЦветовое пространство : YUVСубдискретизация насыщенности : 4:2:0Битовая глубина : 8 битТип развёртки : ПрогрессивнаяБит/(Пиксели*Кадры) : 0.273Размер потока : 6,73 Гбайт (72%)Заголовок : ViDEOБиблиотека кодирования : x264 core 65 r1066M 045ae40Настройки программы : cabac=1 / ref=4 / deblock=1:-3:-3 / analyse=0x3:0x113 / me=umh / subme=9 / psy_rd=1.0:0.0 / mixed_ref=1 / me_range=24 / chroma_me=1 / trellis=2 / 8x8dct=1 / cqm=0 / deadzone=21,11 / chroma_qp_offset=-2 / threads=6 / nr=0 / decimate=1 / mbaff=0 / bframes=3 / b_pyramid=0 / b_adapt=1 / b_bias=0 / direct=3 / wpredb=1 / keyint=250 / keyint_min=25 / scenecut=40(pre) / rc=2pass / bitrate=10310 / ratetol=1.0 / qcomp=0.60 / qpmin=10 / qpmax=51 / qpstep=4 / cplxblur=20.0 / qblur=0.5 / vbv_maxrate=50000 / vbv_bufsize=50000 / ip_ratio=1.40 / pb_ratio=1.30 / aq=1:1.00Язык : EnglishDefault : ДаForced : Нет

Аудио #1Идентификатор : 2Формат : DTSФормат/Информация : Digital Theater SystemsРежим : 16Параметр Endianness формата : BigИдентификатор кодека : A_DTSПродолжительность : 1 ч. 35 м.Вид битрейта : ПостоянныйБитрейт : 755 Кбит/секКаналы : 6 каналовРасположение каналов : Front: L C R, Side: L R, LFEЧастота : 48,0 КГцБитовая глубина : 24 битМетод сжатия : С потерямиЗадержка видео : 1 мс.Размер потока : 518 Мбайт (5%)Заголовок : DTS 5.1 768 Kbps [СуперБит]Язык : RussianDefault : ДаForced : Нет

Аудио #2Идентификатор : 3Формат : AC-3Формат/Информация : Audio Coding 3Расширение режима : CM (complete main)Параметр Endianness формата : BigИдентификатор кодека : A_AC3Продолжительность : 1 ч. 35 м.Вид битрейта : ПостоянныйБитрейт : 448 Кбит/секКаналы : 6 каналовРасположение каналов : Front: L C R, Side: L R, LFEЧастота : 48,0 КГцБитовая глубина : 16 битМетод сжатия : С потерямиЗадержка видео : 12 мс.Размер потока : 307 Мбайт (3%)Заголовок : AC3 5.1 448 Kbps [Tycoon]Язык : RussianDefault : НетForced : Нет

Аудио #3Идентификатор : 4Формат : DTSФормат/Информация : Digital Theater SystemsРежим : 16Параметр Endianness формата : BigИдентификатор кодека : A_DTSПродолжительность : 1 ч. 35 м.Вид битрейта : ПостоянныйБитрейт : 755 Кбит/секКаналы : 6 каналовРасположение каналов : Front: L C R, Side: L R, LFEЧастота : 48,0 КГцБитовая глубина : 24 битМетод сжатия : С потерямиЗадержка видео : 1 мс.Размер потока : 518 Мбайт (5%)Заголовок : DTS 5.1 768 Kbps [Живов]Язык : RussianDefault : НетForced : Нет

Аудио #4Идентификатор : 5Формат : DTSФормат/Информация : Digital Theater SystemsРежим : 16Параметр Endianness формата : BigИдентификатор кодека : A_DTSПродолжительность : 1 ч. 35 м.Вид битрейта : ПостоянныйБитрейт : 1510 Кбит/секКаналы : 6 каналовРасположение каналов : Front: L C R, Side: L R, LFEЧастота : 48,0 КГцБитовая глубина : 24 битМетод сжатия : С потерямиРазмер потока : 1,01 Гбайт (11%)Заголовок : DTS 5.1 1536 KbpsЯзык : EnglishDefault : НетForced : Нет

Аудио #5Идентификатор : 6Формат : AC-3Формат/Информация : Audio Coding 3Профиль формата : Dolby DigitalРасширение режима : CM (complete main)Параметр Endianness формата : BigИдентификатор кодека : A_AC3Продолжительность : 1 ч. 35 м.Вид битрейта : ПостоянныйБитрейт : 192 Кбит/секКаналы : 2 каналаРасположение каналов : Front: L RЧастота : 48,0 КГцБитовая глубина : 16 битМетод сжатия : С потерямиЗадержка видео : 12 мс.Размер потока : 132 Мбайт (1%)Заголовок : AC3 2.0 192 Kbps [Comments]Язык : EnglishDefault : НетForced : Нет

Текст #1Идентификатор : 7Формат : UTF-8Идентификатор кодека : S_TEXT/UTF8Идентификатор кодека/Информация : UTF-8 Plain TextЗаголовок : КиноманияЯзык : RussianDefault : НетForced : Нет

Текст #2Идентификатор : 8Формат : UTF-8Идентификатор кодека : S_TEXT/UTF8Идентификатор кодека/Информация : UTF-8 Plain TextЗаголовок : TycoonЯзык : RussianDefault : НетForced : Нет

Текст #3Идентификатор : 9Формат : UTF-8Идентификатор кодека : S_TEXT/UTF8Идентификатор кодека/Информация : UTF-8 Plain TextЯзык : EnglishDefault : НетForced : Нет

Текст #4Идентификатор : 10Формат : UTF-8Идентификатор кодека : S_TEXT/UTF8Идентификатор кодека/Информация : UTF-8 Plain TextЯзык : SlovakDefault : НетForced : Нет

Текст #5Идентификатор : 11Формат : UTF-8Идентификатор кодека : S_TEXT/UTF8Идентификатор кодека/Информация : UTF-8 Plain TextЯзык : CzechDefault : НетForced : Нет

Текст #6Идентификатор : 12Формат : UTF-8Идентификатор кодека : S_TEXT/UTF8Идентификатор кодека/Информация : UTF-8 Plain TextЯзык : GermanDefault : НетForced : Нет

Текст #7Идентификатор : 13Формат : UTF-8Идентификатор кодека : S_TEXT/UTF8Идентификатор кодека/Информация : UTF-8 Plain TextЯзык : SpanishDefault : НетForced : Нет

Текст #8Идентификатор : 14Формат : UTF-8Идентификатор кодека : S_TEXT/UTF8Идентификатор кодека/Информация : UTF-8 Plain TextЯзык : PortugueseDefault : НетForced : Нет

Текст #9Идентификатор : 15Формат : UTF-8Идентификатор кодека : S_TEXT/UTF8Идентификатор кодека/Информация : UTF-8 Plain TextЯзык : DutchDefault : НетForced : Нет

Текст #10Идентификатор : 16Формат : UTF-8Идентификатор кодека : S_TEXT/UTF8Идентификатор кодека/Информация : UTF-8 Plain TextЯзык : DanishDefault : НетForced : Нет

Текст #11Идентификатор : 17Формат : UTF-8Идентификатор кодека : S_TEXT/UTF8Идентификатор кодека/Информация : UTF-8 Plain TextЯзык : NorwegianDefault : НетForced : Нет

Текст #12Идентификатор : 18Формат : UTF-8Идентификатор кодека : S_TEXT/UTF8Идентификатор кодека/Информация : UTF-8 Plain TextЯзык : FinnishDefault : НетForced : Нет

Текст #13Идентификатор : 19Формат : UTF-8Идентификатор кодека : S_TEXT/UTF8Идентификатор кодека/Информация : UTF-8 Plain TextЯзык : SwedishDefault : НетForced : Нет

Текст #14Идентификатор : 20Формат : UTF-8Идентификатор кодека : S_TEXT/UTF8Идентификатор кодека/Информация : UTF-8 Plain TextЯзык : PolishDefault : НетForced : Нет

Текст #15Идентификатор : 21Формат : UTF-8Идентификатор кодека : S_TEXT/UTF8Идентификатор кодека/Информация : UTF-8 Plain TextЯзык : RomanianDefault : НетForced : Нет

Текст #16Идентификатор : 22Формат : UTF-8Идентификатор кодека : S_TEXT/UTF8Идентификатор кодека/Информация : UTF-8 Plain TextЯзык : EstonianDefault : НетForced : Нет

Текст #17Идентификатор : 23Формат : UTF-8Идентификатор кодека : S_TEXT/UTF8Идентификатор кодека/Информация : UTF-8 Plain TextЯзык : SlovenianDefault : НетForced : Нет

Текст #18Идентификатор : 24Формат : UTF-8Идентификатор кодека : S_TEXT/UTF8Идентификатор кодека/Информация : UTF-8 Plain TextЯзык : PortugueseDefault : НетForced : Нет

piratbit.ru


Смотрите также