Варкрафт фильм 2016 скачать торрент в хорошем качестве hd 1080


Скачать торрент Варкрафт / Warcraft (2016) BDRip 1080p от New-Team & qqss44

x264 [info]: frame I:1469 Avg QP:15.96 size:212524 x264 [info]: frame P:55936 Avg QP:19.19 size: 69564 x264 [info]: frame B:119715 Avg QP:20.77 size: 24090

Общее Уникальный идентификатор : 232201559764255317360305738854707371020 (0xAEB064CA11DD2D86ADE448D9E49E1C0C) Полное имя : X:ATorrentWarcraft.(2016).BDRip.1080p.(qqss44).mkv Формат : Matroska Версия формата : Version 2 Размер файла : 7,70 Гбайт Продолжительность : 2 ч. 3 м. Общий поток : 8957 Кбит/сек Название фильма : Warcraft.(2016).BDRip.1080p.(qqss44) Дата кодирования : UTC 2016-09-22 05:51:28 Программа кодирования : mkvmerge v7.9.0 ('Birds') 64bit Библиотека кодирования : libebml v1.3.1 + libmatroska v1.4.2

Видео Идентификатор : 1 Формат : AVC Формат/Информация : Advanced Video Codec Профиль формата : [email protected] Параметр CABAC формата : Да Параметр ReFrames формата : 5 кадров Идентификатор кодека : V_MPEG4/ISO/AVC Продолжительность : 2 ч. 3 м. Битрейт : 7676 Кбит/сек Ширина : 1920 пикселей Высота : 788 пикселей Соотношение сторон : 2,40:1 Режим частоты кадров : Постоянный Частота кадров : 23,976 (24000/1001) кадра/сек Цветовое пространство : YUV Субдискретизация насыщенности : 4:2:0 Битовая глубина : 8 бит Тип развёртки : Прогрессивная Бит/(Пиксели*Кадры) : 0.212 Размер потока : 6,60 Гбайт (86%) Заголовок : Warcraft.(2016).BDRip.1080p.(qqss44) Библиотека кодирования : x264 core 146 r2538 121396c Настройки программы : cabac=1 / ref=5 / deblock=1:-3:-3 / analyse=0x3:0x133 / me=umh / subme=11 / psy=1 / psy_rd=1.00:0.00 / mixed_ref=1 / me_range=32 / chroma_me=1 / trellis=2 / 8x8dct=1 / cqm=0 / deadzone=21,11 / fast_pskip=0 / chroma_qp_offset=-2 / threads=12 / lookahead_threads=2 / sliced_threads=0 / nr=0 / decimate=0 / interlaced=0 / bluray_compat=0 / constrained_intra=0 / bframes=8 / b_pyramid=2 / b_adapt=2 / b_bias=0 / direct=3 / weightb=1 / open_gop=0 / weightp=2 / keyint=240 / keyint_min=23 / scenecut=40 / intra_refresh=0 / rc=2pass / mbtree=0 / bitrate=7676 / ratetol=1.0 / qcomp=0.60 / qpmin=0 / qpmax=69 / qpstep=4 / cplxblur=20.0 / qblur=0.5 / ip_ratio=1.40 / pb_ratio=1.30 / aq=1:1.00 Язык : English Default : Да Forced : Нет

Аудио #1 Идентификатор : 2 Формат : AC-3 Формат/Информация : Audio Coding 3 Расширение режима : CM (complete main) Параметр Endianness формата : Big Идентификатор кодека : A_AC3 Продолжительность : 2 ч. 3 м. Вид битрейта : Постоянный Битрейт : 640 Кбит/сек Каналы : 6 каналов Расположение каналов : Front: L C R, Side: L R, LFE Частота : 48,0 КГц Частота кадров : 31,250 кадров/сек (1536 spf) Метод сжатия : С потерями Размер потока : 564 Мбайт (7%) Заголовок : DUB | DD5.1 @ 640 kbps Язык : Russian Default : Да Forced : Нет

Аудио #2 Идентификатор : 3 Формат : AC-3 Формат/Информация : Audio Coding 3 Расширение режима : CM (complete main) Параметр Endianness формата : Big Идентификатор кодека : A_AC3 Продолжительность : 2 ч. 3 м. Вид битрейта : Постоянный Битрейт : 640 Кбит/сек Каналы : 6 каналов Расположение каналов : Front: L C R, Side: L R, LFE Частота : 48,0 КГц Частота кадров : 31,250 кадров/сек (1536 spf) Метод сжатия : С потерями Размер потока : 564 Мбайт (7%) Заголовок : Original | DD5.1 @ 640 kbps Язык : English Default : Нет Forced : Нет

Текст #1 Идентификатор : 4 Формат : UTF-8 Идентификатор кодека : S_TEXT/UTF8 Идентификатор кодека/Информация : UTF-8 Plain Text Продолжительность : 1 ч. 43 м. Битрейт : 0 бит/сек Count of elements : 9 Размер потока : 312 байт (0%) Заголовок : Forced Язык : Russian Default : Да Forced : Нет

Текст #2 Идентификатор : 5 Формат : UTF-8 Идентификатор кодека : S_TEXT/UTF8 Идентификатор кодека/Информация : UTF-8 Plain Text Продолжительность : 1 ч. 55 м. Битрейт : 57 бит/сек Count of elements : 1054 Размер потока : 48,4 Кбайт (0%) Заголовок : Full Язык : Russian Default : Нет Forced : Нет

Текст #3 Идентификатор : 6 Формат : UTF-8 Идентификатор кодека : S_TEXT/UTF8 Идентификатор кодека/Информация : UTF-8 Plain Text Продолжительность : 1 ч. 52 м. Битрейт : 36 бит/сек Count of elements : 1235 Размер потока : 30,2 Кбайт (0%) Заголовок : Full Язык : English Default : Нет Forced : Нет

Меню 00:00:00.000 : en:00:00:00.000 00:09:26.483 : en:00:09:26.483 00:15:49.407 : en:00:15:49.407 00:22:36.146 : en:00:22:36.146 00:29:16.171 : en:00:29:16.171 00:38:43.321 : en:00:38:43.321 00:46:44.093 : en:00:46:44.093 00:53:02.679 : en:00:53:02.679 00:56:17.332 : en:00:56:17.332 01:02:43.927 : en:01:02:43.927 01:07:48.314 : en:01:07:48.314 01:12:24.549 : en:01:12:24.549 01:17:13.045 : en:01:17:13.045 01:22:45.669 : en:01:22:45.669 01:26:32.145 : en:01:26:32.145 01:32:29.669 : en:01:32:29.669 01:40:25.102 : en:01:40:25.102 01:47:38.118 : en:01:47:38.118 01:51:12.833 : en:01:51:12.833 01:53:58.832 : en:01:53:58.832

krutor.org

Скачать торрент Варкрафт / Warcraft (2016) Blu-Ray 1080p | 3D-Video

«Два мира - одна судьба»

Информация о фильмеНазвание: ВаркрафтОригинальное название: Warcraft Год выхода: 2016Жанр: Фэнтези, боевик, приключенияРежиссер: Клэй Кэйтис, Фергал РейлиРоли озвучивают: Трэвис Фиммел, Пола Пэттон, Бен Фостер, Доминик Купер, Тоби Кеббелл, Бен Шнетцер, Роберт Казински, Клэнси Браун, Дэниэл Ву, Рут Негга

О фильме: Веками магия и неприступные стены защищали людей от любых напастей. Но древнее зло, побежденное и забытое тысячелетия назад, пробудилось.

В самом сердце королевства открылся темный портал, и раса невиданных существ наводнила земли Азерота. Так начались события, призванные навсегда изменить судьбу этого мира.

Страна: Китай, Канада, СШАСтудия: Atlas Entertainment, Blizzard Entertainment, Legendary Pictures, Universal PicturesПродолжительность: 02:03:07 Перевод: Профессиональный (полное дублирование)

ФайлКачество: Blu Ray 1080pФормат: BDMVКодек: MPEG-4 AVC VideoВидео: 1920x1080 (16:9), 23,976 fps, MPEG-4 AVC Video ~ 21809 kbps avg, High Profile 4.1 Аудио#1: DTS-HD Master Audio English 4834 kbps 7.1 / 48 kHz / 4834 kbps / 24-bit (AC3 Embedded: 5.1 / 48 kHz / 640 kbps / DN -4dB)Аудио#2: Dolby Digital Audio Czech 640 kbps 5.1 / 48 kHz / 640 kbpsАудио#3: Dolby Digital Audio Polish 640 kbps 5.1 / 48 kHz / 640 kbpsАудио#4: Dolby Digital Audio Portuguese 640 kbps 5.1 / 48 kHz / 640 kbpsАудио#5: Dolby Digital Audio Russian 640 kbps 5.1 / 48 kHz / 640 kbps / Профессиональный (полное дублирование)Аудио#6: Dolby Digital Audio Spanish 640 kbps 5.1 / 48 kHz / 640 kbpsАудио#8: Dolby Digital Audio Thai 640 kbps 5.1 / 48 kHz / 640 kbpsАудио#9: Dolby Digital Audio Turkish 640 kbps 5.1 / 48 kHz / 640 kbps

Субтитры: Русские, английские, болгарские, китайские, чешские, эстонские, греческие, иврит венгерские. индонезийские, корейские, латышские, литовские, польские, португальские, румынские, испанские, тайские, турецкие, украинские (PGS)

Дополнительно

• Трейлеры

BDInfo Report

DISC INFO:

Disc Title: WARCRAFT_UPT2_3D_HDCLUB Disc Size: 46 706 571 148 bytes Protection: AACS BD-Java: Yes Extras: Blu-ray 3D BDInfo: 0.5.8

PLAYLIST REPORT:

Name: 00800.MPLS Length: 2:03:07.963 (h:m:s.ms) Size: 45 325 197 312 bytes Total Bitrate: 49,08 Mbps

VIDEO:

Codec Bitrate Deion ----- ------- ----------- MPEG-4 AVC Video 21809 kbps 1080p / 23,976 fps / 16:9 / High Profile 4.1 MPEG-4 MVC Video 12126 kbps

AUDIO:

Codec Language Bitrate Deion ----- -------- ------- ----------- Dolby TrueHD Audio English 4834 kbps 7.1 / 48 kHz / 4834 kbps / 24-bit (AC3 Embedded: 5.1 / 48 kHz / 640 kbps / DN -4dB) Dolby Digital Audio Czech 640 kbps 5.1 / 48 kHz / 640 kbps / DN -4dB Dolby Digital Audio Polish 640 kbps 5.1 / 48 kHz / 640 kbps / DN -4dB Dolby Digital Audio Polish 640 kbps 5.1 / 48 kHz / 640 kbps / DN -4dB Dolby Digital Audio Portuguese 640 kbps 5.1 / 48 kHz / 640 kbps / DN -4dB Dolby Digital Audio Russian 640 kbps 5.1 / 48 kHz / 640 kbps / DN -4dB Dolby Digital Audio Spanish 640 kbps 5.1 / 48 kHz / 640 kbps / DN -4dB Dolby Digital Audio Thai 640 kbps 5.1 / 48 kHz / 640 kbps / DN -4dB Dolby Digital Audio Turkish 640 kbps 5.1 / 48 kHz / 640 kbps / DN -4dB

SUBTITLES:

Codec Language Bitrate Deion ----- -------- ------- ----------- Presentation Graphics English 27,153 kbps Presentation Graphics Bulgarian 20,200 kbps Presentation Graphics Chinese 16,058 kbps Presentation Graphics Chinese 19,079 kbps Presentation Graphics Croatian 20,922 kbps Presentation Graphics Czech 18,801 kbps Presentation Graphics Czech 0,198 kbps Presentation Graphics Estonian 20,072 kbps Presentation Graphics Greek 24,675 kbps Presentation Graphics Hebrew 14,896 kbps Presentation Graphics Hungarian 21,346 kbps Presentation Graphics Hungarian 0,091 kbps Presentation Graphics Indonesian 23,118 kbps Presentation Graphics Korean 14,752 kbps Presentation Graphics Latvian 20,512 kbps Presentation Graphics Lithuanian 22,273 kbps Presentation Graphics Polish 20,651 kbps Presentation Graphics Polish 0,033 kbps Presentation Graphics Portuguese 20,163 kbps Presentation Graphics Portuguese 0,281 kbps Presentation Graphics Romanian 20,781 kbps Presentation Graphics Russian 21,050 kbps Presentation Graphics Russian 0,152 kbps Presentation Graphics Slovenian 18,794 kbps Presentation Graphics Spanish 22,519 kbps Presentation Graphics Spanish 0,139 kbps Presentation Graphics Thai 18,146 kbps Presentation Graphics Thai 0,117 kbps Presentation Graphics Turkish 21,325 kbps Presentation Graphics Turkish 0,161 kbps Presentation Graphics Ukrainian 19,995 kbps

FILES:

Name Time In Length Size Total Bitrate ---- ------- ------ ---- ------------- 00800.SSIF 0:00:00.000 2:03:07.963 45 325 197 312 49 080

Релиз от:

krutor.org

Фильм Варкрафт (2016) скачать торрент в хорошем качестве hd

Название: Варкрафт

Оригинальное название: Warcraft

Год выхода: 2016

Жанр: фэнтези, боевик, приключения

Режиссер: Дункан Джонс

В ролях: Трэвис Фиммел, Пола Пэттон, Бен Фостер, Доминик Купер, Тоби Кеббелл, Бен Шнетцер, Роберт Казински, Клэнси Браун, Дэниэл Ву, Рут Негга

События нескольких миров могут встречаться и даже разрушать друг друга. Так случилось и в данной истории, на плечи которой лег рассказ, о мире фантастической магии и волшебства. Варкрафт- история жизни сказочного королевства людей и воинствующих орков. 

Сюжет киноленты полноценно рассказывает о событиях, которые происходят на просторах мощного королевства людей, где всегда царила сила и возможности мирно существовать, но зло не дремлет и свободе настает конец. Грядет настоящее сражение. И только объединив силы можно противостоять грядущей угрозе. На плечах у воинствующей расы орков, так же возникают проблемы, на их земле разрастается страшная чума и разрушает их земли. Они вынуждены искать новое убежище. Местом преткновения становится земля, принадлежащая испокон веков людям. Встает закономерный вопрос о сражении или мирном сосуществовании. 

Сложные выборы и разделение между каждой из рас приводят вначале к внутренним столкновениям, а далее к разрушению всего благосостояния. Создавая прочное основание и давая сложные результаты на благополучное завершение сражении, может создать новые силы и союзы. Так как в скором времени силы зла и нечисти могут окутать даже не примиряемые ранее расы воинов и тех, кто готов бороться за свободу. 

Кинолента продемонстрирует насыщенную историю, в которой будет много фантастических героев и присутствовать всевозможная магия. Созданные спецэффекты и применяемая компьютерная графика откроет понимание о существовании других миров, неподвластным человеческому зрению. Захватив яркими сценами и обзорами имеющихся просторов природы и необычайно ярких персонаже, как со стороны орков, так и королевства рыцарей. Показав новые незабываемые грани для каждого зрителя. 

Собранные в единую целую историю части ранее известной видео игры, позволят увидеть настоящие сражения и заключаемые мирные договоры, позволив пронаблюдать настоящую историю, в основе которой ложится существование сказочных персонажей и неповторимого влияния магии и волшебства. За что кинолента и получает столь значимые 10 из 10 возможных. Просмотр позволит насладится оригинальными сражениями и действиями во имя спасения перед силами зла.

Страна: Китай, Канада, США

Студия: Atlas Entertainment, Blizzard Entertainment, Legendary Pictures, Universal Pictures

Продолжительность: 02:03:53

Перевод: Дублированный [Line]

Кодек: H.264

Качество: Telecine 1080p

Видео: AVC, 1920x800 (2.40:1), 29.970 fps ~ 6540 Kbps

Звук: 

AC3, 48 KHz 2 ch ~ 384 Kb/s (русский)

AC3, 48 KHz 6 ch ~ 448 Kb/s (английский)

Субтитры: китайские вшитые

Поиск торрент раздач, пожалуйста подождите!

Информация о торрент файле

Скачать торрент Торрент: Зарегистрирован Статус: v Проверено Просмотров: 2 384 Категория: фантастика Общий размер: 6.51 GB

Поделитесь ссылкой на наш сайт с друзьями в соц.сетях ↓

mega-torrent.co

Скачать торрент Варкрафт / Warcraft (2016) Blu-Ray CEE 1080p

«Два мира - одна судьба»

Информация о фильмеНазвание: ВаркрафтОригинальное название: Warcraft Год выхода: 2016Жанр: Фэнтези, боевик, приключенияРежиссер: Дункан ДжонсРоли озвучивают: Трэвис Фиммел, Пола Пэттон, Бен Фостер, Доминик Купер, Тоби Кеббелл, Бен Шнетцер, Роберт Казински, Клэнси Браун, Дэниэл Ву, Рут Негга

О фильме: Веками магия и неприступные стены защищали людей от любых напастей. Но древнее зло, побежденное и забытое тысячелетия назад, пробудилось.

В самом сердце королевства открылся темный портал, и раса невиданных существ наводнила земли Азерота. Так начались события, призванные навсегда изменить судьбу этого мира.

Страна: Китай, Канада, СШАСтудия: Atlas Entertainment, Blizzard Entertainment, Legendary Pictures, Universal PicturesПродолжительность: 02:03:07 Перевод: Профессиональный (полное дублирование)

ФайлКачество: Blu Ray 1080pФормат: BDMVКодек: MPEG-4 AVC VideoВидео: 1920x1080 (16:9), 23,976 fps, MPEG-4 AVC Video ~ 21291 kbps avg, High Profile 4.1 Аудио#1: DTS-HD Master Audio English 4834 kbps 7.1 / 48 kHz / 4834 kbps / 24-bit (AC3 Embedded: 5.1 / 48 kHz / 640 kbps / DN -4dB)Аудио#2: Dolby Digital Audio Czech 640 kbps 5.1 / 48 kHz / 640 kbpsАудио#3: Dolby Digital Audio Hungarian 640 kbps 5.1 / 48 kHz / 640 kbps / DN -4dBАудио#4: Dolby Digital Audio Polish 640 kbps 5.1 / 48 kHz / 640 kbps / DN -4dBАудио#5: Dolby Digital Audio Portuguese 640 kbps 5.1 / 48 kHz / 640 kbps / DN -4dBАудио#6: Dolby Digital Audio Russian 640 kbps 5.1 / 48 kHz / 640 kbps / DN -4dB / Профессиональный (полное дублирование)Аудио#7: Dolby Digital Audio Spanish 640 kbps 5.1 / 48 kHz / 640 kbps / DN -4dBАудио#8: Dolby Digital Audio Thai 640 kbps 5.1 / 48 kHz / 640 kbps / DN -4dBАудио#9: Dolby Digital Audio Turkish 640 kbps 5.1 / 48 kHz / 640 kbps / DN -4dB

Субтитры: Русские, английские, болгарские, китайские, чешские, эстонские, греческие, иврит венгерские. индонезийские, корейские, латышские, литовские, польские, португальские, румынские, испанские, тайские, турецкие, украинские (PGS)

Дополнительно

• Deleted/Extended Scenes • Gag Reel • The World of Warcraft on Film • The Fandom of Warcraft • Warcraft: Bonds of Brotherhood Motion Comic • Warcraft: The Madame Tussauds Experience • ILM: Behind the Magic of Warcraft • Warcraft Teaser - 2013

BDInfo Report

DISC INFO:

Disc Title: WARCRAFT_UPB2_HDCLUB Disc Size: 48 709 531 328 bytes Protection: AACS BD-Java: Yes BDInfo: 0.5.8

PLAYLIST REPORT:

Name: 00800.MPLS Length: 2:03:07.380 (h:m:s.ms) Size: 32 751 046 656 bytes Total Bitrate: 35,47 Mbps

VIDEO:

Codec Bitrate Deion ----- ------- ----------- MPEG-4 AVC Video 21291 kbps 1080p / 23,976 fps / 16:9 / High Profile 4.1

AUDIO:

Codec Language Bitrate Deion ----- -------- ------- ----------- Dolby TrueHD Audio English 4834 kbps 7.1 / 48 kHz / 4834 kbps / 24-bit (AC3 Embedded: 5.1 / 48 kHz / 640 kbps / DN -4dB) Dolby Digital Audio Czech 640 kbps 5.1 / 48 kHz / 640 kbps / DN -4dB Dolby Digital Audio Hungarian 640 kbps 5.1 / 48 kHz / 640 kbps / DN -4dB Dolby Digital Audio Polish 640 kbps 5.1 / 48 kHz / 640 kbps / DN -4dB Dolby Digital Audio Portuguese 640 kbps 5.1 / 48 kHz / 640 kbps / DN -4dB Dolby Digital Audio Russian 640 kbps 5.1 / 48 kHz / 640 kbps / DN -4dB Dolby Digital Audio Spanish 640 kbps 5.1 / 48 kHz / 640 kbps / DN -4dB Dolby Digital Audio Thai 640 kbps 5.1 / 48 kHz / 640 kbps / DN -4dB Dolby Digital Audio Turkish 640 kbps 5.1 / 48 kHz / 640 kbps / DN -4dB

SUBTITLES:

Codec Language Bitrate Deion ----- -------- ------- ----------- Presentation Graphics English 27,155 kbps Presentation Graphics Bulgarian 20,202 kbps Presentation Graphics Chinese 16,059 kbps Presentation Graphics Chinese 19,080 kbps Presentation Graphics Croatian 20,923 kbps Presentation Graphics Czech 18,803 kbps Presentation Graphics Czech 0,198 kbps Presentation Graphics Estonian 20,074 kbps Presentation Graphics Greek 24,677 kbps Presentation Graphics Hebrew 14,897 kbps Presentation Graphics Hungarian 21,347 kbps Presentation Graphics Hungarian 0,091 kbps Presentation Graphics Indonesian 23,120 kbps Presentation Graphics Korean 14,753 kbps Presentation Graphics Latvian 20,514 kbps Presentation Graphics Lithuanian 22,275 kbps Presentation Graphics Polish 20,653 kbps Presentation Graphics Polish 0,033 kbps Presentation Graphics Portuguese 20,164 kbps Presentation Graphics Portuguese 0,281 kbps Presentation Graphics Romanian 20,783 kbps Presentation Graphics Russian 21,052 kbps Presentation Graphics Russian 0,152 kbps Presentation Graphics Slovenian 18,796 kbps Presentation Graphics Spanish 22,521 kbps Presentation Graphics Spanish 0,139 kbps Presentation Graphics Thai 18,147 kbps Presentation Graphics Thai 0,117 kbps Presentation Graphics Turkish 21,326 kbps Presentation Graphics Turkish 0,161 kbps Presentation Graphics Ukrainian 19,996 kbps

FILES:

Name Time In Length Size Total Bitrate ---- ------- ------ ---- ------------- 00800.M2TS 0:00:00.000 2:03:07.380 32 751 046 656 35 467

Релиз от:

mrutor.org

Скачать фильм Варкрафт через торрент в хорошем качестве бесплатно 1080p

DISC INFO:

Disc Title: WARCRAFT_UPB2_HDCLUB

Disc Size: 48 709 531 328 bytes

Protection: AACS

BD-Java: Yes

BDInfo: 0.5.8

PLAYLIST REPORT:

Name: 00800.MPLS

Length: 2:03:07.380 (h:m:s.ms)

Size: 32 751 046 656 bytes

Total Bitrate: 35,47 Mbps

VIDEO:

Codec Bitrate Deion

----- ------- -----------

MPEG-4 AVC Video 21291 kbps 1080p / 23,976 fps / 16:9 / High Profile 4.1

AUDIO:

Codec Language Bitrate Deion

----- -------- ------- -----------

Dolby TrueHD Audio English 4834 kbps 7.1 / 48 kHz / 4834 kbps / 24-bit (AC3 Embedded: 5.1 / 48 kHz / 640 kbps / DN -4dB)

Dolby Digital Audio Czech 640 kbps 5.1 / 48 kHz / 640 kbps / DN -4dB

Dolby Digital Audio Hungarian 640 kbps 5.1 / 48 kHz / 640 kbps / DN -4dB

Dolby Digital Audio Polish 640 kbps 5.1 / 48 kHz / 640 kbps / DN -4dB

Dolby Digital Audio Portuguese 640 kbps 5.1 / 48 kHz / 640 kbps / DN -4dB

Dolby Digital Audio Russian 640 kbps 5.1 / 48 kHz / 640 kbps / DN -4dB

Dolby Digital Audio Spanish 640 kbps 5.1 / 48 kHz / 640 kbps / DN -4dB

Dolby Digital Audio Thai 640 kbps 5.1 / 48 kHz / 640 kbps / DN -4dB

Dolby Digital Audio Turkish 640 kbps 5.1 / 48 kHz / 640 kbps / DN -4dB

SUBTITLES:

Codec Language Bitrate Deion

----- -------- ------- -----------

Presentation Graphics English 27,155 kbps

Presentation Graphics Bulgarian 20,202 kbps

Presentation Graphics Chinese 16,059 kbps

Presentation Graphics Chinese 19,080 kbps

Presentation Graphics Croatian 20,923 kbps

Presentation Graphics Czech 18,803 kbps

Presentation Graphics Czech 0,198 kbps

Presentation Graphics Estonian 20,074 kbps

Presentation Graphics Greek 24,677 kbps

Presentation Graphics Hebrew 14,897 kbps

Presentation Graphics Hungarian 21,347 kbps

Presentation Graphics Hungarian 0,091 kbps

Presentation Graphics Indonesian 23,120 kbps

Presentation Graphics Korean 14,753 kbps

Presentation Graphics Latvian 20,514 kbps

Presentation Graphics Lithuanian 22,275 kbps

Presentation Graphics Polish 20,653 kbps

Presentation Graphics Polish 0,033 kbps

Presentation Graphics Portuguese 20,164 kbps

Presentation Graphics Portuguese 0,281 kbps

Presentation Graphics Romanian 20,783 kbps

Presentation Graphics Russian 21,052 kbps

Presentation Graphics Russian 0,152 kbps

Presentation Graphics Slovenian 18,796 kbps

Presentation Graphics Spanish 22,521 kbps

Presentation Graphics Spanish 0,139 kbps

Presentation Graphics Thai 18,147 kbps

Presentation Graphics Thai 0,117 kbps

Presentation Graphics Turkish 21,326 kbps

Presentation Graphics Turkish 0,161 kbps

Presentation Graphics Ukrainian 19,996 kbps

FILES:

Name Time In Length Size Total Bitrate

---- ------- ------ ---- -------------

00800.M2TS 0:00:00.000 2:03:07.380 32 751 046 656 35 467

piratbit.ru

Скачать торрент Варкрафт / Warcraft (2016) BDRip 1080p от Ash61 | 3D-Video | halfOU

ВаркрафтWarcraft«Два мира - одна судьба»Год выпуска: 2016Страна: Китай, Канада, Япония, США (Universal Pictures, Legendary, Blizzard Entertainment)Жанр: Фэнтези, Боевик, ПриключенияПродолжительность: 02:03:08

Перевод: Профессиональный дублированный (лицензия)

Режиссер: Дункан Джонс / Duncan Jones

Роли исполняли (дублировали):

Anduin Lothar - Трэвис Фиммел (Илья Исаев) Garona - Пола Пэттон (Марьяна Спивак) Medivh - Бен Фостер (Иван Калинин) Llane Wrynn - Доминик Купер (Александр Гаврилин) Durotan / Antonidas - Тоби Кеббелл (Андрей Казанцев, Сергей Чихачев) Khadgar - Бен Шнетцер (Сергей Смирнов) Orgrim - Роберт Казински (Владимир Левашёв) Blackhand - Клэнси Браун (Георгий Мартиросян) Gul'dan - Дэниэл Ву (Владимир Антоник) Lady Taria - Рут Негга (Алена Фалалеева) Draka - Анна Галвин (Юлия Яблонская)

Описание: Веками магия и неприступные стены защищали людей от любых напастей. Но древнее зло, побежденное и забытое тысячелетия назад, пробудилось. В самом сердце королевства открылся темный портал, и раса невиданных существ наводнила земли Азерота. Так начались события, призванные навсегда изменить судьбу этого мира.

Знаете ли вы, что...

  • Несколько лет назад на международном ежегодном фестивале был продемонстрирован концепт-трейлер, где рыцарь сражался с орком. Через пару часов было объявлено, что подготовка к съёмкам фильма ещё даже не началась.
  • Дункан Джонс охарактеризовал вселенную «Варкрафт» как «навороченную фэнтези», где всё очень необычно. Режиссёр попытался сделать её в фильме более привычной зрителю, но в то же время передать атмосферу и дух игр.
  • Первоначально Гари Уитта написал сценарий к фильму, но тот был полностью пересмотрен, когда проект возглавил Сэм Рэйми. И Уитта, и Рэйми в итоге покинули проект.
  • Режиссер Уве Болл связывался с компанией Blizzard по поводу создания фильма, но получил отказ. По словам Уве Болла, он связался с Полом В. Сэмсом из компании Blizzard и тот сказал Боллу, что они не собираются продавать права на этот фильм, в особенности ему, так как игра Warcraft имеет большой успех, и плохой фильм может негативно отразиться на доходах, которые она приносит.
  • Дункан Джонс заявил, что в плане противостояния Орды и Альянса первый вариант сценария получился слишком однобоким. Став режиссёром фильма, Джонс внёс значительные изменения в сюжет и сценарий, так что противостояние в фильме будет показано с точки зрения обеих противоборствующих сторон.
  • Первоначально премьера фильма была назначена на декабрь 2015-го, но её перенесли на май 2016 года в связи с выходом на экраны фильма Джей Джей Абрамса «Звёздные войны: Пробуждение силы».
  • Руководитель группы по спецэффектам Билл Вестенхофер, обладатель двух статуэток «Оскар» за прошлые работы, является давним поклонником игр «Варкрафт». Во время съёмок фильма он несколько раз поднимался среди ночи, чтобы поиграть. Роберт Казински, исполнитель роли персонажа по имени Оргрим Молот Рока, ещё один увлекающийся «Варкрафт» актёр. Он вспоминал, что во время съёмок фантастического боевика Гильермо дель Торо «Тихоокеанский рубеж» (2013) продюсеры неоднократно обращались к нему с просьбой отложить «Варкрафт» и заняться делом.
  • Специально для фильма «Варкрафт» было разработано наречие орков.
  • Монтажно-тонировочный период, известный также как пост-продакшн, занял 20 месяцев. Продюсер Томас Тулл, председатель правления компании «Legendary Pictures», назвал то, что делали режиссёр Дункан Джонс и создатели спецэффектов, «настоящим прорывом».
  • Съёмки фильма заняли 123 дня с 13 января по 23 мая 2014 года.
  • Во время прямой линии с Дунканом Джонсом, организованной компанией «Blizzard Entertainment, Inc.», режиссёра спросили, где будут проходить съёмки фильма. Ответить напрямую Джонс не имел права. В его обтекаемой фразе прозвучал намёк на футболку с надписью «Ванкувер», в которую он был одет. Там фильм «Варкрафт» и снимался.
  • О будущем фильме компания «Blizzard Entertainment, Inc» объявила в 2006 году. Фильм выйдет на экраны через 10 лет после объявления.
  • При съёмках орков использовалась технология «захвата движения» (как в фильмах «Планета обезьян: Революция», «Аватар» и др.), но самих орков играли актёры, для которых были созданы бутафорское оружие и доспехи. Эта технология применялась и на съёмках, и на фотосессиях.
  • Вначале роль короля Ллейна предложили Колину Фарреллу. Актёр даже встретился с режиссёром и прочёл сценарий. В конце концов, однако, роль досталась Доминику Куперу.
  • На международном ежегодном фестивале в Сан-Диего в 2014 году компания «Legendary Pictures» продемонстрировала созданное для фильма оружие и трейлер. Среди выставленного напоказ оружия поклонники сразу же узнали Молот Рока — один из самых известных видов оружия в играх «Варкрафт».
  • Ведущий сценарист компании «Blizzard Entertainment, Inc.» Крис Метцен озвучил множество главных персонажей компьютерных игр серии «Варкрафт». Его же рассказ лёг в основу сюжетной линии фильма.
  • Каскадёр и тренер движения Терри Нотари, исполнитель роли Громмаша Адского Крика, помогал другим актёрам достичь достоверности в изображении орков. В 2014 году на ежегодном фестивале, который компания «Blizzard Entertainment, Inc.» посвящает своим основным франшизам (в их число входит и «Варкрафт»), Роберт Казински публично поблагодарил Нотари за помощь.
  • Несмотря на то, что её персонаж по имени Гарона является наполовину орком, Пола Пэттон исполняет эту роль без применения технологии «захвата движения».
  • Одно время интерес к съёмкам в фильме «Варкрафт» проявлял Джонни Депп.

    Осторожно, следующие факты содержат спойлеры!

  • За основу сюжета фильма взяты события, о которых рассказано в книге Кристи Голден «World of Warcraft: Восхождение Орды» (2006), а точнее — об объединении кланов орков в Орду, и в книге Джеффа Грабба «Последний страж» (2001), в которой даётся взгляд на Орду и её вторжение с точки зрения людей.
  • В фильме город Даларан парил в небе, однако, по игровому сюжету Даларан был поднят в небо лишь во времена событий войны с Королём-Личом, что было намного позже событий, показанных в фильме. В это время Даларан был расположен на земле, на берегу озера Лордамер в Предгорьях Хилсбрада Восточных Королевств.
  • Премьера: 24 мая 2016 (26 мая 2016)Релиз на Blu-Ray (DVD) (Россия): 26 сентября 2016Бюджет: $160 000 000Кассовые сборы: $433 537 548

    Качество: BDRip (by Ash61)Контейнер: MKVФормат 3D: Half OverUnder / Вертикальная анаморфная стереопараПорядок ракурсов: левый ракурс первыйВидео: AVC / 1920х1080p / 23,976 fps / 14.1 Mbps

    Аудио:#1 - Русский / AC3 / 48 KHz / 5.1 ch / 640 Kbps (Дубляж - BD CEE)#2 - Украинский / AC3 / 48 KHz / 2 ch / 192 Kbps (Дубляж - Line) [моно] (последние 2 минуты на финальных титрах обрезана музыка)#3 - Английский / AC3 / 48 KHz / 5.1 ch / 640 Kbps (Original - BD 3D)

    Субтитры (SRT):Вшитые (softsub):#1 - Русские Форсированные [редакция Ash61] (включены по умолчанию)#2 - Русские Полные [BD CEE]#3 - Украинские Форсированные [Ash61]#4 - Украинские Полные [BD CEE]#5 - English SDH

    Внешние (UTF-8):#1 - Русские Форсированные [редакция Ash61] (включены по умолчанию)#2 - Украинские Форсированные [Ash61]

    MediaInfo

    General Unique ID : 243685362085090650913248140560385969609 (0xB75417F52D47A1409A600499C4100DC9) Complete name : E:Warcraft(2016)3D-halfOU(Ash61)Warcraft(2016)3D-halfOU(Ash61).mkv Format : Matroska Format version : Version 2 File size : 13.7 GiB Duration : 2h 3mn Overall bit rate : 15.9 Mbps Movie name : Варкрафт / Warcraft (2016) в 3Д Encoded date : UTC 2016-09-22 18:56:13 Writing application : mkvmerge v5.8.0 ('No Sleep / Pillow') built on Sep 2 2012 15:37:04 Writing library : libebml v1.2.3 + libmatroska v1.3.0

    Video ID : 1 Format : AVC Format/Info : Advanced Video Codec Format profile : [email protected] Format settings, CABAC : Yes Format settings, ReFrames : 4 frames Codec ID : V_MPEG4/ISO/AVC Duration : 2h 3mn Bit rate : 14.1 Mbps Width : 1 920 pixels Height : 1 080 pixels Display aspect ratio : 16:9 Frame rate mode : Constant Frame rate : 23.976 fps Color space : YUV Chroma subsampling : 4:2:0 Bit depth : 8 bits Scan type : Progressive Bits/(Pixel*Frame) : 0.284 Stream size : 12.1 GiB (89%) Title : BDRip by Ash61 Writing library : x264 core 146 r2538 121396c Encoding settings : cabac=1 / ref=4 / deblock=1:-3:-3 / analyse=0x3:0x113 / me=umh / subme=10 / psy=1 / psy_rd=1.00:0.00 / mixed_ref=1 / me_range=32 / chroma_me=1 / trellis=2 / 8x8dct=1 / cqm=0 / deadzone=21,11 / fast_pskip=1 / chroma_qp_offset=-2 / threads=12 / lookahead_threads=3 / sliced_threads=0 / nr=0 / decimate=1 / interlaced=0 / bluray_compat=0 / constrained_intra=0 / bframes=10 / b_pyramid=2 / b_adapt=2 / b_bias=0 / direct=3 / weightb=1 / open_gop=0 / weightp=2 / keyint=250 / keyint_min=23 / scenecut=40 / intra_refresh=0 / rc_lookahead=60 / rc=crf / mbtree=1 / crf=15.3 / qcomp=0.70 / qpmin=0 / qpmax=69 / qpstep=4 / vbv_maxrate=40000 / vbv_bufsize=30000 / crf_max=0.0 / nal_hrd=none / filler=0 / frame-packing=4 / ip_ratio=1.40 / aq=1:0.70 Language : English Default : Yes Forced : No

    Audio #1 ID : 2 Format : AC-3 Format/Info : Audio Coding 3 Mode extension : CM (complete main) Format settings, Endianness : Big Codec ID : A_AC3 Duration : 2h 3mn Bit rate mode : Constant Bit rate : 640 Kbps Channel(s) : 6 channels Channel positions : Front: L C R, Side: L R, LFE Sampling rate : 48.0 KHz Bit depth : 16 bits Compression mode : Lossy Stream size : 564 MiB (4%) Title : Дубляж - BD CEE Language : Russian Default : Yes Forced : No

    Audio #2 ID : 3 Format : AC-3 Format/Info : Audio Coding 3 Mode extension : CM (complete main) Format settings, Endianness : Big Codec ID : A_AC3 Duration : 2h 3mn Bit rate mode : Constant Bit rate : 192 Kbps Channel(s) : 2 channels Channel positions : Front: L R Sampling rate : 48.0 KHz Bit depth : 16 bits Compression mode : Lossy Stream size : 169 MiB (1%) Title : Дубляж - Line (последние 2 минуты титров без музыки) Language : Ukrainian Default : No Forced : No

    Audio #3 ID : 4 Format : AC-3 Format/Info : Audio Coding 3 Mode extension : CM (complete main) Format settings, Endianness : Big Codec ID : A_AC3 Duration : 2h 3mn Bit rate mode : Constant Bit rate : 640 Kbps Channel(s) : 6 channels Channel positions : Front: L C R, Side: L R, LFE Sampling rate : 48.0 KHz Bit depth : 16 bits Compression mode : Lossy Stream size : 564 MiB (4%) Title : Original - BD 3D Language : English Default : No Forced : No

    Text #1 ID : 5 Format : UTF-8 Codec ID : S_TEXT/UTF8 Codec ID/Info : UTF-8 Plain Text Title : Форсированные (редакция Ash61) Language : Russian Default : Yes Forced : No

    Text #2 ID : 6 Format : UTF-8 Codec ID : S_TEXT/UTF8 Codec ID/Info : UTF-8 Plain Text Title : Полные (BD CEE) Language : Russian Default : No Forced : No

    Text #3 ID : 7 Format : UTF-8 Codec ID : S_TEXT/UTF8 Codec ID/Info : UTF-8 Plain Text Title : Форсированные (Ash61) Language : Ukrainian Default : No Forced : No

    Text #4 ID : 8 Format : UTF-8 Codec ID : S_TEXT/UTF8 Codec ID/Info : UTF-8 Plain Text Title : Полные (BD CEE) Language : Ukrainian Default : No Forced : No

    Text #5 ID : 9 Format : UTF-8 Codec ID : S_TEXT/UTF8 Codec ID/Info : UTF-8 Plain Text Title : SDH Language : English Default : No Forced : No

    Menu 00:00:00.000 : :1 00:09:26.481 : :2 00:15:49.405 : :3 00:22:36.145 : :4 00:29:16.171 : :5 00:38:43.320 : :6 00:46:44.092 : :7 00:53:02.679 : :8 00:56:17.331 : :9 01:02:43.925 : :10 01:07:48.313 : :11 01:12:24.547 : :12 01:17:13.045 : :13 01:22:45.668 : :14 01:26:32.145 : :15 01:32:29.668 : :16 01:40:25.101 : :17 01:47:38.118 : :18 01:51:12.832 : :19 01:53:58.832 : :20

    О форматах и методах просмотра 3D

    krutor.org


    Смотрите также