Васаби скачать фильм бесплатно в хорошем качестве


Скачать фильм Васаби (2001) через торрент

5 апреля 2016 13:07 Васаби / Wasabi (2001) HDRip-AVC | D .torrent   [Информация о файле (нажмите для просмотра)] Перевод: ДубляжКачество: HDRip-AVCФормат: MKVВидео: AVC, 1152x488 (2.35:1), 2813 kbps, 24 fps, 0,208 bppАудио: AC3 / 5.1 / 48 kHz / 448 kbps / 16 bit 2,14 Gb 11 4 5 апреля 2016 13:07 Васаби / Wasabi (2001) BDRip от SKS | КПК .torrent   [Информация о файле (нажмите для просмотра)] Перевод: Дублированный |R5 Союз-Видео|Кодек: Н.264Качество: BDRip | КПКВидео: 480 Х 204, 616 Kbps, 23.976 fps, 0.262 bit/pixelЗвук: AAC, 48 kHz, 2 ch,L R, ~ 128 kbps avgСубтитры: нет 500,41 Mb 15 1 5 апреля 2016 13:07 Васаби / Wasabi (2001) BDRip от HQ-ViDEO .torrent   [Информация о файле (нажмите для просмотра)] Перевод: Дублированный|R5 Союз-Видео|Субтитры: Русские (2 вида), Английские.Формат: AVIКачество: BDRip (источник: fittyWhitedie /BD-Remux GER / 1080p)Кодек: XviD, build 73 codecВидео: 720 x 304; 23.976 fps; 1761 kbps; 0.336 bit/pixelАудио #01: AC3 Dolby Digital; 448 Kbps; 6 channels; 48 KHzАудио #02: AC3 Dolby Digital; 448 Kbps; 6 channels; 48 KHz(отдельно, http)Аудио #03: AC3 Dolby Digital; 384 Kbps; 6 channels; 48 KHz(отдельно, http)Аудио #04: AC3 Dolby Digital; 384 Kbps; 6 channels; 48 KHz(отдельно, http)Аудио #05: AC3 Dolby Digital; 256 Kbps; 2 channels; 48 KHz(отдельно, http)Аудио #06: AC3 Dolby Digital; 192 Kbps; 2 channels; 48 KHz(отдельно, http)Аудио #07: AC3 Dolby Digital; 448 Kbps; 6 channels; 48 KHz(отдельно, http)Аудио #08: AC3 Dolby Digital; 192 Kbps; 2 channels; 48 KHz(отдельно, http)Аудио #09: AC3 Dolby Digital; 192 Kbps; 2 channels; 48 KHz(отдельно, http)Аудио #10: AC3 Dolby Digital; 448 Kbps; 6 channels; 48 KHz(отдельно, http)Аудио #11: AC3 Dolby Digital; 448 Kbps; 6 channels; 48 KHz(отдельно, http)Аудио #12: AC3 Dolby Digital; 448 Kbps; 6 channels; 48 KHz(отдельно, http) 1,45 Gb 271 16 5 апреля 2016 13:07 Васаби / Wasabi (2001) BDRip 1080p от R.G. HD-Films | 60 fps .torrent   [Информация о файле (нажмите для просмотра)] Перевод: ДубляжСубтитры: русские (Полные), французские (Полные)Качество: BDRip 1080p / 60 FPSФормат: MKVВидео: AVC, 1920x808 (2.40:1), 14000 kbps, 59,940 fps, 0,151 bppАудио №1: русский / AC3 / 5.1 / 48 kHz / 448 kbps / 16 bit|Дубляж| Аудио №2: русский / AC3 / 5.1 / 48 kHz / 448 kbps / 16 bit|Многоголосый, закадровый CP Digital| Аудио №3: русский / AC3 / 5.1 / 48 kHz / 384 kbps / 16 bit|Многоголосый, закадровый LDV| Аудио №4: русский / AC3 / 5.1 / 48 kHz / 384 kbps / 16 bit|Многоголосый, закадровый Домашнее видео| Аудио №5: русский / AC3 / 2.0 / 48 kHz / 192 kbps / 16 bit|Многоголосый, закадровый Россия| Аудио №6: русский / AC3 / 2.0 / 48 kHz / 192 kbps / 16 bit|Многоголосый, закадровый НТВ| Аудио №7: французский / AC3 / 5.1 / 48 kHz / 448 kbps / 16 bit 10,82 Gb 19 3 5 апреля 2016 13:07 Васаби / Wasabi (2001) HDRip от Scarabey | P2 .torrent   [Информация о файле (нажмите для просмотра)] Перевод: Профессиональный (двухголосый, закадровый) П.Гланц и И.КоролеваКодек: XviDКачество: HDRipВидео: 720x304 (2.37:1), 24.000 fps, XviD build 50 ~1756 kbps avg, 0.33 bit/pixelЗвук: 48 kHz, AC3 Dolby Digital, 3/2 (L,C,R,l,r) + LFE ch, ~448.00 kbps avgСубтитры: нет 1,45 Gb 133 9 5 апреля 2016 13:07 Васаби / Wasabi (2001) HDRip от Scarabey .torrent   [Информация о файле (нажмите для просмотра)] Перевод: Профессиональный (дублированный)Кодек: XviDКачество: HDRipВидео: 688x288 (2.39:1), 24.000 fps, XviD build 50 ~968 kbps avg, 0.20 bit/pixelЗвук: 48 kHz, MPEG Layer 3, 2 ch, ~128.00 kbps avgСубтитры: нет 741,65 Mb 4 3 5 апреля 2016 13:07 Васаби / Wasabi (2001) BDRip-AVC от KINOREAKTOR (Sheikn) .torrent   [Информация о файле (нажмите для просмотра)] Перевод: ДублированныйКодек: MPEG-4 AVCКачество: BDRip (AVC)Видео: 1024x432, 4478 Кбит/сЗвук: Дублированный (АС3, 6 ch, 448 Кбит/с) / Французский (АС3, 6 ch, 448 Кбит/с) Профессиональный, многоголосый (CP Digital) / Профессиональный, двухголосый (Петр Гланц и Инна Королева) (АС3, 6 ch, 448 Кбит/с) / Профессиональный, многоголосый (LDV) / Профессиональный, многоголосый (Домашнее Видео) (АС3, 6 ch, 384 Кбит/с) / Профессиональный, многоголосый (ТРК Россия 2004 год) / Профессиональный, многоголосый (НТВ) / Авторский, одноголосый (Леонид Володарский) / Авторский, одноголосый (Леонид Векшин) / Авторский, одноголосый (Евгений Гранкин) (АС3, 2 ch, 192 Кбит/с) - ОТДЕЛЬНОСубтитры: Русские (R5), русские (Flexor), французские, английские (srt) 5,31 Gb 4 3 5 апреля 2016 13:07 Васаби / Wasabi (2001) BDRip 1080p [Hi10P] от FREEISLAND .torrent   [Информация о файле (нажмите для просмотра)] Перевод: Дублированный [R5 "Союз-Видео"]Качество: BDRip 1080p Hi10P (SSIM: 0.9803084)Контейнер: MKVВидео: AVC at 6222 Кбит/сек, 1916 x 812 (2.360) at 23.976 fpsАудио: AC-3 at 448 Кбит/сек, 6 каналов, 48,0 КГцСубтитры: русские, полные на дубляж (SRT/UTF-8)Видео: Идентификатор : 1 Формат : AVC Формат/Информация : Advanced Video Codec Профиль формата : High [email protected] Параметр CABAC формата : Да Параметр ReFrames формата : 16 кадров Идентификатор кодека : V_MPEG4/ISO/AVC Продолжительность : 1 ч. 33 м. Битрейт : 6222 Кбит/сек Ширина : 1916 пикселей Высота : 812 пикселей Соотношение сторон : 2,35:1 Частота кадров : 23,976 кадра/сек Цветовое пространство : YUV Субдискретизация насыщенности : 4:2:0 Битовая глубина : 10 бит Тип развёртки : Прогрессивная Бит/(Пиксели*Кадры) : 0.167 Размер потока : 3,98 Гбайт (91%) Библиотека кодирования : x264 core 122 r2184+663+27 f7228ce tMod [[email protected] X86_64] Настройки программы : cabac=1 / ref=16 / deblock=1:-2:-2 / analyse=0x3:0x133 / me=umh / subme=11 / psy=1 / fade_compensate=0.00 / psy_rd=1.00:0.00 / mixed_ref=1 / me_range=64 / chroma_me=1 / trellis=2 / 8x8dct=1 / cqm=0 / deadzone=21,11 / fast_pskip=0 / chroma_qp_offset=-2 / threads=12 / sliced_threads=0 / nr=0 / decimate=1 / interlaced=0 / bluray_compat=0 / constrained_intra=0 / fgo=0 / bframes=11 / b_pyramid=2 / b_adapt=2 / b_bias=0 / direct=3 / weightb=1 / open_gop=0 / weightp=2 / keyint=240 / keyint_min=24 / scenecut=40 / intra_refresh=0 / rc=2pass / mbtree=0 / bitrate=6222 / ratetol=1.0 / qcomp=1.00 / qpmin=0 / qpmax=48 / qpstep=4 / cplxblur=20.0 / qblur=0.5 / ip_ratio=1.40 / pb_ratio=1.30 / aq=4:1.00 Default : Да Forced : Нет Основные цвета : BT.709-5, BT.1361, IEC 61966-2-4, SMPTE RP177 Характеристики трансфера : BT.709-5, BT.1361 Коэффициенты матрицы : BT.709-5, BT.1361, IEC 61966-2-4 709, SMPTE RP177Аудио: Идентификатор : 2 Формат : AC-3 Формат/Информация : Audio Coding 3 Расширение режима : CM (complete main) Идентификатор кодека : A_AC3 Продолжительность : 1 ч. 33 м. Вид битрейта : Постоянный Битрейт : 448 Кбит/сек Каналы : 6 каналов Расположение каналов : Front: L C R, Side: L R, LFE Частота : 48,0 КГц Битовая глубина : 16 бит Метод сжатия : С потерями Размер потока : 301 Мбайт (7%) Заголовок : DUB | R5 "Союз-Видео" Язык : Russian Default : Да Forced : Нет 4,36 Gb 19 3 5 апреля 2016 13:07 Васаби / Wasabi (2001) BDRip от HELLYWOOD .torrent   [Информация о файле (нажмите для просмотра)] Перевод: Профессиональный (полное дублирование) + Профессиональный (многоголосый, закадровый) CP-Digital(отдельно) + Профессиональный (многоголосый, закадровый) LDV (отдельно) + Профессиональный (многоголосый, закадровый) Домашнее Видео (отдельно) + Профессиональный (многоголосый, закадровый) Россия (отдельно) + Профессиональный (многоголосый, закадровый) НТВ (отдельно) + Профессиональный (двухголосый, закадровый) Гланц и Королева (отдельно) + Авторский (Володарский) (отдельно) + Авторский (Векшин) (отдельно) + Авторский (Гранкин) + Авторский (Kuzen) (отдельно) + Оригинальная дорожка (отдельно)Субтитры: Русские (2 вида), английские (внешние *.srt)Формат: AVIКачество: BDRip (источник: Diablo /BD-Remux /1080p)Видео: 720x304 (2.37:1), 24 fps, XviD build 63 ~1821 kbps avg, 0.35 bit/pixelАудио #1: 48 kHz, AC3 Dolby Digital, 3/2 (L,C,R,l,r) + LFE ch, ~384 kbps|Дубляж|Аудио #2: 48 kHz, AC3 Dolby Digital, 3/2 (L,C,R,l,r) + LFE ch, ~384 kbps|CP-Digital|Аудио #3: 48 kHz, AC3 Dolby Digital, 3/2 (L,C,R,l,r) + LFE ch, ~384 kbps|LDV|Аудио #4: 48 kHz, AC3 Dolby Digital, 3/2 (L,C,R,l,r) + LFE ch, ~384 kbps|Домашнее Видео|Аудио #5: 48 kHz, AC3 Dolby Digital, 2/0 (L,R) ch, ~192.00 kbps avg|Россия|Аудио #6: 48 kHz, AC3 Dolby Digital, 2/0 (L,R) ch, ~192.00 kbps avg|НТВ|Аудио #7: 48 kHz, AC3 Dolby Digital, 3/2 (L,C,R,l,r) + LFE ch, ~384 kbps|Гланц и Королева|Аудио #8: 48 kHz, AC3 Dolby Digital, 2/0 (L,R) ch, ~192.00 kbps avg|Володарский|Аудио #9: 48 kHz, AC3 Dolby Digital, 2/0 (L,R) ch, ~192.00 kbps avg|Векшин|Аудио #10: 48 kHz, AC3 Dolby Digital, 2/0 (L,R) ch, ~192.00 kbps avg|Гранкин|Аудио #11: 48 kHz, AC3 Dolby Digital, 3/2 (L,C,R,l,r) + LFE ch, ~384 kbps|Kuzen|Аудио #12: 48 kHz, AC3 Dolby Digital, 3/2 (L,C,R,l,r) + LFE ch, ~384 kbps|Оригинал| 3,59 Gb 5 4 5 апреля 2016 13:07 Васаби / Wasabi (2001) BDRip 720p .torrent   [Информация о файле (нажмите для просмотра)] Перевод: Субтитры: русские, английские, французскиеКачество: BDRip 720p by [email protected]Формат: MKV[SAMPLE]Видео: AVC / 5768 kbps / 1280x544 / 24 fps / 2.35:1 / High Profile 4.1Аудио #01: 48 kHz, AC3, 5.1 ch, 448 kbps|Дублированный, R5 Союз-Видео|Аудио #02: 48 kHz, AC3, 5.1 ch, 448 kbps|Многоголосый, R5 CP-Digital|Аудио #03: 48 kHz, AC3, 5.1 ch, 384 kbps|Многоголосый, LDV|Аудио #04: 48 kHz, AC3, 5.1 ch, 384 kbps|Многоголосый, Домашнее видео|Аудио #05: 48 kHz, AC3, 5.1 ch, 448 kbps|Двухголосый, Гланц и Королёва|Аудио #06: 48 kHz, AC3, 2.0 ch, 192 kbps|Многоголосый, НТВ|Аудио #07: 48 kHz, AC3, 2.0 ch, 192 kbps|Многоголосый, РТР|Аудио #08: 48 kHz, AC3, 2.0 ch, 192 kbps|Авторский, Володарский|Аудио #09: 48 kHz, AC3, 2.0 ch, 192 kbps|Авторский, Векшин|Аудио #10: 48 kHz, AC3, 2.0 ch, 192 kbps|Авторский, Гранкин|Аудио #11: 48 kHz, AC3, 5.1 ch, 448 kbps|Оригинальный французский| 6,08 Gb 4 5 5 апреля 2016 13:07 Васаби / Wasabi (2001) BDRip 1080p .torrent   [Информация о файле (нажмите для просмотра)] Перевод: Субтитры: русские, английские, французскиеКачество: BDRip 1080p by [email protected]Формат: MKV[SAMPLE]Видео: AVC / 13000 kbps / 1916x816 / 24 fps / 2.35:1 / High Profile 4.1Аудио #01: 48 kHz, AC3, 5.1 ch, 448 kbps|Дублированный, R5 Союз-Видео|Аудио #02: 48 kHz, AC3, 5.1 ch, 448 kbps|Многоголосый, R5 CP-Digital|Аудио #03: 48 kHz, AC3, 5.1 ch, 384 kbps|Многоголосый, LDV|Аудио #04: 48 kHz, AC3, 5.1 ch, 384 kbps|Многоголосый, Домашнее видео|Аудио #05: 48 kHz, AC3, 5.1 ch, 448 kbps|Двухголосый, Гланц и Королёва|Аудио #06: 48 kHz, AC3, 2.0 ch, 192 kbps|Многоголосый, НТВ|Аудио #07: 48 kHz, AC3, 2.0 ch, 192 kbps|Многоголосый, РТР|Аудио #08: 48 kHz, AC3, 2.0 ch, 192 kbps|Авторский, Володарский|Аудио #09: 48 kHz, AC3, 2.0 ch, 192 kbps|Авторский, Векшин|Аудио #10: 48 kHz, AC3, 2.0 ch, 192 kbps|Авторский, Гранкин|Аудио #11: 48 kHz, AC3, 5.1 ch, 448 kbps|Оригинальный французский| 10,82 Gb 5 3 5 апреля 2016 13:07 Васаби / Wasabi (2001) BDRip от HQCLUB .torrent   [Информация о файле (нажмите для просмотра)] Перевод: Профессиональный (полное дублирование)Субтитры: русские (2 вида), английские, внешние, *.srt)Формат: AVIКачество: BDRip (источник:Видео: 720x304 (2.37:1), 24 fps, XviD build 63 ~1825 kbps avg, 0.35 bit/pixelАудио #01: 48 kHz, AC3 Dolby Digital, 3/2 (L,C,R,l,r) + LFE ch, ~384.00 kbps avgАудио #02: 48 kHz, AC3 Dolby Digital, 3/2 (L,C,R,l,r) + LFE ch, ~384.00 kbps avg |CP-Digital|(отдельно, http)Аудио #03: 48 kHz, AC3 Dolby Digital, 3/2 (L,C,R,l,r) + LFE ch, ~384.00 kbps avg |LDV|(отдельно, http)Аудио #04: 48 kHz, AC3 Dolby Digital, 3/2 (L,C,R,l,r) + LFE ch, ~384.00 kbps avg |Домашнее Видео|(отдельно, http)Аудио #05: 48 kHz, AC3 Dolby Digital, 2/0 (L,R) ch, ~192.00 kbps avg |Россия|(отдельно, http)Аудио #06: 48 kHz, AC3 Dolby Digital, 2/0 (L,R) ch, ~192.00 kbps avg |НТВ|(отдельно, http)Аудио #07: 48 kHz, AC3 Dolby Digital, 3/2 (L,C,R,l,r) + LFE ch, ~384.00 kbps avg |Гланц и Королева|(отдельно, http)Аудио #08: 48 kHz, AC3 Dolby Digital, 2/0 (L,R) ch, ~192.00 kbps avg |Володарский|(отдельно, http)Аудио #09: 48 kHz, AC3 Dolby Digital, 2/0 (L,R) ch, ~192.00 kbps avg |Векшин|(отдельно, http)Аудио #10: 48 kHz, AC3 Dolby Digital, 2/0 (L,R) ch, ~192.00 kbps avg |Гранкин|(отдельно, http)Аудио #11: 48 kHz, AC3 Dolby Digital, 3/2 (L,C,R,l,r) + LFE ch, ~384.00 kbps avg |Kuzen|(отдельно, http)Аудио #12: 48 kHz, AC3 Dolby Digital, 3/2 (L,C,R,l,r) + LFE ch, ~384.00 kbps avg |FRA|(отдельно, http) 1,45 Gb 16 5 5 апреля 2016 13:07 Васаби / Wasabi (2001) HDRip-AVC .torrent   [Информация о файле (нажмите для просмотра)] Перевод: ДубляжКодек: x.264Качество: HDRip-AVCВидео: 752x320, 24.000 fps, 982 Kbps, 0.170 Bits/(Pixel*Frame)Звук: AAC-LC, 2 channels, ~128 Kbps, 48000 HzСубтитры: SRT: Русские, английские, французские 745,28 Mb 9 2 5 апреля 2016 13:07 Васаби / Wasabi (2001) HDTVRip .torrent   [Информация о файле (нажмите для просмотра)] Перевод: Профессиональный (дублированный) + Профессиональный (двухголосый закадровый) Гланц и Королева + Авторский (одноголосый закадровый) Володарский + Оригинал (Французский)Качество: HDTVRip [Исходник: HDTVRip 720p]Формат: AVIВидео: 720x304 (2.37:1), 25 fps, XviD build 50 ~2013 kbps avg, 0.37 bit/pixelАудио #1: 48 kHz, AC3 Dolby Digital, 6 ch, ~448.00 kbps avg (DUB)Аудио #2: 48 kHz, AC3 Dolby Digital, 3/2 (L,C,R,l,r) ch, ~384 kbps (MVO)Аудио #3: 48 kHz, AC3 Dolby Digital, 2/0 (L,R) ch, ~192 kbps (AVO)Аудио #4: 48 kHz, AC3 Dolby Digital, 3/2 (L,C,R,l,r) + LFE ch, ~448 kbps (FRA) 2,19 Gb 5 5

gig-torrent.net

Васаби 2001 - скачать бесплатно через торрент в хорошем качестве. Без регистрации

Название: Васаби / Wasabi (2001) BDRip от HQCLUB
Качество видео: BDRip (источник: fittyWhitedie / BDRemux / 1080р)
Перевод: профессиональный (полное дублирование) Союз-Видео
Формат видео: AVI
Видео: 720x304 (2.37:1), 23,976 fps, XviD build 65 ~1822 kbps avg, 0.35 bit/pixel
Аудио: + Профессиональный (многоголосый, закадровый) CP Digital48 kHz, AC3 Dolby Digital, 3/2 (L,C,R,l,r) + LFE ch, ~384 kbps avg (DUB.SOUZ.VIDEO)48 kHz, AC3 Dolby Digital, 3/2 (L,C,R,l,r) + LFE ch, ~384 kbps avg (MVO.CP-DIGITAL)48 kHz, AC3 Dolby Digital, 3/2 (L,C,R,l,r) + LFE ch, ~384 kbps avg (MVO.LDV) (отдельно)48 kHz, AC3 Dolby Digital, 3/2 (L,C,R,l,r) + LFE ch, ~384 kbps avg (MVO.DOMASHNEE.VIDEO) (отдельно)48 kHz, AC3 Dolby Digital, 2/0 (L,R) ch, ~192 kbps avg (MVO.NTV|STS) (отдельно)48 kHz, AC3 Dolby Digital, 2/0 (L,R) ch, ~192 kbps avg (MVO.ROSSIYA) (отдельно)48 kHz, AC3 Dolby Digital, 3/2 (L,C,R,l,r) + LFE ch, ~384 kbps avg (DVO.GLANC) (отдельно)48 kHz, AC3 Dolby Digital, 3/2 (L,C,R,l,r) + LFE ch, ~384 kbps avg (AVO.VOLODARSKIJ) (отдельно)48 kHz, AC3 Dolby Digital, 2/0 (L,R) ch, ~192 kbps avg (AVO.GRANKIN) (отдельно)48 kHz, AC3 Dolby Digital, 2/0 (L,R) ch, ~192 kbps avg (VO.VEKSHYN) (отдельно)48 kHz, AC3 Dolby Digital, 2/0 (L,R) ch, ~192 kbps avg (VO.KUZEN) (отдельно)48 kHz, AC3 Dolby Digital, 2/0 (L,R) ch, ~192 kbps avg (FRE) (отдельно)
Скачать

Загрузка начнется в течение 5 сек.

1.45 GB

Название: Васаби / Wasabi (2001) HDRip от Scarabey | D
Качество видео: HDRip
Перевод: Профессиональный (полное дублирование)
Видео: 720x304 (2.37:1), 24 fps, XviD build 73 ~975 kbps avg, 0.19 bit/pixel
Аудио: 48 kHz, MPEG Layer 3, 2 ch, ~128.00 kbps avg
Скачать

Загрузка начнется в течение 5 сек.

746.50 MB

Название: Васаби / Wasabi (2001) HDRip от Scarabey | D
Качество видео: HDRip
Перевод: Профессиональный (полное дублирование)
Видео: 720x304 (2.37:1), 24 fps, XviD build 73 ~1747 kbps avg, 0.33 bit/pixel
Аудио: 48 kHz, AC3 Dolby Digital, 3/2 (L,C,R,l,r) + LFE ch, ~448.00 kbps avg
Скачать

Загрузка начнется в течение 5 сек.

1.44 GB

Название: Васаби / Wasabi (2001) HDRip-AVC |D
Качество видео: HDRip-AVC
Перевод: Дубляж
Формат видео: MKV
Видео: AVC, 1152x488 (2.35:1), 2813 kbps, 24 fps, 0,208 bpp
Аудио: AC3 / 5.1 / 48 kHz / 448 kbps / 16 bit
Скачать

Загрузка начнется в течение 5 сек.

2.14 GB

Название: Васаби / Wasabi (2001) BDRip от SKS | КПК
Качество видео: BDRip | КПК
Перевод: Дублированный |R5 Союз-Видео|
Видео: Н.264 480 Х 204, 616 Kbps, 23.976 fps, 0.262 bit/pixel
Аудио: AAC, 48 kHz, 2 ch,L R, ~ 128 kbps avg
Скачать

Загрузка начнется в течение 5 сек.

500.41 MB

Название: Васаби / Wasabi (2001) BDRip от HQ-ViDEO
Качество видео: BDRip (источник: fittyWhitedie / BDRemux GER / 1080p)
Перевод: Дублированный |R5 Союз-Видео|
Формат видео: AVI
Видео: XviD, build 73 codec 720 x 304; 23.976 fps; 1761 kbps; 0.336 bit/pixel
Аудио: + Профессиональный (многоголосый, закадровый) CP-DigitalAC3 Dolby Digital; 448 Kbps; 6 channels; 48 KHzAC3 Dolby Digital; 448 Kbps; 6 channels; 48 KHz (отдельно, http)AC3 Dolby Digital; 384 Kbps; 6 channels; 48 KHz (отдельно, http)AC3 Dolby Digital; 384 Kbps; 6 channels; 48 KHz (отдельно, http)AC3 Dolby Digital; 256 Kbps; 2 channels; 48 KHz (отдельно, http)AC3 Dolby Digital; 192 Kbps; 2 channels; 48 KHz (отдельно, http)AC3 Dolby Digital; 448 Kbps; 6 channels; 48 KHz (отдельно, http)AC3 Dolby Digital; 192 Kbps; 2 channels; 48 KHz (отдельно, http)AC3 Dolby Digital; 192 Kbps; 2 channels; 48 KHz (отдельно, http)AC3 Dolby Digital; 448 Kbps; 6 channels; 48 KHz (отдельно, http)AC3 Dolby Digital; 448 Kbps; 6 channels; 48 KHz (отдельно, http)AC3 Dolby Digital; 448 Kbps; 6 channels; 48 KHz (отдельно, http)
Скачать

Загрузка начнется в течение 5 сек.

1.45 GB

Название: Васаби / Wasabi (2001) BDRip 1080p от R.G. HD-Films | 60 fps
Качество видео: BDRip 1080p / 60 FPS
Перевод: Дубляж
Формат видео: MKV
Видео: AVC AVC, 1920x808 (2.40:1), 14000 kbps, 59,940 fps, 0,151 bpp
Аудио: AC3 AC3русский / AC3 / 5.1 / 48 kHz / 448 kbps / 16 bit |Дубляж|русский / AC3 / 5.1 / 48 kHz / 448 kbps / 16 bit |Многоголосый, закадровый CP Digital|русский / AC3 / 5.1 / 48 kHz / 384 kbps / 16 bit |Многоголосый, закадровый LDV|русский / AC3 / 5.1 / 48 kHz / 384 kbps / 16 bit |Многоголосый, закадровый Домашнее видео|русский / AC3 / 2.0 / 48 kHz / 192 kbps / 16 bit |Многоголосый, закадровый Россия|русский / AC3 / 2.0 / 48 kHz / 192 kbps / 16 bit |Многоголосый, закадровый НТВ|французский / AC3 / 5.1 / 48 kHz / 448 kbps / 16 bit
Скачать

Загрузка начнется в течение 5 сек.

10.82 GB

Название: Васаби / Wasabi (2001) HDRip от Scarabey
Качество видео: HDRip
Перевод: Профессиональный (дублированный)
Видео: XviD 688x288 (2.39:1), 24.000 fps, XviD build 50 ~968 kbps avg, 0.20 bit/pixel
Аудио: 48 kHz, MPEG Layer 3, 2 ch, ~128.00 kbps avg
Скачать

Загрузка начнется в течение 5 сек.

741.65 MB

Название: Васаби / Wasabi (2001) HDRip от Scarabey | P2
Качество видео: HDRip
Перевод: Профессиональный (двухголосый, закадровый) П.Гланц и И.Королева
Видео: XviD 720x304 (2.37:1), 24.000 fps, XviD build 50 ~1756 kbps avg, 0.33 bit/pixel
Аудио: 48 kHz, AC3 Dolby Digital, 3/2 (L,C,R,l,r) + LFE ch, ~448.00 kbps avg
Скачать

Загрузка начнется в течение 5 сек.

1.45 GB

Название: Васаби / Wasabi (2001) BDRip-AVC от KINOREAKTOR (Sheikn)
Качество видео: BDRip (AVC)
Перевод: Дублированный
Видео: MPEG-4 AVC 1024x432, 4478 Кбит/с
Аудио: Дублированный (АС3, 6 ch, 448 Кбит/с) / Французский (АС3, 6 ch, 448 Кбит/с)
Скачать

Загрузка начнется в течение 5 сек.

5.31 GB

Название: Васаби / Wasabi (2001) BDRip 1080p [Hi10P] от FREEISLAND
Качество видео: BDRip 1080p Hi10P (SSIM: 0.9803084)
Перевод: Дублированный [R5 "Союз-Видео"]
Видео: x264 [email protected] (не совместим с большинством быто AVC at 6222 Кбит/сек, 1916 x 812 (2.360) at 23.976 fps
Аудио: AC3 AC-3 at 448 Кбит/сек, 6 каналов, 48,0 КГц
Скачать

Загрузка начнется в течение 5 сек.

4.36 GB

www.kinovit.net

Скачать фильм Васаби через торрент в хорошем качестве бесплатно 720p

Размер: 6.08 GB | Добавлен: 4 года 2 мес. назад | Торрент скачан:89 раз
Реклама Дарим 3000 рублей за регистрацию, не упусти свой шанс получить шикарный бонус!!!

21-08-2013 12:46 Васаби Скачать торрент  

Васаби / Wasabi

«For those who take their action raw.» Год выпуска: 2001Страна: Франция, ЯпонияЖанр: криминал, боевик, комедия,Продолжительность: 1:33:44Перевод: профессиональный (полное дублирование)профессиональный (многоголосый закадровый)профессиональный (двухголосый закадровый)авторский (одноголосый закадровый)Субтитры: Русские, Английские, Французские

Режиссер: Жерар Кравчик / Gérard Krawczyk

Бюджет: €15 300 000

В ролях: Жан Рено, Риоко Хиросуэ, Мишель Мюллер, Кароль Буке, Йоши Оида, Кристиан Синниже, Александр Брик, Жан-Марк Монтальто, Вероник Бальм, Фабио Зенони и другие...,

: Юбер Фиорентини — французский полицейский, исполняя последнюю волю когда-то им любимой японской девушки, вынужден отправиться в далекую Японию, где ему приходится встретиться со старым другом и дочерью, о существовании которой он даже не подозревал. А также получить наследство в 200 млн. долларов, и познакомиться с японской якудзой, охотящейся за заманчивой суммой…

Качество: BDRip 720pФормат: MKVВидео кодек: AVCАудио кодек: AC3Видео: 1280x544 / 24 fps / 2.35:1 / High Profile 4.1 / 5768 kbps~9 257 KbpsАудио#1: 48 kHz, 5.1 ch, 448 kbps |Дублированный, R5 Союз-Видео|Аудио#2: 48 kHz, 5.1 ch, 448 kbps |Многоголосый, R5 CP-DigitalАудио#3: 48 kHz, 5.1 ch, 384 kbps |Многоголосый, LDVАудио#4: 48 kHz, 5.1 ch, 384 kbps |Многоголосый, Домашнее видео|Аудио#5: 48 kHz, 5.1 ch, 448 kbps |Двухголосый, Гланц и Королёва|Аудио#6: 48 kHz, 2.0 ch, 192 kbps |Многоголосый, НТВ|Аудио#7: 48 kHz, 2.0 ch, 192 kbps |Многоголосый, РТР|Аудио#8: 48 kHz, 2.0 ch, 192 kbps |Авторский, Володарский|Аудио#9: 48 kHz, 2.0 ch, 192 kbps |Авторский, Векшин|Аудио#10: 48 kHz, 2.0 ch, 192 kbps |Авторский, Гранкин|Аудио#11: 48 kHz, 5.1 ch, 448 kbps |Оригинальный французский|

E:киноВасабиWasabi.2001.BluRay.720p.AC3.10xRus.Eng.Sub.x264.mkvGeneralUnique ID : 170375419700110284523846887788741937114 (0x802D1CBCFE1C67618762DFD1356047DA)Complete name : E:киноВасабиWasabi.2001.BluRay.720p.AC3.10xRus.Eng.Sub.x264.mkvFormat : MatroskaFormat version : Version 2File size : 6.08 GiBDuration : 1h 34mnOverall bit rate : 9 257 KbpsEncoded date : UTC 2011-04-25 04:37:45Writing application : mkvmerge v4.6.0 ('Still Crazy After All These Years') built on Mar 10 2011 02:50:32Writing library : libebml v1.2.0 + libmatroska v1.1.0Video #1ID : 1Format : AVCFormat/Info : Advanced Video CodecFormat profile : [email protected] settings, CABAC : YesFormat settings, ReFrames : 12 framesCodec ID : V_MPEG4/ISO/AVCDuration : 1h 34mnBit rate : 5 768 KbpsWidth : 1 280 pixelsHeight : 544 pixelsDisplay aspect ratio : 2.35:1Frame rate mode : ConstantFrame rate : 24.000 fpsColor space : YUVChroma subsampling : 4:2:0Bit depth : 8 bitsScan type : ProgressiveBits/(Pixel*Frame) : 0.345Stream size : 3.65 GiB (60%)Title : Wasabi.2001.BluRay.720p.AC3.x264-CHDWriting library : x264 core 114 r1900 60ef1f8Encoding settings : cabac=1 / ref=12 / deblock=1:-3:-3 / analyse=0x3:0x113 / me=umh / subme=9 / psy=1 / psy_rd=1.10:0.15 / mixed_ref=1 / me_range=32 / chroma_me=1 / trellis=2 / 8x8dct=1 / cqm=2 / deadzone=21,11 / fast_pskip=0 / chroma_qp_offset=-2 / threads=12 / sliced_threads=0 / nr=0 / decimate=1 / interlaced=0 / constrained_intra=0 / bframes=6 / b_pyramid=2 / b_adapt=2 / b_bias=0 / direct=3 / weightb=1 / open_gop=0 / weightp=2 / keyint=250 / keyint_min=24 / scenecut=40 / intra_refresh=0 / rc_lookahead=60 / rc=2pass / mbtree=1 / bitrate=5768 / ratetol=1.0 / qcomp=0.60 / qpmin=1 / qpmax=63 / qpstep=4 / cplxblur=20.0 / qblur=0.5 / vbv_maxrate=40000 / vbv_bufsize=30000 / nal_hrd=none / ip_ratio=1.40 / aq=1:0.80Language : FrenchDefault : YesForced : NoAudio #2ID : 2Format : AC-3Format/Info : Audio Coding 3Mode extension : CM (complete main)Format settings, Endianness : BigCodec ID : A_AC3Duration : 1h 34mnBit rate mode : ConstantBit rate : 448 KbpsChannel(s) : 6 channelsChannel positions : Front: L C R, Side: L R, LFESampling rate : 48.0 KHzBit depth : 16 bitsCompression mode : LossyStream size : 302 MiB (5%)Title : Дубляж R5, Союз-Видео @ AC3 5.1 448kbpsLanguage : RussianDefault : YesForced : NoAudio #3ID : 3Format : AC-3Format/Info : Audio Coding 3Mode extension : CM (complete main)Format settings, Endianness : BigCodec ID : A_AC3Duration : 1h 34mnBit rate mode : ConstantBit rate : 448 KbpsChannel(s) : 6 channelsChannel positions : Front: L C R, Side: L R, LFESampling rate : 48.0 KHzBit depth : 16 bitsCompression mode : LossyStream size : 302 MiB (5%)Title : MVO R5, CP-Digital @ AC3 5.1 448kbpsLanguage : RussianDefault : NoForced : NoAudio #4ID : 4Format : AC-3Format/Info : Audio Coding 3Mode extension : CM (complete main)Format settings, Endianness : BigCodec ID : A_AC3Duration : 1h 34mnBit rate mode : ConstantBit rate : 384 KbpsChannel(s) : 6 channelsChannel positions : Front: L C R, Side: L R, LFESampling rate : 48.0 KHzBit depth : 16 bitsCompression mode : LossyStream size : 258 MiB (4%)Title : MVO LDV @ AC3 5.1 384kbpsLanguage : RussianDefault : NoForced : NoAudio #5ID : 5Format : AC-3Format/Info : Audio Coding 3Mode extension : CM (complete main)Format settings, Endianness : BigCodec ID : A_AC3Duration : 1h 34mnBit rate mode : ConstantBit rate : 384 KbpsChannel(s) : 6 channelsChannel positions : Front: L C R, Side: L R, LFESampling rate : 48.0 KHzBit depth : 16 bitsCompression mode : LossyStream size : 258 MiB (4%)Title : MVO Домашнее видео @ AC3 5.1 384kbpsLanguage : RussianDefault : NoForced : NoAudio #6ID : 6Format : AC-3Format/Info : Audio Coding 3Mode extension : CM (complete main)Format settings, Endianness : BigCodec ID : A_AC3Duration : 1h 34mnBit rate mode : ConstantBit rate : 448 KbpsChannel(s) : 6 channelsChannel positions : Front: L C R, Side: L R, LFESampling rate : 48.0 KHzBit depth : 16 bitsCompression mode : LossyStream size : 302 MiB (5%)Title : DVO, Гланц и Королёва @ AC3 5.1 448kbpsLanguage : RussianDefault : NoForced : NoAudio #7ID : 7Format : AC-3Format/Info : Audio Coding 3Mode extension : CM (complete main)Format settings, Endianness : BigCodec ID : A_AC3Duration : 1h 34mnBit rate mode : ConstantBit rate : 192 KbpsChannel(s) : 2 channelsChannel positions : Front: L RSampling rate : 48.0 KHzBit depth : 16 bitsCompression mode : LossyStream size : 129 MiB (2%)Title : MVO, НТВ @ AC3 2.0 192kbpsLanguage : RussianDefault : NoForced : NoAudio #8ID : 8Format : AC-3Format/Info : Audio Coding 3Mode extension : CM (complete main)Format settings, Endianness : BigCodec ID : A_AC3Duration : 1h 34mnBit rate mode : ConstantBit rate : 192 KbpsChannel(s) : 2 channelsChannel positions : Front: L RSampling rate : 48.0 KHzBit depth : 16 bitsCompression mode : LossyStream size : 129 MiB (2%)Title : MVO, РТР @ AC3 2.0 192kbpsLanguage : RussianDefault : NoForced : NoAudio #9ID : 9Format : AC-3Format/Info : Audio Coding 3Mode extension : CM (complete main)Format settings, Endianness : BigCodec ID : A_AC3Duration : 1h 34mnBit rate mode : ConstantBit rate : 192 KbpsChannel(s) : 2 channelsChannel positions : Front: L RSampling rate : 48.0 KHzBit depth : 16 bitsCompression mode : LossyStream size : 129 MiB (2%)Title : AVO, Володарский @ AC3 2.0 192kbpsLanguage : RussianDefault : NoForced : NoAudio #10ID : 10Format : AC-3Format/Info : Audio Coding 3Mode extension : CM (complete main)Format settings, Endianness : BigCodec ID : A_AC3Duration : 1h 34mnBit rate mode : ConstantBit rate : 192 KbpsChannel(s) : 2 channelsChannel positions : Front: L RSampling rate : 48.0 KHzBit depth : 16 bitsCompression mode : LossyStream size : 129 MiB (2%)Title : AVO, Векшин @ AC3 2.0 192kbpsLanguage : RussianDefault : NoForced : NoAudio #11ID : 11Format : AC-3Format/Info : Audio Coding 3Mode extension : CM (complete main)Format settings, Endianness : BigCodec ID : A_AC3Duration : 1h 34mnBit rate mode : ConstantBit rate : 192 KbpsChannel(s) : 2 channelsChannel positions : Front: L RSampling rate : 48.0 KHzBit depth : 16 bitsCompression mode : LossyStream size : 129 MiB (2%)Title : AVO, Гранкин @ AC3 2.0 192kbpsLanguage : RussianDefault : NoForced : NoAudio #12ID : 12Format : AC-3Format/Info : Audio Coding 3Mode extension : CM (complete main)Format settings, Endianness : BigCodec ID : A_AC3Duration : 1h 34mnBit rate mode : ConstantBit rate : 448 KbpsChannel(s) : 6 channelsChannel positions : Front: L C R, Side: L R, LFESampling rate : 48.0 KHzBit depth : 16 bitsCompression mode : LossyStream size : 302 MiB (5%)Title : Original @ AC3 5.1 448kbpsLanguage : FrenchDefault : NoForced : NoText #13ID : 13Format : UTF-8Codec ID : S_TEXT/UTF8Codec ID/Info : UTF-8 Plain TextTitle : R5 @ SRTLanguage : RussianDefault : NoForced : NoText #14ID : 14Format : UTF-8Codec ID : S_TEXT/UTF8Codec ID/Info : UTF-8 Plain TextTitle : Flexor @ SRTLanguage : RussianDefault : NoForced : NoText #15ID : 15Format : UTF-8Codec ID : S_TEXT/UTF8Codec ID/Info : UTF-8 Plain TextTitle : Eng @ SRTLanguage : EnglishDefault : NoForced : NoText #16ID : 16Format : UTF-8Codec ID : S_TEXT/UTF8Codec ID/Info : UTF-8 Plain TextTitle : Fre @ SRTLanguage : FrenchDefault : NoForced : NoMenu00:00:00.000 : en:Start00:03:13.625 : en:The Chief's Son00:05:59.499 : en:Tranny Interview00:07:40.749 : en:Banque de L'Etoile Robbery00:10:02.666 : en:Two Month Suspension00:12:31.332 : en:Dinner With Sofia00:16:18.748 : en:"My Name Is Hishibashi"00:18:39.415 : en:Welcome to Japan00:20:15.956 : en:Momo00:24:35.039 : en:Sole Legatee00:29:12.372 : en:Yumi00:32:58.789 : en:The Crematorium00:39:20.871 : en:Miko's File00:42:52.704 : en:Yumi's Inheritance00:46:28.246 : en:Red Alert00:47:21.745 : en:Goons With Shades00:51:42.912 : en:Arms & Fashion Show00:55:16.078 : en:The Nightclub00:58:31.369 : en:Yakuza Shootout01:03:49.827 : en:Names & Numbers01:05:21.702 : en:Like Tigers & Wolves01:08:34.910 : en:Takanawa aka the Zebra01:12:13.243 : en:King of Clubs01:13:52.785 : en:Wasabi01:16:56.159 : en:Message in Kyoto01:19:03.742 : en:Making a Withdrawal01:23:04.950 : en:The Account Is Closed01:25:21.158 : en:Farewells

Васаби скачать торрент

Скачать Васаби через торрент http://pic.pb.wtf/images/3/tbvldpqf9u.png Скачать фильм Васаби через торрент бесплантно в хорошем качестве В ролях: Жан Рено, Риоко Хиросуэ, Мишель Мюллер, Кароль Буке, Йоши Оида, Кристиан Синниже, Александр Брик, Жан-Марк Монтальто, Вероник ... 2013-08-21 12:46 9.9 10 11

Loading...

Loading...

Рекламный пират

Дорогой пользователь! Огромная просьба, поблагодарите релизера, оцените раздачу и оставьте свои комментарий, если Вы скачали Васаби через торрент бесплатно! Внесите свою лепту в развитие PiratBit!

Комментировать посты могут только пользователи прошедшие не сложную регистрацию

Васаби через торрент Скачать бесплатно Васаби Васаби скачать торрент Васаби смотреть онлайн Cкачать фильм Васаби бесплатно Васаби скачать торрент в хорошем качестве Васаби смотреть онлайн бесплатно в хорошем качестве

Вы не можете начинать темыВы не можете отвечать на сообщенияВы не можете редактировать свои сообщенияВы не можете удалять свои сообщенияВы не можете голосовать в опросахВы не можете прикреплять файлы к сообщениямВы можете скачивать файлы

piratbit.ru

/ Wasabi ( / Gerard Krawczyk) [2001 ., , BDRip 1080p]

General Complete name : Wasabi.2001.BluRay.1080p.AC3.10xRus.Eng.Sub.x264.mkv Format : Matroska File size : 10.8 GiB Duration : 1h 34mn Overall bit rate : 16.5 Mbps Encoded date : UTC 2011-04-25 04:59:39 Writing application : mkvmerge v4.6.0 ('Still Crazy After All These Years') built on Mar 10 2011 02:50:32 Writing library : libebml v1.2.0 + libmatroska v1.1.0

Video

ID : 1 Format : AVC Format/Info : Advanced Video Codec Format profile : [email protected] Format settings, CABAC : Yes Format settings, ReFrames : 5 frames Codec ID : V_MPEG4/ISO/AVC Duration : 1h 34mn Bit rate : 13.0 Mbps Width : 1 916 pixels Height : 816 pixels Display aspect ratio : 2.35:1 Frame rate : 24.000 fps Color space : YUV Chroma subsampling : 4:2:0 Bit depth : 8 bits Scan type : Progressive Bits/(Pixel*Frame) : 0.346 Stream size : 8.29 GiB (77%) Title : Wasabi.2001.BluRay.1080p.AC3.x264-CRiSC Writing library : x264 core 114 r1913 5fd3dce Encoding settings : cabac=1 / ref=5 / deblock=1:-3:-3 / analyse=0x3:0x133 / me=umh / subme=10 / psy=1 / psy_rd=1.00:0.05 / mixed_ref=1 / me_range=64 / chroma_me=1 / trellis=2 / 8x8dct=1 / cqm=0 / deadzone=21,11 / fast_pskip=0 / chroma_qp_offset=-3 / threads=12 / sliced_threads=0 / nr=0 / decimate=0 / interlaced=0 / constrained_intra=0 / bframes=8 / b_pyramid=2 / b_adapt=2 / b_bias=0 / direct=3 / weightb=1 / open_gop=0 / weightp=2 / keyint=250 / keyint_min=24 / scenecut=40 / intra_refresh=0 / rc_lookahead=40 / rc=2pass / mbtree=0 / bitrate=13000 / ratetol=1.0 / qcomp=0.60 / qpmin=0 / qpmax=69 / qpstep=4 / cplxblur=20.0 / qblur=0.5 / vbv_maxrate=50000 / vbv_bufsize=62500 / nal_hrd=none / ip_ratio=1.40 / pb_ratio=1.30 / aq=1:0.80 Language : French Color primaries : BT.709-5, BT.1361, IEC 61966-2-4, SMPTE RP177 Transfer characteristics : BT.709-5, BT.1361 Matrix coefficients : BT.709-5, BT.1361, IEC 61966-2-4 709, SMPTE RP177

Audio #1

ID : 2 Format : AC-3 Format/Info : Audio Coding 3 Mode extension : CM (complete main) Codec ID : A_AC3 Duration : 1h 34mn Bit rate mode : Constant Bit rate : 448 Kbps Channel(s) : 6 channels Channel positions : Front: L C R, Side: L R, LFE Sampling rate : 48.0 KHz Bit depth : 16 bits Compression mode : Lossy Stream size : 302 MiB (3%) Title : R5, - @ AC3 5.1 448kbps Language : Russian

Audio #2

ID : 3 Format : AC-3 Format/Info : Audio Coding 3 Mode extension : CM (complete main) Codec ID : A_AC3 Duration : 1h 34mn Bit rate mode : Constant Bit rate : 448 Kbps Channel(s) : 6 channels Channel positions : Front: L C R, Side: L R, LFE Sampling rate : 48.0 KHz Bit depth : 16 bits Compression mode : Lossy Stream size : 302 MiB (3%) Title : MVO R5, CP-Digital @ AC3 5.1 448kbps Language : Russian

Audio #3

ID : 4 Format : AC-3 Format/Info : Audio Coding 3 Mode extension : CM (complete main) Codec ID : A_AC3 Duration : 1h 34mn Bit rate mode : Constant Bit rate : 384 Kbps Channel(s) : 6 channels Channel positions : Front: L C R, Side: L R, LFE Sampling rate : 48.0 KHz Bit depth : 16 bits Compression mode : Lossy Stream size : 258 MiB (2%) Title : MVO LDV @ AC3 5.1 384kbps Language : Russian

Audio #4

ID : 5 Format : AC-3 Format/Info : Audio Coding 3 Mode extension : CM (complete main) Codec ID : A_AC3 Duration : 1h 34mn Bit rate mode : Constant Bit rate : 384 Kbps Channel(s) : 6 channels Channel positions : Front: L C R, Side: L R, LFE Sampling rate : 48.0 KHz Bit depth : 16 bits Compression mode : Lossy Stream size : 258 MiB (2%) Title : MVO @ AC3 5.1 384kbps Language : Russian

Audio #5

ID : 6 Format : AC-3 Format/Info : Audio Coding 3 Mode extension : CM (complete main) Codec ID : A_AC3 Duration : 1h 34mn Bit rate mode : Constant Bit rate : 448 Kbps Channel(s) : 6 channels Channel positions : Front: L C R, Side: L R, LFE Sampling rate : 48.0 KHz Bit depth : 16 bits Compression mode : Lossy Stream size : 302 MiB (3%) Title : DVO, @ AC3 5.1 448kbps Language : Russian

Audio #6

ID : 7 Format : AC-3 Format/Info : Audio Coding 3 Mode extension : CM (complete main) Codec ID : A_AC3 Duration : 1h 34mn Bit rate mode : Constant Bit rate : 192 Kbps Channel(s) : 2 channels Channel positions : Front: L R Sampling rate : 48.0 KHz Bit depth : 16 bits Compression mode : Lossy Stream size : 129 MiB (1%) Title : MVO, @ AC3 2.0 192kbps Language : Russian

Audio #7

ID : 8 Format : AC-3 Format/Info : Audio Coding 3 Mode extension : CM (complete main) Codec ID : A_AC3 Duration : 1h 34mn Bit rate mode : Constant Bit rate : 192 Kbps Channel(s) : 2 channels Channel positions : Front: L R Sampling rate : 48.0 KHz Bit depth : 16 bits Compression mode : Lossy Stream size : 129 MiB (1%) Title : MVO, @ AC3 2.0 192kbps Language : Russian

Audio #8

ID : 9 Format : AC-3 Format/Info : Audio Coding 3 Mode extension : CM (complete main) Codec ID : A_AC3 Duration : 1h 34mn Bit rate mode : Constant Bit rate : 192 Kbps Channel(s) : 2 channels Channel positions : Front: L R Sampling rate : 48.0 KHz Bit depth : 16 bits Compression mode : Lossy Stream size : 129 MiB (1%) Title : AVO, @ AC3 2.0 192kbps Language : Russian

Audio #9

ID : 10 Format : AC-3 Format/Info : Audio Coding 3 Mode extension : CM (complete main) Codec ID : A_AC3 Duration : 1h 34mn Bit rate mode : Constant Bit rate : 192 Kbps Channel(s) : 2 channels Channel positions : Front: L R Sampling rate : 48.0 KHz Bit depth : 16 bits Compression mode : Lossy Stream size : 129 MiB (1%) Title : AVO, @ AC3 2.0 192kbps Language : Russian

Audio #10

ID : 11 Format : AC-3 Format/Info : Audio Coding 3 Mode extension : CM (complete main) Codec ID : A_AC3 Duration : 1h 34mn Bit rate mode : Constant Bit rate : 192 Kbps Channel(s) : 2 channels Channel positions : Front: L R Sampling rate : 48.0 KHz Bit depth : 16 bits Compression mode : Lossy Stream size : 129 MiB (1%) Title : AVO, @ AC3 2.0 192kbps Language : Russian

Audio #11

ID : 12 Format : AC-3 Format/Info : Audio Coding 3 Mode extension : CM (complete main) Codec ID : A_AC3 Duration : 1h 34mn Bit rate mode : Constant Bit rate : 448 Kbps Channel(s) : 6 channels Channel positions : Front: L C R, Side: L R, LFE Sampling rate : 48.0 KHz Bit depth : 16 bits Compression mode : Lossy Stream size : 302 MiB (3%) Title : Original @ AC3 5.1 448kbps Language : French

Text #1

ID : 13 Format : UTF-8 Codec ID : S_TEXT/UTF8 Codec ID/Info : UTF-8 Plain Text Title : R5 @ SRT Language : Russian

Text #2

ID : 14 Format : UTF-8 Codec ID : S_TEXT/UTF8 Codec ID/Info : UTF-8 Plain Text Title : Flexor @ SRT Language : Russian

Text #3

ID : 15 Format : UTF-8 Codec ID : S_TEXT/UTF8 Codec ID/Info : UTF-8 Plain Text Title : Eng @ SRT Language : English

Text #4

ID : 16 Format : UTF-8 Codec ID : S_TEXT/UTF8 Codec ID/Info : UTF-8 Plain Text Title : Fre @ SRT Language : French

Menu

00:00:00.000 : en:Start 00:03:13.625 : en:The Chief's Son 00:05:59.499 : en:Tranny Interview 00:07:40.749 : en:Banque de L'Etoile Robbery 00:10:02.666 : en:Two Month Suspension 00:12:31.332 : en:Dinner With Sofia 00:16:18.748 : en:"My Name Is Hishibashi" 00:18:39.415 : en:Welcome to Japan 00:20:15.956 : en:Momo 00:24:35.039 : en:Sole Legatee 00:29:12.372 : en:Yumi 00:32:58.789 : en:The Crematorium 00:39:20.871 : en:Miko's File 00:42:52.704 : en:Yumi's Inheritance 00:46:28.246 : en:Red Alert 00:47:21.745 : en:Goons With Shades 00:51:42.912 : en:Arms & Fashion Show 00:55:16.078 : en:The Nightclub 00:58:31.369 : en:Yakuza Shootout 01:03:49.827 : en:Names & Numbers 01:05:21.702 : en:Like Tigers & Wolves 01:08:34.910 : en:Takanawa aka the Zebra 01:12:13.243 : en:King of Clubs 01:13:52.785 : en:Wasabi 01:16:56.159 : en:Message in Kyoto 01:19:03.742 : en:Making a Withdrawal 01:23:04.950 : en:The Account Is Closed 01:25:21.158 : en:Farewells

unionpeer.com


Смотрите также