Аватар 2009 скачать торрент 1080 hd


rutor.org :: Аватар / Avatar (2009) BDRip 1080p от R.G. HD-Films | 60 fps

General Unique ID : 232082746416944206371223736953165897084 (0xAE9982D6CB5CE5BDA0A626B4BB40DD7C) Complete name : A:1080p 60fpsАватар 1080p 60fps.mkv Format : Matroska Format version : Version 4 / Version 2 File size : 23.3 GiB Duration : 2h 58mn Overall bit rate : 18.7 Mbps Encoded date : UTC 2014-09-12 13:26:10 Writing application : mkvmerge v6.9.1 ('Blue Panther') 64bit built on Apr 18 2014 18:23:38 Writing library : libebml v1.3.0 + libmatroska v1.4.1 Attachment : Yes / Yes

Video ID : 1 Format : AVC Format/Info : Advanced Video Codec Format profile : [email protected] Format settings, CABAC : Yes Format settings, ReFrames : 4 frames Codec ID : V_MPEG4/ISO/AVC Duration : 2h 58mn Bit rate : 16.3 Mbps Width : 1 920 pixels Height : 1 080 pixels Display aspect ratio : 16:9 Frame rate : 59.940 fps Color space : YUV Chroma subsampling : 4:2:0 Bit depth : 8 bits Scan type : Progressive Bits/(Pixel*Frame) : 0.131 Stream size : 20.3 GiB (87%) Writing library : x264 core 133 r2334 a3ac64b Encoding settings : cabac=1 / ref=4 / deblock=1:-1:-1 / analyse=0x3:0 / me=umh / subme=9 / psy=1 / psy_rd=1.00:0.10 / mixed_ref=1 / me_range=42 / chroma_me=0 / trellis=2 / 8x8dct=1 / cqm=0 / deadzone=21,11 / fast_pskip=0 / chroma_qp_offset=-3 / threads=12 / lookahead_threads=1 / sliced_threads=0 / nr=0 / decimate=0 / interlaced=0 / bluray_compat=0 / constrained_intra=0 / bframes=5 / b_pyramid=2 / b_adapt=2 / b_bias=0 / direct=1 / weightb=1 / open_gop=0 / weightp=2 / keyint=594 / keyint_min=59 / scenecut=40 / intra_refresh=0 / rc=crf / mbtree=0 / crf=16.0 / qcomp=0.60 / qpmin=0 / qpmax=69 / qpstep=4 / ip_ratio=1.40 / pb_ratio=1.30 / aq=0 Language : English Default : Yes Forced : No

Audio #1 ID : 2 Format : AC-3 Format/Info : Audio Coding 3 Mode extension : CM (complete main) Codec ID : A_AC3 Duration : 2h 58mn Bit rate mode : Constant Bit rate : 640 Kbps Channel(s) : 6 channels Channel positions : Front: L C R, Side: L R, LFE Sampling rate : 48.0 KHz Bit depth : 16 bits Compression mode : Lossy Stream size : 816 MiB (3%) Title : Дубляж Language : Russian Default : Yes Forced : No

Audio #2 ID : 3 Format : AC-3 Format/Info : Audio Coding 3 Mode extension : CM (complete main) Codec ID : A_AC3 Duration : 2h 58mn Bit rate mode : Constant Bit rate : 640 Kbps Channel(s) : 6 channels Channel positions : Front: L C R, Side: L R, LFE Sampling rate : 48.0 KHz Bit depth : 16 bits Compression mode : Lossy Stream size : 816 MiB (3%) Title : Оригинал Language : English Default : No Forced : No

Audio #3 ID : 4 Format : DTS Format/Info : Digital Theater Systems Codec ID : A_DTS Duration : 2h 58mn Bit rate mode : Constant Bit rate : 755 Kbps Channel(s) : 6 channels Channel positions : Front: L C R, Side: L R, LFE Sampling rate : 48.0 KHz Bit depth : 24 bits Compression mode : Lossy Stream size : 961 MiB (4%) Title : Дубляж Language : Russian Default : No Forced : No

Text #1 ID : 5 Format : ASS Codec ID : S_TEXT/ASS Codec ID/Info : Advanced Sub Station Alpha Compression mode : Lossless Title : Форсированные Language : Russian Default : Yes Forced : No

Text #2 ID : 6 Format : ASS Codec ID : S_TEXT/ASS Codec ID/Info : Advanced Sub Station Alpha Compression mode : Lossless Title : Полные Language : Russian Default : No Forced : No

Text #3 ID : 7 Format : ASS Codec ID : S_TEXT/ASS Codec ID/Info : Advanced Sub Station Alpha Compression mode : Lossless Title : Форсированные Language : English Default : No Forced : No

Text #4 ID : 8 Format : ASS Codec ID : S_TEXT/ASS Codec ID/Info : Advanced Sub Station Alpha Compression mode : Lossless Title : Полные Language : English Default : No Forced : No

Menu 00:00:00.000 : en:Lost Soul 00:05:25.575 : en:A New World 00:10:12.278 : en:You Are Not In Kansas Anymore 00:11:47.915 : en:"This Is Your Avatar Now, Jake ." 00:15:59.208 : en:"This Is Why We're Here..." 00:17:54.782 : en:First Awakening 00:23:54.891 : en:Colonel Quaritch 00:27:54.547 : en:First Sortie 00:30:27.617 : en:Abandoned Schoolhouse 00:32:27.904 : en:Thanator Chase 00:37:16.525 : en:A Sign 00:39:08.053 : en:Viperwolves 00:41:18.475 : en:Neytiri 00:49:16.912 : en:The Omaticaya Clan 00:55:42.213 : en:Cover Report 01:01:09.415 : en:The Hallelujah Mountains 01:07:03.227 : en:Learn Fast Or Die 01:11:50.222 : en:A Mother's Pain 01:15:53.799 : en:Banshee Rookery 01:22:38.119 : en:First Flight 01:26:12.709 : en:Clan Hunt 01:27:42.298 : en:Last Shadow 01:33:00.407 : en:A Son Of the Omaticaya 01:37:36.892 : en:Willow Glade Destruction 01:44:15.290 : en:Conflict Escalation 01:50:02.595 : en:"You Will Never Be One Of The People!" 01:51:53.581 : en:Assault On Hometree 01:58:30.895 : en:Aftermath 02:02:13.284 : en:Escape From Hell's Gate 02:07:51.663 : en:There's Something We Gotta Do..." 02:09:30.554 : en:Toruk Macto 02:12:36.615 : en:"She's Real" 02:16:03.363 : en:Recruiting The Clans 02:19:31.654 : en:Preamble To Battle 02:23:59.630 : en:Battle For Pandora 02:30:05.079 : en:Fall Of The Heroes 02:33:56.852 : en:Eywa 02:40:02.259 : en:Quartich Fight 02:45:33.214 : en:"I See You" 02:46:48.498 : en:My Brother 02:48:56.793 : en:Transformation 02:51:32.073 : en:End Credits

main-rutor.org

rutor.org :: Аватар / Avatar (2009) BDRip 720p от Leonardo and Scarabey

Аватар / Avatar

Страна: США, ВеликобританияГод выпуска: 2009Жанр: фантастика, боевик, драма, приключенияПродолжительность: 02:58:09Перевод: Профессиональный (полное дублирование) Лицензия

Режиссер: Джеймс Кэмерон / James Cameron

Актеры: Сэм Уортингтон, Зои Салдана, Сигурни Уивер, Стивен Лэнг, Мишель Родригес, Джованни Рибизи, Джоэль Мур, Си Си Эйч Паундер, Уэс Стьюди, Лас Алонсо

Описание фильма: Джейк Салли — бывший морской пехотинец, прикованный к инвалидному креслу. Несмотря на немощное тело, Джейк в душе по-прежнему остается воином. Он получает задание совершить путешествие в несколько световых лет к базе землян на планете Пандора, где корпорации добывают редкий минерал, имеющий огромное значение для выхода Земли из энергетического кризиса.

ФайлКачество видео: BDRip 720p Исходник: Blu-rayФормат: MKV Видео кодек: MPEG-4 AVC Аудио кодек: AC3Видео: AVC, 1280x720 (16:9) at 23.976 fps, AVC at 4958 kbps avg, 0.224 bit/pixelАудио: Russian: 48 kHz; AC3 5.1; 448.00 kbps avg; профессиональный, полное дублированиеСубтитры: Русские, английскиеНавигация по главам: Есть

Автор рипа:

Релиз от:

АНОНСЫ МОИХ РАЗДАЧ!

MediaInfo

* * * MediaInfo Mac 0.7.33.4 file analysis report. * * * MediaInfo Mac is ©2010 by Diego Massanti - http://mediainfo.massanti.com * * * MediaInfoLib by Jerome Martinez - http://mediainfo.sourceforge.net Created on: 17.07.2014 16:20:17 Московское летнее время Report for file: Avatar.2009.720p.BluRay.x264-LEONARDO_[scarabey.org].mkv

General / Container Stream #1 Total Video Streams for this File.................1 Total Audio Streams for this File.................1 Total Subtitle Streams for this File..............8 Video Codecs Used.................................AVC Audio Codecs Used.................................AC3 SubTitle Codecs Used..............................UTF-8 / UTF-8 / UTF-8 / UTF-8 / UTF-8 / UTF-8 / UTF-8 / UTF-8 Available Sutbitle Languages......................Russian / Russian / Russian / Russian / Russian / / / File Format.......................................Matroska Play Time.........................................2h 58mn Total File Size...................................6.86 GiB Total Stream BitRate..............................5 516 Kbps Title (Tag).......................................-=LEONARDO=- Encoded with......................................mkvmerge v5.0.1 ('Es ist Sommer') built on Oct 23 2011 00:46:40 Encoding Library..................................libebml v1.2.2 + libmatroska v1.3.0 Video Stream #1 Codec (Human Name)................................AVC Codec (FourCC)....................................V_MPEG4/ISO/AVC Codec [email protected] Frame Width.......................................1 280 pixels Frame Height......................................720 pixels Frame Rate........................................23.976 fps Total Frames......................................256290 Display Aspect Ratio..............................16:9 Scan Type.........................................Progressive Color Space.......................................YUV Codec Settings (Summary)..........................CABAC / 9 Ref Frames QF (like Gordian Knot)............................0.224 Codec Settings (CABAC)............................Yes Codec Settings (Reference Frames).................9 Video Stream Length...............................2h 58mn 9s 439ms Video Stream BitRate..............................4 958 Kbps Bit Depth.........................................8 bits Video Stream Size.................................6.17 GiB (90%) Video Encoder.....................................x264 - core 125 r2208 d9d2288 Video Encoder (Settings)..........................cabac=1 / ref=9 / deblock=1:-3:-3 / analyse=0x3:0x133 / me=tesa / subme=11 / psy=1 / psy_rd=1.00:0.20 / mixed_ref=1 / me_range=32 / chroma_me=1 / trellis=2 / 8x8dct=1 / cqm=0 / deadzone=21,11 / fast_pskip=0 / chroma_qp_offset=-3 / threads=12 / lookahead_threads=2 / sliced_threads=0 / nr=0 / decimate=1 / interlaced=0 / bluray_compat=0 / constrained_intra=0 / bframes=12 / b_pyramid=2 / b_adapt=2 / b_bias=0 / direct=1 / weightb=1 / open_gop=0 / weightp=2 / keyint=250 / keyint_min=23 / scenecut=40 / intra_refresh=0 / rc=crf / mbtree=0 / crf=20.0 / qcomp=0.60 / qpmin=0 / qpmax=69 / qpstep=4 / ip_ratio=1.10 / pb_ratio=1.10 / aq=1:1.00 Audio Stream #1 Codec.............................................AC-3 Codec (FourCC)....................................A_AC3 Audio Stream Length...............................2h 58mn 9s 440ms Audio Stream BitRate..............................448 Kbps Audio Stream BitRate Mode.........................CBR Number of Audio Channels..........................6 Audio Channel's Positions.........................Front: L C R, Side: L R, LFE Sampling Rate.....................................48.0 KHz Audio Stream Size.................................571 MiB (8%) Audio Stream Language.............................Russian Subtitle Stream #1 Language..........................................Russian Format............................................UTF-8 Codec ID..........................................S_TEXT/UTF8 Codec Info........................................UTF-8 Plain Text Subtitle Stream #2 Language..........................................Russian Format............................................UTF-8 Codec ID..........................................S_TEXT/UTF8 Codec Info........................................UTF-8 Plain Text Subtitle Stream #3 Language..........................................Russian Format............................................UTF-8 Codec ID..........................................S_TEXT/UTF8 Codec Info........................................UTF-8 Plain Text Subtitle Stream #4 Language..........................................Russian Format............................................UTF-8 Codec ID..........................................S_TEXT/UTF8 Codec Info........................................UTF-8 Plain Text Subtitle Stream #5 Language..........................................Russian Format............................................UTF-8 Codec ID..........................................S_TEXT/UTF8 Codec Info........................................UTF-8 Plain Text Subtitle Stream #6 Format............................................UTF-8 Codec ID..........................................S_TEXT/UTF8 Codec Info........................................UTF-8 Plain Text Subtitle Stream #7 Format............................................UTF-8 Codec ID..........................................S_TEXT/UTF8 Codec Info........................................UTF-8 Plain Text Subtitle Stream #8 Format............................................UTF-8 Codec ID..........................................S_TEXT/UTF8 Codec Info........................................UTF-8 Plain Text Menu / Chapters Stream #1

main-rutor.org

rutor.org :: Аватар / Avatar (2009) BDRip (1080p)

gex4u 29-06-2014 22:23:24 (1 месяц назад) Оценил на: 10 На днях купил 3D телек - этот фильм лучшее, что можно на нем посмотреть. 3Д от 1 до последнего кадра, плюс сюжет, звук, качество рипа, в кино - хуже. Рекомендую для первого знакомства с 3д - лучше чем в кино. Спасибо за раздачу! Kolun1985 14-06-2014 2:08:28 (2 месяца назад) Оценил на: 10 Фантастика с большой буквы!Ничего более эпического я в жизни не видел!!! SergAS70 14-03-2013 21:04:28 (17 месяцев назад) ЦитатаКто-то писал:rjntio Спс. LG LM761T Cinema 3D прекрасно. для такого экрана этого маловато. Качай в 18гб и желательно расширенную. Правда здесь нет такой, я лично качал с известного трекера. rjntio 03-03-2013 10:41:48 (17 месяцев назад) Оценил на: 10 Спс. LG LM761T Cinema 3D прекрасно. alik12 20-02-2013 17:47:36 (18 месяцев назад) Оценил на: 10  Chubik 19-01-2013 21:52:09 (19 месяцев назад) Оценил на: 10 То что искал. Раздача очень хорошая! Релизеру респект animen68 04-01-2013 13:10:01 (19 месяцев назад) Оценил на: 10 Огромное спасибо за раздачу!!! Jozzi 12-12-2012 22:29:44 (20 месяцев назад) Оценил на: 10

Посмотрел...Ухи поел... Раньше Аватар не воспринимал, теперь мнение изменилось! 10+

 vyacheslav-54 29-09-2012 21:17:02 (22 месяца назад) Оценил на: 10 Купил 3Д-телик,Ваш рип смотрел первым,полностью солидарен с pesok74!  subsvin2 27-07-2012 0:31:26 (25 месяцев назад) Субтитры: Русские (полные (2 вида), форсированные (3 вида)), Украинские (полные, форсированные), Английские (полные, форсированные).

Список представленных субтитров:Avatar.2009.Eng.srt Avatar.2009.Eng.For.srt Avatar.2009.Rus.srt Avatar.2009.Rus.For.Mag.ass Avatar.2009.Rus.For.Mag.srt Avatar.2009.Rus.For.Mag.sub Avatar.2009.Rus.Voronine.srt Avatar.2009.Ukr.srt Avatar.2009.Ukr.For.srt

 vova67 06-06-2012 11:51:18 (26 месяцев назад) смотрел этот фильм в кино,но в стерео паре на много круче!!!!!качество супер Ramiz28 22-05-2012 12:21:31 (27 месяцев назад) Оценил на: 10 качества супер. marc2227 17-12-2011 5:03:11 (32 месяца назад) Оценил на: 10 Зравствуйте всем! Подскажите, пожалуйста , как и куда тыкать, чтобы выразить автору релиза благодарность? Я уже не один файл скачал на этом сайте, и доволен очень качеством и скоростью! Релизёру - превеликое NAUM IRAYO (на языке На'Ви), надеюсь, что на ЖК 200Hz FullHD с поддержкой 3D и активными очками я увижу ожидаемое))) Dars 15-09-2011 13:58:36 (35 месяцев назад) Нада админов попросить что бы ввели в разделе http://new-rutor.org/categories вкладку 3D фильм проше искать будет.

// 3D фильмы на трекере ищутся по абревиатуре 3D-Video //

 Lexus350 18-06-2011 2:21:03 (38 месяцев назад) Купил 3D телевизор, картинка супер, но титры на Нави что-то нет( Mike.Sarov 18-05-2011 17:30:25 (39 месяцев назад) Оценил на: 10 Да если знаете ещё такие раздачи для 3D теликов сообщите пожалуйста в личку!!Очень прошу!!! ) pesok74 23-12-2010 20:33:36 (44 месяца назад) Оценил на: 10 Автору огромное человеческое спасибо!Раздача просто бомбовая!Вчера купил плазму 3D 50дюймов и скачал твою раздачу смотрел прям со сьемного диска (2 раза подряд)и тихо ох--вал от всего увиденного.Еслибы утром не на работу то посмотрел бы и третий раз.Если есть что нибудь еще (с теми же параметрами )выложи и стукни в личку чтоб знать где искать.P.S.теперь ты мой друг! Morg13 20-11-2010 3:00:43 (45 месяцев назад) Оценил на: 4 А как этот фильм посмотреть на на очках от нвидии на компьютере ( 3d visio) alexsuhum 16-11-2010 20:12:39 (45 месяцев назад) Спасибо, Bublishek, точно стало уже не серое, а цветное. Но если честно цвета не совсем четкие, какое-то все как-будто мигает красно-голубым и на всех других 3D фильмах также(дети шпионов 3 например). Мне кажется это из-за цвета стекол очков, и этого не избежать. А вот когда попробовал посмотреть сэмпл методом свода глаз ( хотя это обо мне ничего не говорит :))))) ) то видно ОЧЕНЬ четко цвета и ОЧЕНЬ четко объем. Может через поляризационные очки цвет тоже не искажается?! Постскриптум: интересно а как в кинотеатре - также четко как методом свода глаз или не очень как методом анаглифа?! А то я ни разу в кино в 3D не ходил :( Bublishek 16-11-2010 1:42:47 (45 месяцев назад) alexsuhum поясняю...в стереоскопик плеере есть множество настоек,при просмотре 3D фильмов можно настроить плеер под себя...в плеере открой настройку Вид/метод просмотра/Анаглиф/Color Anaglyph Красно-голубой,,,и поверь после этого ты будешь видеть "цветной фильм"))) Но и не забывай кроме анаглифа ты можешь настраивать под любой метод просмотра...увидишь сам,так что - вперед!!!  alexsuhum 15-11-2010 23:33:21 (45 месяцев назад) Объясните пожалуста кто в этом разбирается: почему когда смотрешь через простой плеер - всё цветное, а через стереоскопик плер (при совмещении картинок) - все какое-то серое (красно-синее) даже через красно-синие очки (анаглиф или как их там)?! Может надо поляризационные очки(3D, но не красно-синие)? igor241182 15-11-2010 15:40:00 (45 месяцев назад) Ameno

А очки затворные ??? с ИК сигналом ?

 Ameno 14-11-2010 20:38:56 (45 месяцев назад) Оценил на: 10 igor241182 На 3D телеке это выглядит как два экрана, но при нажатие на пульте кнопочки 3D всё сливается и превращается в объёмную картинку в очках конечно. Проверил лично данный релиз. igor241182 14-11-2010 13:35:55 (45 месяцев назад) Bublishek - прости меня тупого конечно) я просто никак не возьму в толк...то есть он не должен раздваиваться на телике ровно на 2 экрана? на 3д телевизорах, при просмотре без очков не так выглядит?...Просто думаю, раз на обычном мониторе от компа можно смотреть такой фильм, просто скачав плеер из инета, то неужели нельзя что то придумать для ЖК фул эйч ди телека с медиаплеером, кроме анаглифа (((

Ещё раз простите за нубость )))

 Bublishek 14-11-2010 12:54:13 (45 месяцев назад) igor241182 Данный формат 3D на простом телевизоре не пойдёт - нет смысла качать его,качай анаглиф,удачи))) igor241182 14-11-2010 12:25:21 (45 месяцев назад) я скачал семпл! идет нормально, экран разделил на две части горизонтально, дублирует. без косяков!!! Телик Фудлл хд, но не 3д!!! имеет смысл покупать очки (горизонт стереопару) ???? Bublishek 14-11-2010 12:22:30 (45 месяцев назад) Оценил на: 10 Мой совет намного проще...я давно сморю фильмы в 3D на обычном мониторе!!!Скачал Stereoscopic Player,установил,настроил под данный формат фильма в плеере,,так как есть множество форматов 3D начиная анаглифа и заканчивая циркулярной поляризацией...и вперёд к просмотру!!! igor241182 14-11-2010 11:21:29 (45 месяцев назад) Оценил на: 10 Спасибо большое за ответ. То есть данную раздачу я без 3D телевизора ( которые от 50 000 р. и выше, с поддержкой зд) посмотреть не смогу, да? Даже если одену стереопару ? просто будет все двоиться?

Анаглиф скачал...в принципе все идет...местами даже есть эффект выхода за пределы экрана..НО..глаза устают сильно (((

 Tornado69 14-11-2010 2:44:33 (45 месяцев назад) igor241182, на простом телеке вы сможете смотреть только анаглиф. Если ваш плеер поддерживает матрёшку, то смело качайте анаглиф-раздачу которая тоже присутствует на трекере. igor241182 13-11-2010 16:14:59 (45 месяцев назад) скажите плиз, лучше анаглиф или горизонт.стерео ??? и ещё..смогу ли я анаглиф и стерео смотреть на бытовом медиаплееере Сиагейт с поддержкой фулл хд. ??? телик не зд, просто жк фулл хд. Tornado69 12-11-2010 23:33:10 (45 месяцев назад) Я не обижаюсь. Просто комп перегружен по работе. Раздачу залил как и обещал. Наслаждайтесь. SergNT 12-11-2010 22:49:08 (45 месяцев назад) chester-09 Да любым плейером. Я вот Media Player Classic юзаю из пакета K-Lite Codec Pack. Ну, и сами кодеки неплохо установить для начала...

Tornado69, да ты красавчик вообще! Не обижайся! Делай свои дела, пожалуйста, сколько надо! Я-ж тебя не подгоняю! Типа, напоминаю просто...

 chester-09 12-11-2010 22:37:47 (45 месяцев назад) подскажите через какую прогу можно на компе посмотреть? dude01 12-11-2010 22:28:57 (45 месяцев назад) eXpressionist есть плагин в КМплеере называется Anaglyph, квлючаешь его и там выбираешь какой тип преобразования сделать из стереоскопического... качать можно с сайта запости.ру весит 14 метров (плеер+плагин) с инструкцией. Tornado69 12-11-2010 22:12:36 (45 месяцев назад) Часа через полтора залью анаглиф. У меня тоже есть дела. eXpressionist 12-11-2010 21:52:42 (45 месяцев назад) Оценил на: 10 А задроты будут смотреть стереопару "наживую", методом скашивания глаз :))) SergNT 12-11-2010 21:18:20 (45 месяцев назад) Что-то 7 сидов никак не набираются! Зальёшь ночью анаглиф?  new-power 12-11-2010 20:31:24 (45 месяцев назад) и как это смотреть в очках? dude01 12-11-2010 20:17:45 (45 месяцев назад) каму больше КМ плеер нравится, могете скочать отсудова, внимание далее снизу ссылка...

Скрытый текст

Правила поведения в комментариях трекера и на форуме, п.1 Желаете поделиться - заливайте на трекер  pavlo12 12-11-2010 19:29:16 (45 месяцев назад) Оценил на: 9 [img][img][/img][/img..Атлично!!!.. ОТ ДРУГИХ!!Качество+5!! Tornado69 12-11-2010 18:15:54 (45 месяцев назад) Kengie, анаглиф залью как раздам эту раздачу до 7 сидов. Раздача большая, а канал не резиновый. woldemar55 12-11-2010 18:13:02 (45 месяцев назад) Оценил на: 10 Огромное спасибо! Качество 3D супер. По больше бы таких релизов, а то совсем мало 3D. Kengie 12-11-2010 18:10:02 (45 месяцев назад) Оценил на: 10 анаглиф бы. горизонтальных нет ((( Zorrobest999 12-11-2010 18:06:56 (45 месяцев назад) Ура уже есть EXTENDED версия!на 17 минут длинее но они не переведены! Ждем на трекере Gorbasa 12-11-2010 17:22:31 (45 месяцев назад) Оценил на: 10 Нет слов, одни выражения )))  killaz47 12-11-2010 17:17:44 (45 месяцев назад) Оценил на: 10 ava-43 по идее в конце месяца.добавят 68 минут Tornado69 12-11-2010 16:56:18 (45 месяцев назад) Если у человека есть плеер поддерживающий матрёшку (а таких сейчас навалом), то он сможет смотреть анаглиф на обычном большом телевизоре типа плазмы в отличном качестве. smd888 12-11-2010 16:48:58 (45 месяцев назад) Оценил на: 10 а зачем анаглиф? ставите iz3d плеер и в настройках ставите анаглиф, и он формирует стереопару в анаглиф, и все. aVa-43 12-11-2010 16:32:48 (45 месяцев назад) А когда уже выйдет коллекционное издание с дополнительными сценами? SergNT 12-11-2010 16:27:56 (45 месяцев назад) Спасибо!..  Tornado69 12-11-2010 16:22:36 (45 месяцев назад) Ничего невозможного нет. Как раздам это, то залью анаглиф. Скорее всего это будет ночью. SergNT 12-11-2010 16:21:09 (45 месяцев назад) Оценил на: 10 Спасибо большое! А сделать 1080 для анаглифов можно?  Tornado69 12-11-2010 16:18:18 (45 месяцев назад) Приятного просмотра. Tornado69 12-11-2010 15:54:52 (45 месяцев назад) Оценил на: 10 Как и обещал - стереопара для обладателей 3D очков и 3D телевизоров. 

Все файлы предоставлены пользователями сайта для свободного обмена. Рутор.org и наши серверы не располагают какими-либо цифровыми копиями аудио-визуальных произведений, мы храним только информацию о них и торрент-файлы, загруженными пользователями для обмена. Для направления жалоб на нарушения исключительных авторских прав, пожалуйста, пишите на email pollyfuckingshit(гав-гав)ro[точка]ру с темой "удалить не читая" или "авторские права"

main-rutor.org

/ Avatar (2009) BDRip 1080p

: , . , - . , , .

: x264: BDRip (: Blu-ray Disc): 1920x1080 (16:9), 23.976 fps, 8000 kbps #1: AC-3, 6 ch, 640 kbps (Rus) #2: AC-3, 6 ch, 640 kbps (Eng): (,), :

: 205024459763032342125415240406694830072 (0x9A3E464EBCE2AB02AD87E5FFA7031FF8) : Avatar.2009.BDRip.1080p.Rus.Eng.mkv : Matroska : Version 2 : 11,5 : 2 . 58 . : 9281 / : / Avatar [Extended Collector's Edition] (2009) : UTC 2012-05-19 03:23:49 : mkvmerge v5.5.0 ('Healer') built on Apr 6 2012 21:43:24 : libebml v1.2.3 + libmatroska v1.3.0

: 1: AVC/ : Advanced Video Codec: [email protected]CABAC : ReFrames : 4 : V_MPEG4/ISO/AVC: 2 . 58 .: 8000 /: 1920 : 1080 : 16:9: 23,976 /: YUV: 4:2:0: 8 : /(*) : 0.161: 9,73 (84%): Release by AlexKa: x264 core 124 r2197 69a0443: cabac=1 / ref=4 / deblock=1:0:0 / analyse=0x3:0x133 / me=tesa / subme=11 / psy=1 / psy_rd=1.00:0.00 / mixed_ref=1 / me_range=32 / chroma_me=1 / trellis=2 / 8x8dct=1 / cqm=0 / deadzone=21,11 / fast_pskip=0 / chroma_qp_offset=-2 / threads=12 / sliced_threads=0 / nr=0 / decimate=0 / interlaced=0 / bluray_compat=0 / constrained_intra=0 / bframes=5 / b_pyramid=2 / b_adapt=2 / b_bias=0 / direct=3 / weightb=1 / open_gop=0 / weightp=2 / keyint=240 / keyint_min=23 / scenecut=40 / intra_refresh=0 / rc_lookahead=60 / rc=2pass / mbtree=1 / bitrate=8000 / ratetol=1.0 / qcomp=0.60 / qpmin=0 / qpmax=69 / qpstep=4 / cplxblur=20.0 / qblur=0.5 / ip_ratio=1.40 / aq=1:1.00: English

#1: 2: AC-3/ : Audio Coding 3: CM (complete main): A_AC3: 2 . 58 .: : 640 /: 6 : Front: L C R, Side: L R, LFE: 48,0 : 16 : : 816 (7%): Rus: Russian

#2: 3: AC-3/ : Audio Coding 3: CM (complete main): A_AC3: 2 . 58 .: : 640 /: 6 : Front: L C R, Side: L R, LFE: 48,0 : 16 : : 816 (7%): Eng: English

#1: 4: UTF-8: S_TEXT/UTF8/ : UTF-8 Plain Text: Rus forced: Russian

#2: 5: UTF-8: S_TEXT/UTF8/ : UTF-8 Plain Text: Rus: Russian

#3: 6: UTF-8: S_TEXT/UTF8/ : UTF-8 Plain Text: Eng: English

00:00:00.000 : en:Lost Soul00:05:25.575 : en:A New World00:10:12.278 : en:You Are Not In Kansas Anymore00:11:47.915 : en:"This Is Your Avatar Now, Jake ."00:15:59.208 : en:"This Is Why We're Here..."00:17:54.782 : en:First Awakening00:23:54.891 : en:Colonel Quaritch00:27:54.547 : en:First Sortie00:30:27.617 : en:Abandoned Schoolhouse00:32:27.904 : en:Thanator Chase00:37:16.525 : en:A Sign00:39:08.053 : en:Viperwolves00:41:18.475 : en:Neytiri00:49:16.912 : en:The Omaticaya Clan00:55:42.213 : en:Cover Report01:01:09.415 : en:The Hallelujah Mountains01:07:03.227 : en:Learn Fast Or Die01:11:50.222 : en:A Mother's Pain01:15:53.799 : en:Banshee Rookery01:22:38.119 : en:First Flight01:26:12.709 : en:Clan Hunt01:27:42.298 : en:Last Shadow01:33:00.407 : en:A Son Of the Omaticaya01:37:36.892 : en:Willow Glade Destruction01:44:15.290 : en:Conflict Escalation01:50:02.595 : en:"You Will Never Be One Of The People!"01:51:53.581 : en:Assault On Hometree01:58:30.895 : en:Aftermath02:02:13.284 : en:Escape From Hell's Gate02:07:51.663 : en:There's Something We Gotta Do..."02:09:30.554 : en:Toruk Macto02:12:36.615 : en:"She's Real"02:16:03.363 : en:Recruiting The Clans02:19:31.654 : en:Preamble To Battle02:23:59.630 : en:Battle For Pandora02:30:05.079 : en:Fall Of The Heroes02:33:56.852 : en:Eywa02:40:02.259 : en:Quartich Fight02:45:33.214 : en:"I See You"02:46:48.498 : en:My Brother02:48:56.793 : en:Transformation02:51:32.073 : en:End Credits

hdreactor.info

Скачать фильм Аватар через торрент в хорошем качестве бесплатно 1080p

Общее Уникальный идентификатор : 205024459763032342125415240406694830072 (0x9A3E464EBCE2AB02AD87E5FFA7031FF8) Полное имя : Avatar.2009.BDRip.1080p.Rus.Eng.mkv Формат : Matroska Версия формата : Version 2 Размер файла : 11,5 Гбайт Продолжительность : 2 ч. 58 м. Общий поток : 9281 Кбит/сек Название фильма : Аватар / Avatar [Extended Collector's Edition] (2009) Дата кодирования : UTC 2012-05-19 03:23:49 Программа кодирования : mkvmerge v5.5.0 ('Healer') built on Apr 6 2012 21:43:24 Библиотека кодирования : libebml v1.2.3 + libmatroska v1.3.0

Видео Идентификатор : 1 Формат : AVC Формат/Информация : Advanced Video Codec Профиль формата : [email protected] Параметр CABAC формата : Да Параметр ReFrames формата : 4 кадра Идентификатор кодека : V_MPEG4/ISO/AVC Продолжительность : 2 ч. 58 м. Битрейт : 8000 Кбит/сек Ширина : 1920 пикселей Высота : 1080 пикселей Соотношение сторон : 16:9 Частота кадров : 23,976 кадра/сек Цветовое пространство : YUV Субдискретизация насыщенности : 4:2:0 Битовая глубина : 8 бит Тип развёртки : Прогрессивная Бит/(Пиксели*Кадры) : 0.161 Размер потока : 9,73 Гбайт (84%) Заголовок : Release by AlexKa Библиотека кодирования : x264 core 124 r2197 69a0443 Настройки программы : cabac=1 / ref=4 / deblock=1:0:0 / analyse=0x3:0x133 / me=tesa / subme=11 / psy=1 / psy_rd=1.00:0.00 / mixed_ref=1 / me_range=32 / chroma_me=1 / trellis=2 / 8x8dct=1 / cqm=0 / deadzone=21,11 / fast_pskip=0 / chroma_qp_offset=-2 / threads=12 / sliced_threads=0 / nr=0 / decimate=0 / interlaced=0 / bluray_compat=0 / constrained_intra=0 / bframes=5 / b_pyramid=2 / b_adapt=2 / b_bias=0 / direct=3 / weightb=1 / open_gop=0 / weightp=2 / keyint=240 / keyint_min=23 / scenecut=40 / intra_refresh=0 / rc_lookahead=60 / rc=2pass / mbtree=1 / bitrate=8000 / ratetol=1.0 / qcomp=0.60 / qpmin=0 / qpmax=69 / qpstep=4 / cplxblur=20.0 / qblur=0.5 / ip_ratio=1.40 / aq=1:1.00 Язык : English

Аудио #1 Идентификатор : 2 Формат : AC-3 Формат/Информация : Audio Coding 3 Расширение режима : CM (complete main) Идентификатор кодека : A_AC3 Продолжительность : 2 ч. 58 м. Вид битрейта : Постоянный Битрейт : 640 Кбит/сек Каналы : 6 каналов Расположение каналов : Front: L C R, Side: L R, LFE Частота : 48,0 КГц Битовая глубина : 16 бит Метод сжатия : С потерями Размер потока : 816 Мбайт (7%) Заголовок : Rus Язык : Russian

Аудио #2 Идентификатор : 3 Формат : AC-3 Формат/Информация : Audio Coding 3 Расширение режима : CM (complete main) Идентификатор кодека : A_AC3 Продолжительность : 2 ч. 58 м. Вид битрейта : Постоянный Битрейт : 640 Кбит/сек Каналы : 6 каналов Расположение каналов : Front: L C R, Side: L R, LFE Частота : 48,0 КГц Битовая глубина : 16 бит Метод сжатия : С потерями Размер потока : 816 Мбайт (7%) Заголовок : Eng Язык : English

Текст #1 Идентификатор : 4 Формат : UTF-8 Идентификатор кодека : S_TEXT/UTF8 Идентификатор кодека/Информация : UTF-8 Plain Text Заголовок : Rus forced Язык : Russian

Текст #2 Идентификатор : 5 Формат : UTF-8 Идентификатор кодека : S_TEXT/UTF8 Идентификатор кодека/Информация : UTF-8 Plain Text Заголовок : Rus Язык : Russian

Текст #3 Идентификатор : 6 Формат : UTF-8 Идентификатор кодека : S_TEXT/UTF8 Идентификатор кодека/Информация : UTF-8 Plain Text Заголовок : Eng Язык : English

Меню 00:00:00.000 : en:Lost Soul 00:05:25.575 : en:A New World 00:10:12.278 : en:You Are Not In Kansas Anymore 00:11:47.915 : en:"This Is Your Avatar Now, Jake ." 00:15:59.208 : en:"This Is Why We're Here..." 00:17:54.782 : en:First Awakening 00:23:54.891 : en:Colonel Quaritch 00:27:54.547 : en:First Sortie 00:30:27.617 : en:Abandoned Schoolhouse 00:32:27.904 : en:Thanator Chase 00:37:16.525 : en:A Sign 00:39:08.053 : en:Viperwolves 00:41:18.475 : en:Neytiri 00:49:16.912 : en:The Omaticaya Clan 00:55:42.213 : en:Cover Report 01:01:09.415 : en:The Hallelujah Mountains 01:07:03.227 : en:Learn Fast Or Die 01:11:50.222 : en:A Mother's Pain 01:15:53.799 : en:Banshee Rookery 01:22:38.119 : en:First Flight 01:26:12.709 : en:Clan Hunt 01:27:42.298 : en:Last Shadow 01:33:00.407 : en:A Son Of the Omaticaya 01:37:36.892 : en:Willow Glade Destruction 01:44:15.290 : en:Conflict Escalation 01:50:02.595 : en:"You Will Never Be One Of The People!" 01:51:53.581 : en:Assault On Hometree 01:58:30.895 : en:Aftermath 02:02:13.284 : en:Escape From Hell's Gate 02:07:51.663 : en:There's Something We Gotta Do..." 02:09:30.554 : en:Toruk Macto 02:12:36.615 : en:"She's Real" 02:16:03.363 : en:Recruiting The Clans 02:19:31.654 : en:Preamble To Battle 02:23:59.630 : en:Battle For Pandora 02:30:05.079 : en:Fall Of The Heroes 02:33:56.852 : en:Eywa 02:40:02.259 : en:Quartich Fight 02:45:33.214 : en:"I See You" 02:46:48.498 : en:My Brother 02:48:56.793 : en:Transformation 02:51:32.073 : en:End Credits

piratbit.ru


Смотрите также