Пила скачать торрент 2004


rutor.org :: Пила: Игра на выживание / Saw (2004) BDRip-AVC | D

Информация о фильмеНазвание: Пила: Игра на выживаниеОригинальное название: SawГод выхода: 2004Жанр: ужасы, криминал, детективРежиссер: Джеймс ВанВ ролях: Ли Уоннелл, Кэри Элвис, Дэнни Гловер, Моника Поттер, Тобин Белл, Дина Мейер, Кен Люн, Майкл Эмерсон, Шоуни Смит, Бенито Мартинес

О фильме: Двое незнакомцев просыпаются в странном подвальном помещении. В центре помещения — труп мужчины с простреленной головой и оружием в ослабевшей руке. Они же прикованы к стенам цепями за щиколотки. Оба не знают, как там оказались.

Путём нехитрых предположений и спрятанных вокруг них ответов, как частей какого-то паззла, они узнают, по крайней мере, зачем они здесь и что именно от них ждёт их Похититель. Голос с найденной плёнки бесстрастно вещает: «Если ты хочешь спасти свою жену и детей, убей другого». Убить другого можно, только дотянувшись до оружия.

Дотянуться до оружия нельзя иначе, как избавившись от цепи. Избавиться от цепи нельзя иначе, кроме как отпилив ногу. Времени — мало. Но достаточно, чтобы реконструировать цепочку странных событий, которые привели каждого из них туда, где они сейчас оказались…

Страна: США, АвстралияСтудия: Evolution Entertainment, Saw Productions Inc., Twisted PicturesПродолжительность: 01:42:46Перевод: Профессиональный (дублированный)

ФайлКачество: BDRip-AVC | Source: BDRemux 1080pВидео: x264, 1152x648 (16:9), 23.976 fps, 4494 KbpsЗвук:

  • Russian, AC-3, 48.0 kHz, 448 Kbps, 5.1 ch, CBR
  • English, AC-3, 48.0 kHz, 448 Kbps, 5.1 ch, CBRСубтитры: русские, английские

    SAMPLE

    Релиз от: by jt38

    x264 log

    avs [info]: 1152x648p 1:1 @ 24000/1001 fps (cfr) x264 [info]: using SAR=1/1 x264 [info]: using cpu capabilities: MMX2 SSE2Fast SSSE3 SSE4.2 x264 [info]: profile High, level 4.0 x264 [info]: frame I:1099 Avg QP:16.31 size: 92770 x264 [info]: frame P:25118 Avg QP:18.41 size: 43564 x264 [info]: frame B:121623 Avg QP:20.33 size: 18648 x264 [info]: consecutive B-frames: 1.6% 1.1% 3.3% 7.4% 10.7% 37.9% 8.5% 4.9% 6.4% 4.8% 3.4% 4.8% 1.8% 1.3% 0.9% 0.5% 0.5% x264 [info]: mb I I16..4: 3.6% 90.4% 6.1% x264 [info]: mb P I16..4: 0.5% 15.4% 0.7% P16..4: 27.8% 36.4% 13.1% 1.1% 0.0% skip: 5.0% x264 [info]: mb B I16..4: 0.0% 1.2% 0.1% B16..8: 40.7% 23.7% 4.4% direct: 7.8% skip:22.1% L0:46.1% L1:45.7% BI: 8.2% x264 [info]: 8x8 transform intra:92.3% inter:62.3% x264 [info]: direct mvs spatial:99.3% temporal:0.7% x264 [info]: coded y,uvDC,uvAC intra: 94.7% 84.8% 65.1% inter: 41.2% 39.1% 12.6% x264 [info]: i16 v,h,dc,p: 44% 13% 11% 32% x264 [info]: i8 v,h,dc,ddl,ddr,vr,hd,vl,hu: 9% 6% 7% 11% 16% 14% 14% 12% 12% x264 [info]: i4 v,h,dc,ddl,ddr,vr,hd,vl,hu: 10% 5% 9% 9% 15% 15% 14% 11% 12% x264 [info]: i8c dc,h,v,p: 43% 24% 16% 17% x264 [info]: Weighted P-Frames: Y:23.7% UV:17.0% x264 [info]: ref P L0: 43.5% 4.8% 18.5% 9.5% 6.7% 5.2% 4.1% 2.5% 2.0% 1.6% 1.3% 0.3% 0.0% x264 [info]: ref B L0: 66.0% 15.0% 7.3% 3.9% 2.7% 2.0% 1.6% 0.9% 0.5% 0.2% x264 [info]: ref B L1: 90.9% 9.1% x264 [info]: kb/s:4494.50

    MediaInfo

    Общее Уникальный идентификатор : 189805869112615880462339430067996822945 (0x8ECB47DB974D663EB04EB12F18818DA1) Полное имя : Saw.Directors.Cut.2004.D.BDRip.x264.mkv Формат : Matroska Версия формата : Version 4 / Version 2 Размер файла : 3,87 Гбайт Продолжительность : 1 ч. 42 м. Общий поток : 5393 Кбит/сек Дата кодирования : UTC 2013-06-26 17:49:12 Программа кодирования : mkvmerge v6.2.0 ('Promised Land') built on Apr 28 2013 12:22:01 Библиотека кодирования : libebml v1.3.0 + libmatroska v1.4.0

    Видео Идентификатор : 1 Формат : AVC Формат/Информация : Advanced Video Codec Профиль формата : [email protected] Параметр CABAC формата : Да Параметр ReFrames формата : 11 кадров Идентификатор кодека : V_MPEG4/ISO/AVC Продолжительность : 1 ч. 42 м. Битрейт : 4495 Кбит/сек Ширина : 1152 пикселя Высота : 648 пикселей Соотношение сторон : 16:9 Режим частоты кадров : Постоянный Частота кадров : 23,976 кадра/сек Цветовое пространство : YUV Субдискретизация насыщенности : 4:2:0 Битовая глубина : 8 бит Тип развёртки : Прогрессивная Бит/(Пиксели*Кадры) : 0.251 Размер потока : 3,15 Гбайт (81%) Библиотека кодирования : x264 core 133 r2334kMod a3ac64b Настройки программы : cabac=1 / ref=11 / deblock=1:-3:-2 / analyse=0x3:0x133 / me=umh / subme=11 / psy=1 / fade_compensate=0.00 / psy_rd=1.10:0.00 / mixed_ref=1 / me_range=32 / chroma_me=1 / trellis=2 / 8x8dct=1 / cqm=0 / deadzone=21,11 / fast_pskip=0 / chroma_qp_offset=-2 / threads=3 / lookahead_threads=1 / sliced_threads=0 / nr=0 / decimate=0 / interlaced=0 / bluray_compat=0 / constrained_intra=0 / bframes=16 / b_pyramid=2 / b_adapt=2 / b_bias=0 / direct=3 / weightb=1 / open_gop=0 / weightp=2 / keyint=250 / keyint_min=23 / scenecut=40 / intra_refresh=0 / rc=2pass / mbtree=0 / bitrate=4495 / ratetol=1.0 / qcomp=0.60 / qpmin=0 / qpmax=69 / qpstep=4 / cplxblur=20.0 / qblur=0.5 / ip_ratio=1.40 / pb_ratio=1.30 / aq=1:1.00 Язык : English Default : Да Forced : Нет Коэффициенты матрицы : BT.709

    Аудио #1 Идентификатор : 2 Формат : AC-3 Формат/Информация : Audio Coding 3 Расширение режима : CM (complete main) Параметр Endianness формата : Big Идентификатор кодека : A_AC3 Продолжительность : 1 ч. 42 м. Вид битрейта : Постоянный Битрейт : 448 Кбит/сек Каналы : 6 каналов Расположение каналов : Front: L C R, Side: L R, LFE Частота : 48,0 КГц Битовая глубина : 16 бит Метод сжатия : С потерями Размер потока : 329 Мбайт (8%) Заголовок : dub Язык : Russian Default : Да Forced : Нет

    Аудио #2 Идентификатор : 3 Формат : AC-3 Формат/Информация : Audio Coding 3 Расширение режима : CM (complete main) Параметр Endianness формата : Big Идентификатор кодека : A_AC3 Продолжительность : 1 ч. 42 м. Вид битрейта : Постоянный Битрейт : 448 Кбит/сек Каналы : 6 каналов Расположение каналов : Front: L C R, Side: L R, LFE Частота : 48,0 КГц Битовая глубина : 16 бит Метод сжатия : С потерями Размер потока : 329 Мбайт (8%) Язык : English Default : Нет Forced : Нет

    Текст #1 Идентификатор : 4 Формат : UTF-8 Идентификатор кодека : S_TEXT/UTF8 Идентификатор кодека/Информация : UTF-8 Plain Text Язык : Russian Default : Нет Forced : Нет

    Текст #2 Идентификатор : 5 Формат : UTF-8 Идентификатор кодека : S_TEXT/UTF8 Идентификатор кодека/Информация : UTF-8 Plain Text Язык : English Default : Нет Forced : Нет

    Меню 00:00:00.000 : :chapter 1 00:06:29.389 : :chapter 2 00:16:34.243 : :chapter 3 00:24:11.658 : :chapter 4 00:32:28.529 : :chapter 5 00:41:43.042 : :chapter 6 00:46:55.646 : :chapter 7 00:54:55.208 : :chapter 8 00:58:46.606 : :chapter 9 01:02:48.055 : :chapter 10 01:06:42.665 : :chapter 11 01:10:48.577 : :chapter 12 01:13:26.693 : :chapter 13 01:17:52.959 : :chapter 14 01:22:23.063 : :chapter 15 01:29:37.997 : :chapter 16 01:33:03.536 : :chapter 17 01:38:47.504 : :chapter 18

  • main-rutor.org

    rutor.org :: Пила: Игра на выживание / Saw (2004) BDRip 720p от Leonardo and Scarabey ::: Скачать торрент

    Пила: Игра на выживание / Saw

    Страна: США, АвстралияГод выпуска: 2004Жанр: ужасы, детективПродолжительность: 01:42:46Перевод: Профессиональный (полное дублирование) Лицензия

    Режиссер: Джеймс Ван / James Wan

    Актеры: Ли Уоннелл, Кэри Элвис, Дэнни Гловер, Моника Поттер, Тобин Белл, Дина Мейер, Кен Люн, Майкл Эмерсон, Шоуни Смит, Бенито Мартинес

    Описание фильма: Двое незнакомцев просыпаются в странном подвальном помещении. В центре помещения — труп мужчины с простреленной головой и оружием в ослабевшей руке. Они же прикованы к стенам цепями за щиколотки. Оба не знают, как там оказались.

    Путём нехитрых предположений и спрятанных вокруг них ответов, как частей какого-то паззла, они узнают, по крайней мере, зачем они здесь и что именно от них ждёт их Похититель. Голос с найденной плёнки бесстрастно вещает: «Если ты хочешь спасти свою жену и детей, убей другого». Убить другого можно, только дотянувшись до оружия.

    Дотянуться до оружия нельзя иначе, как избавившись от цепи. Избавиться от цепи нельзя иначе, кроме как отпилив ногу. Времени — мало. Но достаточно, чтобы реконструировать цепочку странных событий, которые привели каждого из них туда, где они сейчас оказались…

    ФайлКачество видео: BDRip 720p Исходник: Blu-rayФормат: MKV Видео кодек: MPEG-4 AVC Аудио кодек: AC3Видео: 1280x000 (0.00:0) at 23.976 fps, AVC at 0000 kbps avg, 0.000 bit/pixelАудио: 48 kHz, AC3 Dolby Digital, 3/2 (L,C,R,l,r) + LFE ch, 448 kbps avgСубтитры: Русские, английские

    Автор рипа:

    Сообщество:

    Релиз от:

    MediaInfo

    * * * MediaInfo Mac 0.7.33.4 file analysis report. * * * MediaInfo Mac is ©2010 by Diego Massanti - http://mediainfo.massanti.com * * * MediaInfoLib by Jerome Martinez - http://mediainfo.sourceforge.net Created on: 13.01.2015 14:28:05 Московское стандартное время Report for file: Saw.2004.720p.BluRay.x264-LEONARDO_[scarabey.org].mkv

    General / Container Stream #1 Total Video Streams for this File.................1 Total Audio Streams for this File.................1 Total Subtitle Streams for this File..............2 Video Codecs Used.................................AVC Audio Codecs Used.................................AC3 SubTitle Codecs Used..............................UTF-8 / UTF-8 Available Sutbitle Languages......................Russian / File Format.......................................Matroska Play Time.........................................1h 42mn Total File Size...................................2.92 GiB Total Stream BitRate..............................4 074 Kbps Title (Tag).......................................-=LEONARDO=- Encoded with......................................mkvmerge v5.0.1 ('Es ist Sommer') built on Oct 23 2011 00:46:40 Encoding Library..................................libebml v1.2.2 + libmatroska v1.3.0 Video Stream #1 Codec (Human Name)................................AVC Codec (FourCC)....................................V_MPEG4/ISO/AVC Codec [email protected] Frame Width.......................................1 280 pixels Frame Height......................................720 pixels Frame Rate........................................23.976 fps Total Frames......................................147841 Display Aspect Ratio..............................16:9 Scan Type.........................................Progressive Color Space.......................................YUV Codec Settings (Summary)..........................CABAC / 12 Ref Frames QF (like Gordian Knot)............................0.160 Codec Settings (CABAC)............................Yes Codec Settings (Reference Frames).................12 Video Stream Length...............................1h 42mn 46s 208ms Video Stream BitRate..............................3 545 Kbps Bit Depth.........................................8 bits Video Stream Size.................................2.54 GiB (87%) Video Encoder.....................................x264 - core 125 r2208 d9d2288 Video Encoder (Settings)..........................cabac=1 / ref=12 / deblock=1:-3:-3 / analyse=0x3:0x133 / me=umh / subme=11 / psy=1 / psy_rd=1.00:0.00 / mixed_ref=1 / me_range=32 / chroma_me=1 / trellis=2 / 8x8dct=1 / cqm=0 / deadzone=21,11 / fast_pskip=0 / chroma_qp_offset=-2 / threads=12 / lookahead_threads=2 / sliced_threads=0 / nr=0 / decimate=1 / interlaced=0 / bluray_compat=0 / constrained_intra=0 / bframes=16 / b_pyramid=2 / b_adapt=2 / b_bias=0 / direct=1 / weightb=1 / open_gop=0 / weightp=2 / keyint=250 / keyint_min=23 / scenecut=40 / intra_refresh=0 / rc=crf / mbtree=0 / crf=21.0 / qcomp=0.60 / qpmin=0 / qpmax=69 / qpstep=4 / ip_ratio=1.10 / pb_ratio=1.10 / aq=1:1.00 Audio Stream #1 Codec.............................................AC-3 Codec (FourCC)....................................A_AC3 Audio Stream Length...............................1h 42mn 46s 208ms Audio Stream BitRate..............................448 Kbps Audio Stream BitRate Mode.........................CBR Number of Audio Channels..........................6 Audio Channel's Positions.........................Front: L C R, Side: L R, LFE Sampling Rate.....................................48.0 KHz Audio Stream Size.................................329 MiB (11%) Audio Stream Language.............................Russian Subtitle Stream #1 Language..........................................Russian Format............................................UTF-8 Codec ID..........................................S_TEXT/UTF8 Codec Info........................................UTF-8 Plain Text Subtitle Stream #2 Format............................................UTF-8 Codec ID..........................................S_TEXT/UTF8 Codec Info........................................UTF-8 Plain Text

    main-rutor.org

    Пила 1-7 Антология / Saw 1-7 Аntology (2004-2010) 7 x DVD5 скачать торрент

    Русское название: Пила. Игра на выживание Оригинальное название: Saw. Survival game [Unrated Edition] Год выпуска: 2004 Жанр: ужасы, триллер, детектив Режиссер: Джеймс Ван Актёры: Ли Уоннелл, Кэри Элвес, Дэнни Гловер, Кен Леунг, Дина Мейер, Майк Баттерс, Пол Гутрехт, Майкл Эмерсон, Бенито Мартинес, Шоуни Смит, Моника Поттер, Нед Беллами

    Описание фильма: Адам и Гордон очнулись прикованными к трубам в огромном заброшенном помещении. Между ними труп в луже крови... Оба не понимают ни как они оказались в таком положении, ни как из него выйти. Достаточно быстро они осознают, что стали жертвой серийного маньяка, которого полицейские называют "Конструктор смерти" за его манеру ставить людей в ситуацию, где у них есть только два выхода – погибнуть самим или убить. На сей раз "изобретатель" поставил перед выбором Гордона: он должен убить Адама или его жена и дочь будут уничтожены. Расследовавший предыдущие "эксперименты" супер- изобретательного злодея детектив Тапп попытается вмешаться в ситуацию... Смогут ли Адам, Гордон и Тапп обыграть маньяка в его дьявольской игре и остаться в живых?

    Выпущёно: США / Австралия, Evolution Entertainment / Twisted Pictures / Saw Productions Inc. Продолжительность: 01:39:00 Перевод: Профессиональный (полное дублирование) [Лицензия]

    Видеокодек: MPEG-2 Битрейт видео: ~ 3126 Kbps Размер кадра: 720x576 Качество видео: DVD5 Аудио 1: AC3, 6 ch, 448.00 kbps, 48 kHz Русский Дублированный Аудио 2: AC3, 6 ch, 448.00 kbps, 48 kHz Английский оригинальный Аудио 3: DTS, 6 ch, 1510.00kbps, 48 kHz Русский Дублированный Субтитры: русские

    Русское название: Пила 2 Оригинальное название: Saw 2 [Unrated Edition] Год выпуска: 2005 Жанр: ужасы, триллер, детектив Режиссер: Даррел Линн Бусман Актёры: Шоуни Смит, Донни Уолберг, Тобин Белл, Гленн Пламмер, Дина Мейер, Берерли Митчелл, Эрик Кнадсен

    Описание фильма: При расследовании кровавых серийных убийств у детектива Эрика Мэйсона появляется чувство, что все это связано с печально известным убийцей по кличке Пила, исчезнувшего и оставившего после себя груду тел и... частей тел. Мэйсон прав, Пила снова в деле. Но вместо двух людей, запертых в комнате с выходом только для одного из них, теперь таковых имеется восемь. Восемь незнакомцев, не осознающих свою связь друг к другу, будут принудительно заканчивать игру, которая бросит вызов их остроумию и подвергнет их жизни смертельной опасности.

    Выпущёно: США / Канада, Evolution Entertainment / Twisted Pictures / Got Films / Lions Gate Films Inc / Saw 2 Productions Inc. Продолжительность: 01:28:55 Перевод: Профессиональный (полное дублирование) [Лицензия]

    Видеокодек: MPEG-2 Битрейт видео: ~ 5438 Kbps Размер кадра: 720x576 Качество видео: DVD5 Аудио 1: AC3, 6 ch, 448.00 kbps, 48 kHz Русский Дублированный Аудио 2: AC3, 6 ch, 448.00 kbps, 48 kHz Английский оригинальный Субтитры: нет

    Русское название: Пила 3 Оригинальное название: Saw 3 [Unrated Edition] Год выпуска: 2006 Жанр: ужасы, триллер, детектив Режиссер: Даррел Линн Бусман Актёры: Тобин Белл, Энгус МакФадьен, Дина Мейер, Шауни Смит, Бахар Сумех

    Описание фильма: Изобретатель зловещих игр остается безнаказанным и в итоге бесследно исчезает вместе со своей сообщницей Амандой. В то время, как детективы тщетно пытаются выйти на его след, доктор Линн Денлон становится очередной жертвой этого маньяка. Однажды ночью Линн похищают и привозят в заброшенный склад, где она встречается с самим злодеем, находящимся на смертном одре. Ей приказывают сохранять жизнь этому безумцу, пока Джефф, еще одна из его жертв, не доведет до конца начатую с ним игру...

    Выпущёно: США / Канада, Evolution Entertainment / Twisted Pictures / Lions Gate Films Inc / Saw Productions Inc. Продолжительность: 01:43:51 Перевод: Профессиональный (полное дублирование) [Лицензия]

    Видеокодек: MPEG-2 Битрейт видео: ~ 3527 Kbps Размер кадра: 720x576 Качество видео: DVD5 Аудио 1: AC3, 6 ch, 448.00 kbps, 48 kHz Русский Дублированный Аудио 2: DTS, 6 ch, 1510.00kbps, 48 kHz Русский Дублированный Субтитры: русские

    Русское название: Пила 4 Оригинальное название: Saw IV [Unrated Edition] Год выпуска: 2007 Жанр: ужасы, триллер, детектив Режиссер: Даррел Линн Бусман Актёры: Тобин Белл, Костас Мандилор, Скотт Паттерсон, Бетси Расселл, Лирик Бент, Афена Карканис, Джастин Луис, Саймон Рейнольдс, Донни Уолберг, Энгус МакФадьен, Шоуни Смит, Бахар Сумех, Дина Мейер, Майк Рилба, Марти Адамс, Сарэн Бойлэн, Билли Отис, Джеймс Ван Паттен, Дэвид Бойс, Кевин Раштон, Джулиан Ричингс

    Описание фильма: Получив известие об убийстве детектива Кэрри, два опытных сотрудника ФБР, агент Стрэм и агент Перез, прибывают в полицейский участок, чтобы помочь старому детективу Хоффману проанализировать последнюю ужасную игру Пилы и соединить все части головоломки. Однако, когда капитан Ригг, последний полицейский, нетронутый Пилой, оказывается похищен и вовлечен в чудовищную игру маньяка, у офицера остается лишь девяносто минут, чтобы обнаружить ряд взаимосвязанных ловушек…или оказаться перед лицом их беспощадных последствий. В то время, как Ригга по всему городу преследуют следы трупов, детектив Хоффман и ФБР обнаруживают глубоко спрятанные ключи к разгадке, которые приводят их назад к бывшей жене Пилы — Джил.

    Выпущёно: США / Канада, Twisted Pictures / Lionsgate. Продолжительность: 01:28:46 Перевод: Профессиональный (полное дублирование) [Лицензия]

    Видеокодек: MPEG-2 Битрейт видео: ~ 3846 Kbps Размер кадра: 720x576 Качество видео: DVD5 Аудио 1: AC3, 6 ch, 448.00 kbps, 48 kHz Русский Дублированный Аудио 2: AC3, 2 ch, 192.00 kbps, 48 kHz Русский Дублированный Аудио 3: DTS, 6 ch, 1536.00kbps, 48 kHz Русский Дублированный Субтитры: нет

    Русское название: Пила 5 Оригинальное название: Saw V [Unrated Edition] Год выпуска: 2008 Жанр: ужасы, триллер, детектив Режиссер: Дэвид Хэкл Актёры: Тобин Белл, Костас Мандилор, Скотт Паттерсон, Бетси Расселл, Джули Бенц, Мэган Гуд, Марк Ролстон, Карло Рота, Грег Брайк, Лаура Гордон

    Описание фильма: Детектив Хоффман — последний живой человек, продолжающий кровавое дело Конструктора. Но когда тайна оказывается перед угрозой разоблачения, Хоффману приходится выйти на новую охоту, чтобы устранить все ведущие к нему ниточки.

    Выпущёно: США / Канада, Twisted Pictures. Продолжительность: 01:28:24 Перевод: Профессиональный (полное дублирование) [Лицензия]

    Видеокодек: MPEG-2 Битрейт видео: ~ 4100 Kbps Размер кадра: 720x576 Качество видео: DVD5 Аудио 1: AC3, 6 ch, 448.00 kbps, 48 kHz Русский Дублированный Аудио 2: AC3, 2 ch, 192.00 kbps, 48 kHz Русский Дублированный Аудио 3: DTS, 6 ch, 1510.00kbps, 48 kHz Русский Дублированный Субтитры: нет

    Русское название: Пила 6 Оригинальное название: Saw VI [Unrated Edition] Год выпуска: 2009 Жанр: ужасы, триллер, детектив Режиссер: Кевин Гротерт Актёры: Тобин Белл, Костас Мэндилор, Марк Ролстон, Бетси Расселл, Шоуни Смит, Питер Аутербридж, Саманта Лемоул, Танедра Ховард, Марти Моро, Шоун Ахмед

    Описание фильма: Специальный агент Страм мертв и нет никаких сомнений в том, что детектив Хоффман является продолжателем дела Конструктора. Но когда ФБР садится ему на след, он вынужден вновь начать Игру, наконец-то расставляющую все точки над i в грандиозном плане Конструктора.

    Выпущёно: США / Канада / Великобритания / Австралия, Twisted Pictures. Продолжительность: 01:26:35 Перевод: Профессиональный (полное дублирование) [Лицензия]

    Видеокодек: MPEG-2 Битрейт видео: ~ 5013 Kbps Размер кадра: 720x576 Качество видео: DVD5 Аудио 1: AC3, 6 ch, 448.00 kbps, 48 kHz Русский Дублированный Аудио 2: AC3, 2 ch, 192.00 kbps, 48 kHz Русский Дублированный Субтитры: нет

    Русское название: Пила 7 Оригинальное название: Saw 7 [Unrated Edition] Год выпуска: 2010 Жанр: ужасы, триллер, детектив Режиссер: Кевин Гротерт Актёры: Костас Мэндилор, Шон Патрик Флэнери, Тобин Белл, Кэри Элвис, Бетси Расселл, Дин Армстронг, Чэд Донелла, Джина Холден, Честер Беннингтон, Ребекка Маршалл

    Описание фильма: Жертвы Пилы, выжившие в предыдущих испытаниях, обращаются за психологической помощью к товарищу по несчастью Бобби Дагену. Но когда его собственные темные тайны всплывают на свет, развязывается новая волна террора.

    Выпущёно: Канада / США, A Bigger Boat, Serendipity Productions, Twisted Pictures Продолжительность: 01:26:25 Перевод: Профессиональный (полное дублирование) [Лицензия]

    Видеокодек: MPEG-2 Битрейт видео: ~ 6882 Kbps Размер кадра: 720x576 Качество видео: DVD5 Аудио : AC3, 6 ch, 448.00 kbps, 48 kHz Русский Дублированный Субтитры: нет

    torrent-games.net

    rutor.org :: Пила: Антология / Saw: Antology (2004-2010) Blu-Ray

    Пила 1-7 / Saw I-3D (2004-2010) Blu-Ray Unrated Director's Cut

    Пила: Игра на Выживание / Saw (2004)

    Производство: США, Канада, АвстралияГод выпуска: 2004 г.Жанр: Ужасы, Триллер, ДетективПродолжительность: 01:42:46

    Мировая премьера: 19 января 2004Российская премьера: 16 декабря 2004Дата выхода DVD: 19 января 2005Дата выхода Blu-Ray: 19 января 2005

    Перевод: Профессиональный (полное дублирование)Перевод 2: Профессиональный (многоголосый, закадровый) [Киномания]Перевод 3: Авторский (одноголосый, закадровый) [Королев]Перевод 3: Авторский (одноголосый, закадровый) [Мадрид]Оригинальный аудиопоток: Английский

    Режиссер: Джеймс Ван

    В ролях: Ли Уоннелл, Кери Элвис, Дэнни Гловер, Кен Леунг, Дина Мейер, Майк БаттерсОписание: Двое незнакомцев просыпаются в странном подвальном помещении. В центре помещения - труп мужчины с простреленной головой и оружием в ослабевшей руке. Они же прикованы к стенам цепями за щиколотки. Оба не знают, как там оказались. Путём нехитрых предположений и спрятанных вокруг них ответов, как частей какого-то паззла, они узнают, по крайней мере, зачем они здесь и что именно от них ждёт их Похититель. Голос с найденной плёнки бесстрастно вещает: «Если ты хочешь спасти свою жену и детей, убей другого». Убить другого можно, только дотянувшись до оружия. Дотянуться до оружия нельзя иначе, как избавившись от цепи. Избавиться от цепи нельзя иначе, кроме как отпилив ногу. Времени - мало. Но достаточно, чтобы реконструировать цепочку странных событий, которые привели каждого из них туда, где они сейчас оказались…

    Официальный сайт

    Качество видео: Blu-RayКонтейнер: BDMVСтандарт разрешения: 1080pВидео кодек: VC-1Аудио кодек: DTSВидео: 1920x1080p, 23,976 fps, ~23925 kbpsАудио 1: English (DTS-HR MA, 7.1, 2046 kbps / 48 kHz / 16-bit (DTS Core: 5.1 / 48 kHz / 1509 kbps / 16-bit))Аудио 2: Russian (DTS, 5.1, 1536 kbps / 48 kHz) (Полное дублирование)Аудио 3: Russian (DTS-HR MA, 7.1, 2046 kbps / 48 kHz / 16-bit (DTS Core: 5.1 / 48 kHz / 1509 kbps / 16-bit)) (Многоголосый закадровый, Киномания)Аудио 4: Russian (DTS-HR MA, 7.1, 2046 kbps / 48 kHz / 16-bit (DTS Core: 5.1 / 48 kHz / 1509 kbps / 16-bit)) (Авторский, Мадрид)Аудио 5: Russian (DTS, 5.1, 1536 kbps / 48 kHz) (Авторский, Королев)Аудио 6: English (DTS, 2.0, 255 kbps / 48 kHz / 24-bit)Аудио 7: English (DTS, 2.0, 255 kbps / 48 kHz / 24-bit)

    Cубтитры: Русские, АнглийскиеФормат субтитров: prerendered (IDX+SUB)

    Так же на диске / дополнительные материалы: TV Spots (6 шт.) Highlight (8 шт.) Trailer (FullHD/SD) Fear Factory (rated/unrated) Making of Music Video Billie -DIE, JigSaw - Puppe Saw - Behind the Scenes JigSaw - Report Saw - Der Original Interviews SAWed OFF - Featurette Рассказ о съемках, расширенные и альтернативные сцены. Комментарии режиссера Комментарии сценариста

    BD Info

    Код: DISC INFO:

    Disc Title: SAW I (2004) Disc Size: 35 111 886 664 bytes Protection: AACS BD-Java: No BDInfo: 0.5.2

    PLAYLIST REPORT:

    Name: 00004.MPLS Size: 27 767 808 000 bytes Length: 1:42:46 (h:m:s) Total Bitrate: 36.03 Mbps Deion:

    VIDEO:

    Codec Bitrate Deion ----- ------- ----------- MPEG-2 Video 23925 kbps 1080p / 23.976 fps / 16:9

    AUDIO:

    Codec Language Bitrate Deion ----- -------- ------- ----------- DTS-HD Audio English 2046 kbps 7.1 / 48 kHz / 2046 kbps / 16-bit (DTS Core: 5.1-ES / 48 kHz / 1509 kbps / 24-bit) DTS-HD Audio Russian 2046 kbps 7.1 / 48 kHz / 2046 kbps / 24-bit (DTS Core: 5.1 / 48 kHz / 1509 kbps / 24-bit) DTS-HD Audio Russian 2046 kbps 7.1 / 48 kHz / 2046 kbps / 24-bit (DTS Core: 5.1 / 48 kHz / 1509 kbps / 24-bit) DTS Audio Russian 1509 kbps 5.1 / 48 kHz / 1509 kbps / 24-bit DTS Audio Russian 1509 kbps 5.1 / 48 kHz / 1509 kbps / 24-bit DTS Audio English 255 kbps 2.0 / 48 kHz / 255 kbps / 24-bit DTS Audio English 255 kbps 2.0 / 48 kHz / 255 kbps / 24-bit

    SUBTITLES:

    Codec Language Bitrate Deion ----- -------- ------- ----------- Presentation Graphics English 21.145 kbps Presentation Graphics Russian 18.987 kbps Presentation Graphics Russian 0.009 kbps Presentation Graphics Russian 0.009 kbps

    FILES:

    Name Time In Length Size Total Bitrate ---- ------- ------ ---- ------------- 00004.M2TS 0:00:00.000 1:42:46.160 27 767 808 000 36 026

    CHAPTERS:

    Number Time In Length Avg Video Rate Max 1-Sec Rate Max 1-Sec Time Max 5-Sec Rate Max 5-Sec Time Max 10Sec Rate Max 10Sec Time Avg Frame Size Max Frame Size Max Frame Time ------ ------- ------ -------------- -------------- -------------- -------------- -------------- -------------- -------------- -------------- -------------- -------------- 1 0:00:00.000 1:42:46.160 23 925 kbps 43 021 kbps 00:24:31.595 37 174 kbps 01:38:13.804 36 702 kbps 01:38:08.507 124 732 bytes 784 856 bytes 00:19:17.072

    STREAM DIAGNOSTICS:

    File PID Type Codec Language Seconds Bitrate Bytes Packets ---- --- ---- ----- -------- -------------- -------------- ------------- ----- 00004.M2TS 4113 (0x1011) 0x02 MPEG-2 6166.035 23 925 18 440 344 876 100 305 396 00004.M2TS 4352 (0x1100) 0x82 DTS rus (Russian) 6166.035 1 510 1 163 675 040 6 936 960 00004.M2TS 4353 (0x1101) 0x85 DTS-HD HR rus (Russian) 6166.035 2 046 1 576 876 752 9 248 544 00004.M2TS 4354 (0x1102) 0x85 DTS-HD HR rus (Russian) 6166.035 2 046 1 576 876 752 9 248 544 00004.M2TS 4355 (0x1103) 0x85 DTS-HD HR eng (English) 6166.035 2 046 1 576 879 480 9 248 560 00004.M2TS 4356 (0x1104) 0x82 DTS eng (English) 6166.035 255 196 567 600 1 156 280 00004.M2TS 4357 (0x1105) 0x82 DTS eng (English) 6166.035 255 196 567 600 1 156 280 00004.M2TS 4358 (0x1106) 0x82 DTS rus (Russian) 6166.035 1 509 1 163 008 432 6 936 432 00004.M2TS 4608 (0x1200) 0x90 PGS rus (Russian) 6166.035 19 14 634 245 85 145 00004.M2TS 4609 (0x1201) 0x90 PGS rus (Russian) 6166.035 0 6 762 44 00004.M2TS 4610 (0x1202) 0x90 PGS rus (Russian) 6166.035 0 6 762 44 00004.M2TS 4611 (0x1203) 0x90 PGS eng (English) 6166.035 21 16 297 747 95 177

    Пила 2 / Saw II (2005)

    Производство: США, КанадаГод выпуска: 2005 г.Жанр: Ужасы, Триллер, ДетективПродолжительность: 01:34:32

    Мировая премьера: 28 октября 2005Российская премьера: 12 января 2006Дата выхода DVD: 26 января 2006Дата выхода Blu-Ray: 26 января 2006

    Перевод: Профессиональный (полное дублирование)Перевод 2: Профессиональный (многоголосый, закадровый) [Петр Гланц и Анна Королева]Перевод 3: Авторский (одноголосый, закадровый) [Мадрид]Оригинальный аудиопоток: Английский

    Режиссер: Даррен Линн Боусман

    В ролях: Тобин Белл, Шоуни Смит, Донни Уолберг, Эрик Кнудсен, Фрэнки Джи, Гленн Пламмер, Эммануэль Вожье, Беверли Митчелл, Тим Берд, Дина МейерОписание: Во время расследования подробностей кровавых деяний неизвестного убийцы детектив Эрик Мэтьюс ловит себя на мысли, что они очень похожи на работу Пилы - известного маньяка, который смог исчезнуть, оставив за собой множество жертв. Метьюс оказывается прав. Пила снова взялся за свое ужасное ремесло. Только на этот раз вместо двух людей, он запирает в комнате смерти с единственных способом выбраться живым, сразу восемь человек. Восемь никак не связанных друг с другом незнакомцев оказываются вынуждены вступить в игру сумашедшего убийцы, ставками в которой будут их жизни...

    Качество видео: Blu-RayКонтейнер: BDMVСтандарт разрешения: 1080pВидео кодек: MPEG-2Аудио кодек: DTSВидео: 1920x1080p, 23,976 fps, ~23150 kbpsАудио 1: English (DTS-HD High-Res Audio, 6.1, 3039 kbps / 48 kHz / 24-bit)Аудио 2: Russian (6.1-ES / 48 kHz / 1509 kbps / 24-bit) (Авторский, Мадрид)Аудио 3: Russian (6.1-ES / 48 kHz / 768 kbps / 24-bit) (Многоголосый закадровый, Петр Гланц и Анна Королева)Аудио 4: Russian (DTS, 5.1 / 48 kHz / 1509 kbps / 24-bit) (Полное дублирование)Аудио 5: English (DTS, 2.0, 192 kbps / 48 kHz / 24-bit)Аудио 6: English (DTS, 2.0, 192 kbps / 48 kHz / 24-bit)

    Cубтитры: Русские, АнглийскиеФормат субтитров: prerendered (IDX+SUB)

    Так же на диске / дополнительные материалы: Рассказ о съемках Постановка сцен Интервью с актерами, режиссерами и т.п. ... и т.д. Вообще допов достаточно много - более двух десятков различных роликов обо всех моментах появления фильма.

    BD Info

    DISC INFO:

    Disc Title: Disc Size: 34 700 676 647 bytes Protection: AACS BD-Java: No BDInfo: 0.5.3

    PLAYLIST REPORT:

    Name: 00006.MPLS Length: 1:34:32 (h:m:s) Size: 23 075 586 048 bytes Total Bitrate: 32,54 Mbps

    VIDEO:

    Codec Bitrate Deion ----- ------- ----------- MPEG-2 Video 23150 kbps 1080p / 23,976 fps / 16:9

    AUDIO:

    Codec Language Bitrate Deion ----- -------- ------- ----------- DTS-HD High-Res Audio English 3039 kbps 6.1 / 48 kHz / 3039 kbps / 24-bit (DTS Core: 6.1-ES / 48 kHz / 1509 kbps / 24-bit / DN -4dB) DTS-ES Audio Russian 1509 kbps 6.1-ES / 48 kHz / 1509 kbps / 24-bit DTS-ES Audio Russian 768 kbps 6.1-ES / 48 kHz / 768 kbps / 24-bit DTS Audio Russian 1509 kbps 5.1 / 48 kHz / 1509 kbps / 24-bit Dolby Digital Audio English 192 kbps 2.0 / 48 kHz / 192 kbps Dolby Digital Audio English 192 kbps 2.0 / 48 kHz / 192 kbps

    SUBTITLES:

    Codec Language Bitrate Deion ----- -------- ------- ----------- Presentation Graphics English 27,366 kbps Presentation Graphics Russian 24,091 kbps Presentation Graphics Russian 0,010 kbps Presentation Graphics Russian 0,010 kbps

    Пила 3 / Saw III (2006)

    Производство: США, КанадаГод выпуска: 2006 г.Жанр: Ужасы, Триллер, ДетективПродолжительность: 1:53:44

    Мировая премьера: 25 октября 2006Российская премьера: 16 ноября 2006Дата выхода DVD: 18 января 2007Дата выхода Blu-Ray: 18 января 2007

    Перевод: Профессиональный (полное дублирование)Перевод 2: Профессиональный (многоголосый, закадровый) [Петр Гланц и Анна Королева]Перевод 3: Авторский (одноголосый, закадровый) [Мадрид]Оригинальный аудиопоток: Английский

    Режиссер: Даррен Линн Боусман

    В ролях: Тобин Белл, Шоуни Смит, Энгус МакФадьен, Бахар Сумех, Донни Уолберг, Дина Мейер, Ли Уоннелл, Мфо Коахо, Бэрри Флэтмэн, Лайрик БентОписание: Изобретатель зловещих игр остается безнаказанным и в итоге бесследно исчезает вместе со своей сообщницей Амандой. В то время, как детективы тщетно пытаются выйти на его след, доктор Линн Денлон становится очередной жертвой этого маньяка.

    Однажды ночью Линн похищают и привозят в заброшенный склад, где она встречается с самим злодеем, находящимся на смертном одре. Ей приказывают сохранять жизнь этому безумцу, пока Джефф, еще одна из его жертв, не доведет до конца начатую с ним «игру»…

    Качество видео: Blu-RayКонтейнер: BDMVСтандарт разрешения: 1080pВидео кодек: MPEG-2Аудио кодек: DTSВидео: 1920x1080p, 23,976 fps, ~16682 kbpsАудио 1: English (DTS-HD High-Res Audio, 6.1, 3039 kbps / 48 kHz / 26-bit)Аудио 2: Russian (6.1-ES / 48 kHz / 3018 kbps / 24-bit) (Авторский, Мадрид)Аудио 3: Russian (6.1-HR / 48 kHz / 768 kbps / 24-bit) (Многоголосый закадровый, Петр Гланц и Анна Королева)Аудио 4: Russian (DTS, 5.1 / 48 kHz / 1509 kbps / 24-bit) (Полное дублирование)Аудио 5: English (DTS, 2.0, 192 kbps / 48 kHz / 24-bit)Аудио 6: English (DTS, 2.0, 192 kbps / 48 kHz / 24-bit)Аудио 7: English (DTS, 2.0, 192 kbps / 48 kHz / 24-bit)

    Cубтитры: Русские, АнглийскиеФормат субтитров: prerendered (IDX+SUB)

    Так же на диске / дополнительные материалы: • THE TRAPS OF SAW III (Переведено профессиональным закадровым переводом, Гланц) • THE PROPS OF SAW III (Переведено профессиональным закадровым переводом, Гланц) • THE WRITING OF SAW III • AMANDA: THE EVOLUTION OF A KILLER • DARREN'S DIARY • DELETED SCENES (Переведено профессиональным закадровым переводом, Гланц) • THEATRICAL TRAILER • THEATRICAL TEASER • ALSO FROM LIONSGATE • Комментарии режиссера, сценариста, участников съемок

    BD Info

    DISC INFO:

    Disc Title: Disc Size: 28 952 638 660 bytes Protection: AACS BD-Java: No BDInfo: 0.5.3

    PLAYLIST REPORT:

    Name: 00000.MPLS Length: 1:53:44 (h:m:s) Size: 23 671 523 328 bytes Total Bitrate: 27,75 Mbps

    VIDEO:

    Codec Bitrate Deion ----- ------- ----------- MPEG-2 Video 16682 kbps 1080p / 23,976 fps / 16:9

    AUDIO:

    Codec Language Bitrate Deion ----- -------- ------- ----------- DTS-HD High-Res Audio English 3039 kbps 6.1 / 48 kHz / 3039 kbps / 24-bit (DTS Core: 6.1-ES / 48 kHz / 1509 kbps / 24-bit / DN -4dB) DTS-HD High-Res Audio Russian 3018 kbps 6.1 / 48 kHz / 3018 kbps / 24-bit (DTS Core: 6.1-ES / 48 kHz / 1509 kbps / 24-bit) DTS-ES Audio Russian 768 kbps 6.1-ES / 48 kHz / 768 kbps / 24-bit DTS Audio Russian 1509 kbps 5.1 / 48 kHz / 1509 kbps / 24-bit Dolby Digital Audio English 192 kbps 2.0 / 48 kHz / 192 kbps / DN -4dB / Dolby Surround Dolby Digital Audio English 192 kbps 2.0 / 48 kHz / 192 kbps / DN -4dB / Dolby Surround Dolby Digital Audio English 192 kbps 2.0 / 48 kHz / 192 kbps / DN -4dB / Dolby Surround

    SUBTITLES:

    Codec Language Bitrate Deion ----- -------- ------- ----------- Presentation Graphics English 21,570 kbps Presentation Graphics Russian 18,245 kbps

    Пила 4 / Saw IV (2007)

    Производство: США, КанадаГод выпуска: 2007 г.Жанр: Ужасы, Триллер, ДетективПродолжительность: 01:35:31

    Мировая премьера: 25 октября 2007Российская премьера: 29 октября 2007Дата выхода DVD: 24 декабря 2007Дата выхода Blu-Ray: 24 января 2008

    Перевод: Профессиональный (полное дублирование)Перевод 2: Профессиональный (многоголосый, закадровый) [Киномания]Перевод 3: Авторский (одноголосый, закадровый) [Мадрид]Оригинальный аудиопоток: Английский

    Режиссер: Даррен Линн Боусман

    В ролях: Тобин Белл, Костас Мэндилор, Скотт Паттерсон, Бетси Расселл, Лайрик Бент, Афена Карканис, Джастин Луис, Саймон Рейнольдс, Донни Уолберг, Энгус МакФадьенОписание: Получив известие об убийстве детектива Кэрри, два опытных сотрудника ФБР, агент Стрэм и агент Перез, прибывают в полицейский участок, чтобы помочь старому детективу Хоффману проанализировать последнюю ужасную игру Пилы и соединить все части головоломки.

    Однако, когда капитан Ригг, последний полицейский, нетронутый Пилой, оказывается похищен и вовлечен в чудовищную игру маньяка, у офицера остается лишь девяносто минут, чтобы обнаружить ряд взаимосвязанных ловушек... или оказаться перед лицом их беспощадных последствий.

    В то время, как Ригга по всему городу преследуют следы трупов, детектив Хоффман и ФБР обнаруживают глубоко спрятанные ключи к разгадке, которые приводят их назад к бывшей жене Пилы - Джил.

    Качество видео: Blu-RayКонтейнер: BDMVСтандарт разрешения: 1080pВидео кодек: MPEG-4-AVCАудио кодек: DTSВидео: 1920x1080p, 23,976 fps, ~16999 kbpsАудио 1: English (DTS-HD Master Audio, 7.1 / 48 kHz / 5566 kbps / 24-bit)Аудио 2: Russian (DTS-HD Master Audio, 7.1 / 48 kHz / 5482 kbps / 24-bit) (Авторский, Мадрид)Аудио 3: Russian (DTS, 5.1 / 48 kHz / 1509 kbps / 24-bit) (Полное дублирование)Аудио 4: Russian (AC3, 5.1 / 48 kHz / 448 kbps / 24-bit) (Многоголосый закадровый, Киномания)Аудио 5: English (DTS, 2.0, 192 kbps / 48 kHz / 24-bit)Аудио 6: English (DTS, 2.0, 192 kbps / 48 kHz / 24-bit)

    Cубтитры: Русские, АнглийскиеФормат субтитров: prerendered (IDX+SUB)

    Так же на диске / дополнительные материалы: Комментарии продюссера и режиссера DARREN's VIDEO DIARY THE TRAPS OF SAW IV THE PROPS OF SAW IV MUSIC VIDEO MOLOG DELETED SCENE Трейлеры, анонсы

    BD Info

    DISC INFO:

    Disc Title: Disc Size: 30 242 125 543 bytes Protection: AACS BD-Java: Yes BDInfo: 0.5.3

    PLAYLIST REPORT:

    Name: 00111.MPLS Length: 1:35:31 (h:m:s) Size: 23 304 302 592 bytes Total Bitrate: 32,53 Mbps

    VIDEO:

    Codec Bitrate Deion ----- ------- ----------- MPEG-4 AVC Video 16999 kbps 1080p / 23,976 fps / 16:9 / High Profile 4.1

    AUDIO:

    Codec Language Bitrate Deion ----- -------- ------- ----------- DTS-HD Master Audio English 5566 kbps 7.1 / 48 kHz / 5566 kbps / 24-bit (DTS Core: 5.1 / 48 kHz / 1509 kbps / 24-bit) DTS-HD Master Audio Russian 5482 kbps 7.1 / 48 kHz / 5482 kbps / 24-bit (DTS Core: 5.1 / 48 kHz / 1509 kbps / 24-bit) DTS Audio Russian 1509 kbps 5.1 / 48 kHz / 1509 kbps / 24-bit Dolby Digital Audio Russian 448 kbps 5.1 / 48 kHz / 448 kbps Dolby Digital Audio English 192 kbps 2.0 / 48 kHz / 192 kbps / DN -4dB / Dolby Surround Dolby Digital Audio English 192 kbps 2.0 / 48 kHz / 192 kbps / DN -4dB / Dolby Surround

    SUBTITLES:

    Codec Language Bitrate Deion ----- -------- ------- ----------- Presentation Graphics English 34,932 kbps Presentation Graphics Russian 23,122 kbps

    Пила 5 / Saw V (2008)

    Производство: США, КанадаГод выпуска: 2008 г.Жанр: Ужасы, Триллер, ДетективПродолжительность: 01:35:03

    Мировая премьера: 23 октября 2008Российская премьера: 30 октября 2008Дата выхода DVD: 27 ноября 2008Дата выхода Blu-Ray: 26 января 2009

    Перевод: Профессиональный (полное дублирование)Перевод 2: Авторский (одноголосый, закадровый) [Немахов]Оригинальный аудиопоток: Английский

    Режиссер: Дэвид Хэкл

    В ролях: Тобин Белл, Костас Мэндилор, Скотт Паттерсон, Бетси Расселл, Джули Бенц, Миган Гуд, Марк Ролстон, Карло Рота, Грег Брайк, Лаура ГордонОписание: Один из последователей маньяка-убийцы Пилы, Марк Хоффман, следуя заветам своего кровавого гуру, готовит очередную смертельную головоломку. Тем временем агент Страм начинает догадываться о связи Хоффмана с Пилой, и Хоффману приходится выйти на новую охоту, чтобы уничтожить все ниточки, ведущие к нему. Пятерых незнакомым друг с другом людей уже ждет жестокий урок командной игры на выживание - еще больше крови, еще изощреннее ловушки... Страм идет по следам Хоффмана, пытаясь докопаться до причин, по которым он присоединился к Пиле. Их ждет встреча лицом к лицу в преддверии неотвратимого и непредсказуемого финала.

    Качество видео: Blu-RayКонтейнер: BDMVСтандарт разрешения: 1080pВидео кодек: MPEG-4-AVCАудио кодек: DTSВидео: 1920x1080p, 23,976 fps, ~20997 kbpsАудио 1: English (DTS-HD Master Audio, 7.1 / 48 kHz / 5050 kbps / 24-bit)Аудио 2: Russian (DTS-HD Master Audio, 7.1 / 48 kHz / 5050 kbps / 24-bit) (Авторский, Немахов)Аудио 3: Russian (DTS, 5.1 / 48 kHz / 1509 kbps / 24-bit) (Полное дублирование)Аудио 4: English (DTS, 2.0, 224 kbps / 48 kHz / 24-bit)Аудио 5: English (DTS, 2.0, 224 kbps / 48 kHz / 24-bit)

    Cубтитры: Русские, АнглийскиеФормат субтитров: prerendered (IDX+SUB)

    Так же на диске / дополнительные материалы: director's commentary producers commentary the pendulum trap the cube trap the coffin trap the fatal five slicing the cube: nediting the cube trap theatrical trailer also from lionsgate MOLOG

    BD Info

    DISC INFO:

    Disc Title: Saw V (2008) Disc Size: 28 692 643 301 bytes Protection: AACS BD-Java: Yes BDInfo: 0.5.2

    PLAYLIST REPORT:

    Name: 00004.MPLS Size: 25 135 601 664 bytes Length: 1:35:03 (h:m:s) Total Bitrate: 35.25 Mbps Deion:

    VIDEO:

    Codec Bitrate Deion ----- ------- ----------- MPEG-4 AVC Video 20997 kbps 1080p / 23.976 fps / 16:9 / High Profile 4.1

    AUDIO:

    Codec Language Bitrate Deion ----- -------- ------- ----------- DTS-HD Master Audio English 5050 kbps 7.1 / 48 kHz / 5050 kbps / 24-bit (DTS Core: 5.1 / 48 kHz / 1509 kbps / 24-bit) DTS-HD Master Audio Russian 5050 kbps 7.1 / 48 kHz / 5050 kbps / 24-bit (DTS Core: 5.1 / 48 kHz / 1509 kbps / 24-bit) DTS Audio Russian 1509 kbps 5.1 / 48 kHz / 1509 kbps / 24-bit Dolby Digital Audio English 224 kbps 2.0 / 48 kHz / 224 kbps / Dolby Surround Dolby Digital Audio English 224 kbps 2.0 / 48 kHz / 224 kbps / Dolby Surround

    SUBTITLES:

    Codec Language Bitrate Deion ----- -------- ------- ----------- Presentation Graphics English 21.867 kbps Presentation Graphics Russian 19.281 kbps Presentation Graphics Russian 1.049 kbps

    Пила 6 / Saw VI (2009)

    Производство: США, КанадаГод выпуска: 2009 г.Жанр: Ужасы, Триллер, ДетективПродолжительность: 01:31:39

    Мировая премьера: 22 октября 2009Российская премьера: 39 октября 2009Дата выхода DVD: 26 ноября 2009Дата выхода Blu-Ray: 26 января 2010

    Перевод: Профессиональный (полное дублирование)Перевод 2: Авторский (одноголосый, закадровый) [Немахов]Оригинальный аудиопоток: Английский

    Режиссер: Кевин Гротерт

    В ролях: Тобин Белл, Костас Мэндилор, Марк Ролстон, Бетси Расселл, Шоуни Смит, Питер Аутербридж, Афена Карканис, Саманта Лемоул, Танедра Ховард, Марти МороОписание: Специальный агент Страм мертв и нет никаких сомнений в том, что детектив Хоффман является продолжателем дела Конструктора. Но когда ФБР садится ему на след, он вынужден вновь начать Игру, наконец-то расставляющую все точки над i в грандиозном плане Конструктора.

    Качество видео: Blu-RayКонтейнер: BDMVСтандарт разрешения: 1080pВидео кодек: MPEG-4-AVCАудио кодек: DTSВидео: 1920x1080p, 23,976 fps, 17996 kbpsАудио 1: English (DTS-HD Master Audio, 7.1 / 48 kHz / 5318 kbps / 24-bit)Аудио 2: Russian (DTS-HD Master Audio, 7.1 / 48 kHz / 4992 kbps / 24-bit) (Авторский, Немахов)Аудио 3: Russian (DTS, 5.1 / 48 kHz / 448 kbps / 24-bit) (Полное дублирование)Аудио 4: English (DTS, 2.0, 224 kbps / 48 kHz / 24-bit)Аудио 5: English (DTS, 2.0, 224 kbps / 48 kHz / 24-bit)Аудио 6: Ukrainian (DTS, 5.1 / 48 kHz / 448 kbps / 24-bit) (Украинский)

    Cубтитры: Русские, АнглийскиеФормат субтитров: prerendered (IDX+SUB)

    Так же на диске / дополнительные материалы: • Audio Commentary - With Kevin Greutert, Patrick Melton, and Marcus Dunstan. • The Traps of ' Saw VI' (HD, 9 min) • Jigsaw Revealed (HD, 6 min) • A Killer Maze: Making 'Saw': Game Over (HD, 10 min) • Music Videos (SD) • Theatrical Trailer (HD, 1 min) • Also From Lionsgate

    BD Info

    Disc Title: Saw VI (2009) Disc Size: 28 100 928 312 bytes Protection: AACS BD-Java: Yes BDInfo: 0.5.8

    Notes:

    BDINFO HOME:

    ******************** PLAYLIST: 00006.MPLS ********************

    [code] Total Video Title Codec Length Movie Size Disc Size Bitrate Bitrate Main Audio Track Secondary Audio Track ----- ------ ------- -------------- -------------- ------- ------- ------------------ --------------------- 00006.MPLS AVC 1:31:39 21 732 102 144 28 100 928 312 31,61 18,00 DTS-HD Master 7.1 5318Kbps (48kHz/24-bit) [/code]

    [code]

    DISC INFO:

    Disc Title: Saw VI (2009) Disc Size: 28 100 928 312 bytes Protection: AACS BD-Java: Yes BDInfo: 0.5.8

    PLAYLIST REPORT:

    Name: 00006.MPLS Length: 1:31:39.327 (h:m:s.ms) Size: 21 732 102 144 bytes Total Bitrate: 31,61 Mbps

    VIDEO:

    Codec Bitrate Deion ----- ------- ----------- MPEG-4 AVC Video 17996 kbps 1080p / 23,976 fps / 16:9 / High Profile 4.1

    AUDIO:

    Codec Language Bitrate Deion ----- -------- ------- ----------- DTS-HD Master Audio English 5318 kbps 7.1 / 48 kHz / 5318 kbps / 24-bit (DTS Core: 5.1 / 48 kHz / 1509 kbps / 24-bit) Dolby Digital Audio English 224 kbps 2.0 / 48 kHz / 224 kbps / DN -4dB / Dolby Surround Dolby Digital Audio English 224 kbps 2.0 / 48 kHz / 224 kbps / DN -4dB / Dolby Surround Dolby Digital Audio Russian 448 kbps 5.1 / 48 kHz / 448 kbps DTS-HD High-Res Audio Russian 4992 kbps 7.1 / 48 kHz / 4992 kbps / 24-bit (DTS Core: 5.1 / 48 kHz / 1509 kbps / 24-bit) Dolby Digital Audio Ukrainian 448 kbps 5.1 / 48 kHz / 448 kbps

    SUBTITLES:

    Codec Language Bitrate Deion ----- -------- ------- ----------- Presentation Graphics English 33,251 kbps Presentation Graphics Russian 22,102 kbps Presentation Graphics Russian 0,437 kbps

    FILES:

    Name Time In Length Size Total Bitrate ---- ------- ------ ---- ------------- 00312.M2TS 0:00:00.000 1:31:39.327 21 732 102 144 31 614

    CHAPTERS:

    Number Time In Length Avg Video Rate Max 1-Sec Rate Max 1-Sec Time Max 5-Sec Rate Max 5-Sec Time Max 10Sec Rate Max 10Sec Time Avg Frame Size Max Frame Size Max Frame Time ------ ------- ------ -------------- -------------- -------------- -------------- -------------- -------------- -------------- -------------- -------------- -------------- 1 0:00:00.000 0:06:05.990 21 027 kbps 37 414 kbps 00:05:45.720 29 240 kbps 00:05:14.814 27 825 kbps 00:05:09.892 109 613 bytes 292 151 bytes 00:02:01.412 2 0:06:05.990 0:06:18.795 20 282 kbps 29 307 kbps 00:07:01.629 26 884 kbps 00:10:20.786 26 061 kbps 00:09:57.847 105 741 bytes 346 866 bytes 00:08:01.731 3 0:12:24.785 0:04:33.982 20 671 kbps 27 682 kbps 00:15:56.121 25 515 kbps 00:15:52.117 24 315 kbps 00:15:47.112 107 771 bytes 296 920 bytes 00:12:43.888 4 0:16:58.767 0:03:33.922 19 381 kbps 35 251 kbps 00:16:58.767 27 464 kbps 00:17:34.344 25 522 kbps 00:17:33.427 101 044 bytes 284 717 bytes 00:17:42.061 5 0:20:32.689 0:03:55.485 16 267 kbps 26 032 kbps 00:20:45.702 23 876 kbps 00:20:48.163 23 478 kbps 00:20:43.242 84 808 bytes 227 295 bytes 00:20:45.327 6 0:24:28.175 0:08:49.654 17 969 kbps 37 453 kbps 00:28:28.081 30 075 kbps 00:28:24.953 27 726 kbps 00:26:35.010 93 680 bytes 321 480 bytes 00:29:21.259 7 0:33:17.829 0:03:33.630 17 361 kbps 26 350 kbps 00:35:42.849 23 967 kbps 00:35:28.126 22 257 kbps 00:35:25.414 90 511 bytes 295 661 bytes 00:35:43.599 8 0:36:51.459 0:04:22.804 15 575 kbps 21 223 kbps 00:39:31.452 18 816 kbps 00:36:51.459 18 589 kbps 00:36:51.459 81 199 bytes 236 345 bytes 00:37:04.722 9 0:41:14.263 0:06:59.377 16 201 kbps 24 687 kbps 00:43:56.925 22 710 kbps 00:43:52.963 21 346 kbps 00:43:51.879 84 463 bytes 272 207 bytes 00:44:05.684 10 0:48:13.640 0:04:13.670 19 383 kbps 38 269 kbps 00:48:25.027 32 959 kbps 00:48:24.276 32 143 kbps 00:48:23.275 101 053 bytes 312 027 bytes 00:52:27.310 11 0:52:27.310 0:02:35.738 29 360 kbps 37 442 kbps 00:53:33.210 34 523 kbps 00:53:29.789 32 847 kbps 00:54:51.288 153 071 bytes 349 539 bytes 00:53:21.239 12 0:55:03.049 0:06:17.210 20 854 kbps 37 728 kbps 00:55:18.898 33 870 kbps 00:55:03.049 31 506 kbps 00:55:03.049 108 722 bytes 400 522 bytes 00:55:19.607 13 1:01:20.259 0:06:52.161 20 106 kbps 38 335 kbps 01:06:11.676 26 248 kbps 01:06:08.798 24 392 kbps 01:06:24.522 104 822 bytes 302 978 bytes 01:06:12.593 14 1:08:12.421 0:07:15.393 16 107 kbps 33 400 kbps 01:15:22.935 23 354 kbps 01:15:19.932 22 119 kbps 01:08:17.218 83 972 bytes 253 942 bytes 01:15:23.685 15 1:15:27.814 0:05:23.239 18 156 kbps 37 191 kbps 01:20:40.418 27 018 kbps 01:16:46.727 23 988 kbps 01:16:46.727 94 657 bytes 312 943 bytes 01:17:49.790 16 1:20:51.054 0:10:48.272 11 280 kbps 28 835 kbps 01:24:22.515 23 645 kbps 01:24:20.180 22 465 kbps 01:24:18.136 58 812 bytes 287 031 bytes 01:23:10.527

    STREAM DIAGNOSTICS:

    File PID Type Codec Language Seconds Bitrate Bytes Packets ---- --- ---- ----- -------- -------------- -------------- ------------- ----- 00312.M2TS 4113 (0x1011) 0x1B AVC 5499,160 17 997 12 371 021 098 67 310 407 00312.M2TS 4352 (0x1100) 0x86 DTS-HD MA eng (English) 5499,160 5 318 3 655 744 720 20 725 470 00312.M2TS 4353 (0x1101) 0x81 AC3 eng (English) 5499,160 224 153 981 184 859 270 00312.M2TS 4354 (0x1102) 0x81 AC3 eng (English) 5499,160 224 153 981 184 859 270 00312.M2TS 4355 (0x1103) 0x81 AC3 rus (Russian) 5499,160 448 307 962 368 1 718 540 00312.M2TS 4356 (0x1104) 0x85 DTS-HD HR rus (Russian) 5499,160 4 992 3 431 593 984 19 591 432 00312.M2TS 4357 (0x1105) 0x81 AC3 ukr (Ukrainian) 5499,160 448 307 964 160 1 718 550 00312.M2TS 4608 (0x1200) 0x90 PGS eng (English) 5499,160 33 22 857 255 130 111 00312.M2TS 4609 (0x1201) 0x90 PGS rus (Russian) 5499,160 22 15 193 331 88 920 00312.M2TS 4610 (0x1202) 0x90 PGS rus (Russian) 5499,160 0 300 156 1 793

    [/code]

    QUICK SUMMARY:

    Disc Title: Saw VI (2009) Disc Size: 28 100 928 312 bytes Protection: AACS BD-Java: Yes Playlist: 00006.MPLS Size: 21 732 102 144 bytes Length: 1:31:39.327 Total Bitrate: 31,61 Mbps Video: MPEG-4 AVC Video / 17996 kbps / 1080p / 23,976 fps / 16:9 / High Profile 4.1 Audio: English / DTS-HD Master Audio / 7.1 / 48 kHz / 5318 kbps / 24-bit (DTS Core: 5.1 / 48 kHz / 1509 kbps / 24-bit) Audio: English / Dolby Digital Audio / 2.0 / 48 kHz / 224 kbps / DN -4dB / Dolby Surround Audio: English / Dolby Digital Audio / 2.0 / 48 kHz / 224 kbps / DN -4dB / Dolby Surround Audio: Russian / Dolby Digital Audio / 5.1 / 48 kHz / 448 kbps Audio: Russian / DTS-HD High-Res Audio / 7.1 / 48 kHz / 4992 kbps / 24-bit (DTS Core: 5.1 / 48 kHz / 1509 kbps / 24-bit) Audio: Ukrainian / Dolby Digital Audio / 5.1 / 48 kHz / 448 kbps Subtitle: English / 33,251 kbps Subtitle: Russian / 22,102 kbps Subtitle: Russian / 0,437 kbps

    Пила 7: Ловушки Оживают / Saw 3D: The Final Chapter (2010)

    Производство: США, КанадаГод выпуска: 2010 г.Жанр: Ужасы, Триллер, ДетективПродолжительность: 01:30:11

    Мировая премьера: 29 октября 2010Российская премьера: 29 октября 2010Дата выхода DVD: 25 ноября 2010Дата выхода Blu-Ray: 14 января 2011

    Перевод: Профессиональный (полное дублирование)Оригинальный аудиопоток: Английский

    Режиссер: Кевин Гротерт

    В ролях: Костас Мэндилор, Шон Патрик Флэнери, Тобин Белл, Кэри Элвис, Бетси Расселл, Дин Армстронг, Чэд Донелла, Джина Холден, Честер Беннингтон, Ребекка МаршаллОписание: Жертвы Пилы, выжившие в предыдущих испытаниях, обращаются за психологической помощью к товарищу по несчастью Бобби Дагену. Но когда его собственные темные тайны всплывают на свет, развязывается новая волна террора.

    Качество видео: Blu-RayКонтейнер: BDMVСтандарт разрешения: 1080pВидео кодек: MPEG-4-AVCАудио кодек: DTSВидео: 1920x1080p, 23,976 fps, ~26965 kbpsАудио 1: English (DTS-HD Master Audio, 7.1 / 48 kHz / 5550 kbps / 24-bit)Аудио 2: Russian (DTS, 5.1 / 48 kHz / 4226 kbps / 24-bit) (Полное дублирование)Аудио 3: English (DTS, 2.0, 224 kbps / 48 kHz / 24-bit)Аудио 4: English (DTS, 2.0, 224 kbps / 48 kHz / 24-bit)

    Cубтитры: Русские, АнглийскиеФормат субтитров: prerendered (IDX+SUB)

    Так же на диске / дополнительные материалы: • Audio Commentaries: Producers Oren Koules, Peter Block, and Mark Burg man track one while Writers Patrick Melton and Marcus Dunstan handle the duties on track two. • Deleted and Extended Scenes (1080p, 13:45) • Music Videos (1080p, 20:48) • 52 Ways to Die (1080p, 14:15) • Saw 3D Theatrical Trailer (1080p, 0:58) • Also From Lionsgate (1080p, 7:14) • Bookmark Functionality • LG Live

    BD Info

    Disc Title: Saw VII (2010) Disc Size: 35 270 443 525 bytes Protection: AACS BD-Java: Yes BDInfo: 0.5.8

    Notes:

    BDINFO HOME:

    ******************** PLAYLIST: 00637.MPLS ********************

    [code] Total Video Title Codec Length Movie Size Disc Size Bitrate Bitrate Main Audio Track Secondary Audio Track ----- ------ ------- -------------- -------------- ------- ------- ------------------ --------------------- 00637.MPLS AVC 1:30:11 26 688 301 056 35 270 443 525 39,46 26,96 DTS-HD Master 7.1 5550Kbps (48kHz/24-bit) [/code]

    [code]

    DISC INFO:

    Disc Title: Saw VII (2010) Disc Size: 35 270 443 525 bytes Protection: AACS BD-Java: Yes BDInfo: 0.5.8

    PLAYLIST REPORT:

    Name: 00637.MPLS Length: 1:30:11.197 (h:m:s.ms) Size: 26 688 301 056 bytes Total Bitrate: 39,46 Mbps

    VIDEO:

    Codec Bitrate Deion ----- ------- ----------- MPEG-4 AVC Video 26965 kbps 1080p / 23,976 fps / 16:9 / High Profile 4.1

    AUDIO:

    Codec Language Bitrate Deion ----- -------- ------- ----------- DTS-HD Master Audio English 5550 kbps 7.1 / 48 kHz / 5550 kbps / 24-bit (DTS Core: 5.1 / 48 kHz / 1509 kbps / 24-bit) DTS-HD Master Audio Russian 4226 kbps 5.1 / 48 kHz / 4226 kbps / 24-bit (DTS Core: 5.1 / 48 kHz / 1509 kbps / 24-bit) Dolby Digital Audio English 224 kbps 2.0 / 48 kHz / 224 kbps / DN -4dB / Dolby Surround Dolby Digital Audio English 224 kbps 2.0 / 48 kHz / 224 kbps / DN -4dB / Dolby Surround

    SUBTITLES:

    Codec Language Bitrate Deion ----- -------- ------- ----------- Presentation Graphics English 25,322 kbps Presentation Graphics English 25,322 kbps Presentation Graphics Russian 24,647 kbps

    FILES:

    Name Time In Length Size Total Bitrate ---- ------- ------ ---- ------------- 00000.M2TS 0:00:00.000 1:30:11.197 26 688 301 056 39 456

    CHAPTERS:

    Number Time In Length Avg Video Rate Max 1-Sec Rate Max 1-Sec Time Max 5-Sec Rate Max 5-Sec Time Max 10Sec Rate Max 10Sec Time Avg Frame Size Max Frame Size Max Frame Time ------ ------- ------ -------------- -------------- -------------- -------------- -------------- -------------- -------------- -------------- -------------- -------------- 1 0:00:00.000 0:05:13.771 25 126 kbps 33 450 kbps 00:00:43.752 30 085 kbps 00:05:04.429 29 968 kbps 00:04:59.382 130 978 bytes 385 474 bytes 00:04:39.779 2 0:05:13.771 0:07:45.631 28 104 kbps 31 880 kbps 00:10:15.156 30 110 kbps 00:06:48.157 29 963 kbps 00:08:59.914 146 523 bytes 372 942 bytes 00:07:45.214 3 0:12:59.403 0:04:18.383 29 106 kbps 32 293 kbps 00:15:54.703 30 178 kbps 00:15:35.517 30 002 kbps 00:13:48.369 151 746 bytes 392 927 bytes 00:13:58.337 4 0:17:17.786 0:04:51.249 28 366 kbps 34 803 kbps 00:17:49.234 30 333 kbps 00:17:45.230 29 953 kbps 00:18:58.345 147 885 bytes 368 846 bytes 00:19:24.955 5 0:22:09.036 0:05:21.821 24 871 kbps 33 685 kbps 00:23:07.511 30 469 kbps 00:23:03.465 29 649 kbps 00:22:58.502 129 664 bytes 315 065 bytes 00:24:52.949 6 0:27:30.857 0:08:38.226 28 882 kbps 33 198 kbps 00:32:13.473 30 637 kbps 00:32:09.469 30 024 kbps 00:32:46.756 150 578 bytes 399 875 bytes 00:29:19.924 7 0:36:09.083 0:06:57.708 25 639 kbps 34 579 kbps 00:37:33.584 30 792 kbps 00:37:29.580 29 878 kbps 00:37:42.927 133 670 bytes 355 346 bytes 00:42:39.014 8 0:43:06.792 0:04:50.456 25 868 kbps 31 941 kbps 00:46:13.020 30 198 kbps 00:44:19.698 29 972 kbps 00:45:44.950 134 864 bytes 413 979 bytes 00:46:14.021 9 0:47:57.249 0:04:06.663 29 015 kbps 31 331 kbps 00:51:31.379 30 115 kbps 00:50:53.049 29 940 kbps 00:48:38.165 151 270 bytes 338 938 bytes 00:51:23.830 10 0:52:03.912 0:05:09.434 28 779 kbps 31 612 kbps 00:53:04.389 30 147 kbps 00:53:54.981 29 981 kbps 00:55:14.352 150 038 bytes 380 670 bytes 00:54:00.695 11 0:57:13.346 0:05:59.484 29 378 kbps 34 023 kbps 01:02:02.176 30 403 kbps 01:01:27.934 30 153 kbps 01:01:22.929 153 164 bytes 391 605 bytes 01:02:41.758 12 1:03:12.830 0:07:20.273 29 204 kbps 34 995 kbps 01:08:49.542 30 723 kbps 01:08:45.538 30 325 kbps 01:08:40.533 152 254 bytes 422 579 bytes 01:07:19.201 13 1:10:33.103 0:03:44.891 29 651 kbps 33 361 kbps 01:12:16.123 30 514 kbps 01:12:12.119 30 179 kbps 01:12:07.114 154 585 bytes 386 366 bytes 01:14:00.644 14 1:14:17.995 0:04:47.870 29 193 kbps 32 211 kbps 01:18:41.091 30 239 kbps 01:15:11.757 29 952 kbps 01:17:08.749 152 198 bytes 383 308 bytes 01:15:49.378 15 1:19:05.866 0:04:46.327 27 898 kbps 35 519 kbps 01:22:53.009 30 416 kbps 01:20:55.308 30 123 kbps 01:20:50.303 145 449 bytes 550 799 bytes 01:23:47.230 16 1:23:52.193 0:06:19.003 14 309 kbps 33 784 kbps 01:24:32.567 30 629 kbps 01:24:28.563 30 289 kbps 01:24:23.558 74 610 bytes 443 743 bytes 01:24:49.834

    STREAM DIAGNOSTICS:

    File PID Type Codec Language Seconds Bitrate Bytes Packets ---- --- ---- ----- -------- -------------- -------------- ------------- ----- 00000.M2TS 4113 (0x1011) 0x1B AVC 5411,114 26 965 18 238 786 210 99 201 772 00000.M2TS 4352 (0x1100) 0x86 DTS-HD MA eng (English) 5411,114 5 550 3 754 097 200 21 250 320 00000.M2TS 4353 (0x1101) 0x86 DTS-HD MA rus (Russian) 5411,114 4 226 2 858 505 720 16 378 603 00000.M2TS 4354 (0x1102) 0x81 AC3 eng (English) 5411,114 224 151 515 392 845 510 00000.M2TS 4355 (0x1103) 0x81 AC3 eng (English) 5411,114 224 151 515 392 845 510 00000.M2TS 4608 (0x1200) 0x90 PGS eng (English) 5411,114 25 17 128 081 100 321 00000.M2TS 4609 (0x1201) 0x90 PGS eng (English) 5411,114 25 17 128 081 100 321 00000.M2TS 4610 (0x1202) 0x90 PGS rus (Russian) 5411,114 25 16 671 011 97 913

    [/code]

    QUICK SUMMARY:

    Disc Title: Saw VII (2010) Disc Size: 35 270 443 525 bytes Protection: AACS BD-Java: Yes Playlist: 00020.MPLS Size: 69 838 848 bytes Length: 0:00:22.230 Total Bitrate: 25,13 Mbps Video: MPEG-2 Video / 23322 kbps / 1080p / 23,976 fps / 16:9 Audio: English / Dolby Digital Audio / 5.1 / 48 kHz / 640 kbps / DN -4dB

    Релиз: UnSlayeR

    Soundtrack ко всем частям франшизы MP3: http://rutor.org/torrent/253734/Soundtrack ко всем частям франшизы FLAC: http://rutor.org/torrent/254433/Пила 3 Расширенная Режиссерская Версия (02:00:50): - http://rutor.org/torrent/465315/

  • НЕ УХОДИТЕ С РАЗДАЧИ НАРОД ПОСЛЕ СКАЧИВАНИЯ ХОТЯ БЫ 1 МЕСЯЦ СИДИРУЙТЕ, А ТО УМРЕТ ТОРРЕНТ!!!
  • main-rutor.org


    Смотрите также