Побег из тюрьмы скачать торрент 2008


1-22 + Финальный побег / Final Break [2008 HDRip] MVO скачать через торрент

Раздают: 1 [ 0 KB/s ]
Размер: 8.22 GB | Добавлен: 3 года 10 мес. назад | Торрент скачан:465 раз
Реклама Дарим 3000 рублей за регистрацию, не упусти свой шанс получить шикарный бонус!!!

09-12-2013 22:08 Побег из тюрьмы Скачать торрент  

Побег из тюрьмы / Prison Break«Совершить побег - не значит убежать...»Сезон: 4 | Серий: 22 из 22 Год выпуска: 2008Страна: СШАЖанр: Боевик, ДрамаПродолжительность: ~00:44:00Перевод: Профессиональный (многоголосый, закадровый) - С.Р.И.Русские субтитры: нетСубтитры: отсутствуютРежиссер: Пол Шеринг / Paul ScheuringВ ролях: Вентворт Миллер /Wentworth Miller/, Доминик Пёрселл /Dominic Purcell/, Сара Уэйн Кэллиc /Sarah Wayne Callies/, Амори Ноласко /Amaury Nolasco/, Роберт Неппер /Robert Knepper/, Рокмонд Дамбер /Rockmond Dunbar/, Уэйд Уильямс /Wade Williams/, Маршалл Олмэн /Marshall Allman/, Пол Адельштейн /Paul Adelstein/, Питер Стормаре /Peter Stormare/, Робин Танни /Robin Tunney/ Майкл и Линкольн снова готовы сплотить свои усилия в борьбе против Компании.Братья объединяются с правительственным агентом, чтобы собрать сторонников своей борьбы. В список сторонников войдут известные нам персонажи – Махоуни, Беллик, и, конечно же, Сукре. И несмотря на всё нежелание братьев, им придется вновь принять в свои ряды Ти-Бэга, который сам о том не подозревая, стал обладателем жизненно важной для борьбы с Компанией улики.The Final Break - это полнометражный фильм с независимым сюжетом. События повествуют о тех 3ех (6ти? 9ти?) месяцах, которые авторы сериала пропустили в конце финальной серии. Качество: HDRipФормат: AVIВидео кодек: XviDВидео: 656x368 (1.78:1), 23.976 fps, XviD build 50 ~980 kbps avg, 0.17 bit/pixelАудио: MP3 , 48 kHz, MPEG Layer 3, 2 ch, ~128.00 kbps avgВсе раздачи сериала | Сэмпл | КиноПоиск | ImDB

01. Сцилла (Scylla)02. Взлом и проникновение (Breaking and Entering)03. Сбой (Shut Down)04. Орлы и Ангелы (Eagles and Angels)05. Сейф (Safe and Sound)06. Один за всех (Blow Out)07. Напролом (Five the Hard Way)08. Цена (The Price)09. Величие достигнуто (Greatness achieved)10. Легенда (The Legend)11. Тихий бунт (Quiet Riot)12. Кидалово (Selfless)13. Сделка (Deal or No Deal)14. Ничего личного (Just Business)15. Погружение (Going Under) [44:04]16. Солнечный штат (The Sunshine State)17. Весь в маму (The Mother Lode)18. Противостояние (Versus)19. Сукин сын (S.O.B.)20. Казаки-Разбойники (Cowboys and Indians)21. Цена обмена (Rate of Exchange)22. Отмотал срок (Killing Your Number)Финальный побег - Final Break

GeneralComplete name : D:FilmsСериалыPrison Break (All Seasons 1-4)Prison Break - 4 сезонPrison.Break.Final.Break.aviFormat : AVIFormat/Info : Audio Video InterleaveFile size : 696 MiBDuration : 1h 29mnOverall bit rate : 1 092 KbpsWriting application : VirtualDubMod 1.5.10.2 (build 2540/release)Writing library : VirtualDubMod build 2540/release

VideoID : 0Format : MPEG-4 VisualFormat profile : Advanced [email protected] settings, BVOP : 2Format settings, QPel : NoFormat settings, GMC : No warppointsFormat settings, Matrix : CustomCodec ID : XVIDCodec ID/Hint : XviDDuration : 1h 29mnBit rate : 955 KbpsWidth : 656 pixelsHeight : 368 pixelsDisplay aspect ratio : 16:9Frame rate : 23.976 fpsColor space : YUVChroma subsampling : 4:2:0Bit depth : 8 bitsScan type : ProgressiveCompression mode : LossyBits/(Pixel*Frame) : 0.165Stream size : 608 MiB (87%)Writing library : XviD 1.2.1 (UTC 2008-12-04)

AudioID : 1Format : MPEG AudioFormat version : Version 1Format profile : Layer 3Codec ID : 55Codec ID/Hint : MP3 Duration : 1h 29mnBit rate mode : ConstantBit rate : 128 KbpsChannel count : 2 channelsSampling rate : 48.0 KHzCompression mode : LossyStream size : 81.6 MiB (12%)Alignment : Aligned on interleavesInterleave, duration : 42 ms (1.00 video frame)Interleave, preload duration : 504 msWriting library : LAME3.98rEncoding settings : -m s -V 4 -q 2 -lowpass 17 -b 128

Не забываем говорить "Спасибо!" Скачать Побег из тюрьмы через торрент http://linkme.ufanet.ru/images/d2df8aa264c6a92bb614fcfcb04c610e.png Скачать фильм Побег из тюрьмы через торрент бесплантно в хорошем качестве В ролях: Вентворт Миллер /Wentworth Miller/, Доминик Пёрселл /Dominic Purcell/, Сара Уэйн Кэллиc /Sarah Wayne Callies/, Амори Ноласко ... 2013-12-09 22:08 10 10 25

Loading...

Loading...

Рекламный пират

10-12-2013 05:58 Побег из тюрьмы Скачать торрент  

офигительный фильм я смотрел на одном дыхание

Не злоупотребляем смайлами!Модератор.

10-12-2013 08:29 Побег из тюрьмы Скачать торрент  

Не уходите с раздачи в ближайшие 4 дня пожалуйста

10-12-2013 10:19 Побег из тюрьмы Скачать торрент  

Не забываемый сериал!

10-12-2013 12:20 Побег из тюрьмы Скачать торрент  

Googlemer2222Я компьютер не буду выключать 4 дня спешл фо ю

30-08-2015 14:55 Побег из тюрьмы Скачать торрент  

Встаньте пожалуйста на раздачу.....Уже неделю не могу скачать....

07-09-2016 20:01 Побег из тюрьмы Скачать торрент  

10-01-2017 11:34 Побег из тюрьмы Скачать торрент  

Ребята, помогите скачать, встаньте на раздачу... А то три сезона скачал на легке за пару часов, а четвертый уже полмесяца никак не могу скачать

07-07-2017 14:22 Побег из тюрьмы Скачать торрент  

раздачу плиииииз

Pекламный агент PB

Дорогой пользователь! Огромная просьба, поблагодарите релизера, оцените раздачу и оставьте свои комментарий, если Вы скачали Побег из тюрьмы через торрент бесплатно! Внесите свою лепту в развитие PiratBit!

Комментировать посты могут только пользователи прошедшие не сложную регистрацию

Побег из тюрьмы через торрент Скачать бесплатно Побег из тюрьмы Побег из тюрьмы скачать торрент Побег из тюрьмы смотреть онлайн Cкачать фильм Побег из тюрьмы бесплатно Побег из тюрьмы скачать торрент в хорошем качестве Побег из тюрьмы смотреть онлайн бесплатно в хорошем качестве

Вы не можете начинать темыВы не можете отвечать на сообщенияВы не можете редактировать свои сообщенияВы не можете удалять свои сообщенияВы не можете голосовать в опросахВы не можете прикреплять файлы к сообщениямВы можете скачивать файлы

piratbit.ru

Побег из тюрьмы / Prison Break [ Сериал HDTVRip ] скачать через торрент

Качают: 1 [ 0 KB/s ]
Размер: 38.69 GB | Добавлен: 7 лет назад | Торрент скачан:1118 раз
Реклама Дарим 3000 рублей за регистрацию, не упусти свой шанс получить шикарный бонус!!!

18-10-2010 17:56 Побег из тюрьмы Скачать торрент  

Побег из тюрьмы / Prison Break(1-4 сезон)Год выпуска: (2005-2009)Страна: СШАЖанр: Сериал,Детектив,Драма,ПриключенияПродолжительность: 80 серий по 43 минутыПеревод: Профессиональный (двухголосый)Режиссер: Пол Шойринг, Брэд Тернер

В ролях: Доминик Пёселл, Уэнтворф Миллер, Амори Ноласко, Уэйд Уильямс, Роберт Неппэ, Крис Вэнс, Роберт Уиздом, Дэйнэй Гарсиа, Джоуди Линн О’Киф, Уильям Фихнер

Описание: История о двух братьях. Старший - Линкольн Бэрроуз, парень неблагополучный, бывший наркоман - находится под стражей в тюрьме строгого режима “Фокс Ривер” в ожидании смертной казни за убийство брата вице-президента. Разумеется, он этого убийства не совершал. Поэтому младший брат Майкл Скофилд решает спасти своего брата и устроить побег из тюрьмы. Вот только для реализации плана Майкл устраивает фальшивое ограбление банка, отказывается от адвоката и сам садится в ту же тюрьму, где ждет казни его брат. В свое время он он работал в фирме, которая занималась планированием объекта “Фокс Ривер” и знает немало интересных особенностей всех помещений. Вся необходимая информация всегда находится при Майкле, поскольку перед отправкой на тюремные нары он сделал себе впечатляющее тату на теле. В то время как Майкл работает над выполнением плана в тюрьме, знакомясь с местными авторитетами и готовя побег века, подруга братьев - адвокат Вероника Донован занимается собственным расследованием убийства вице-президента. Она пытается выяснить, кто же подставил Линкольна и кто стоит за чередой убийств, связанных с этим делом.

Качество: HDTVRipФормат: AVIВидео кодек: XviDАудио кодек: AC3Видео: 720x400 (1.80:1), 23.976 fps, ~1652 kbps avg, 0.24 bit/pixelАудио: 48 kHz, 3/2 (L,C,R,l,r) + LFE ch, ~384.00 kbps avg

Скачать Побег из тюрьмы через торрент http://torrents.net.ua/imdb/img/tt0455275.gif Скачать фильм Побег из тюрьмы через торрент бесплантно в хорошем качестве Описание: История о двух братьях. Старший - Линкольн Бэрроуз, парень неблагополучный, бывший наркоман - находится под стражей в тюрьме ... 2010-10-18 17:56 10 10 20

Loading...

Loading...

Последний раз редактировалось: Чупачупсик (2010-11-16 15:52), всего редактировалось 1 раз

Рекламный пират

18-10-2010 18:04 Побег из тюрьмы Скачать торрент  

Сериал СУПЕР!!! Посмотрю 2-й раз ........ СПАСИБО!!!

18-10-2010 18:44 Побег из тюрьмы Скачать торрент  

найди отличия:

18-10-2010 19:33 Побег из тюрьмы Скачать торрент  

Сериал ваще отпад.....Посмотрел все 4 сезона, а теперь хочется 5-й сезон, но его скорее всего не будет((((((

18-10-2010 19:35 Побег из тюрьмы Скачать торрент  

AAVLAEА разве эти сериалы одинаковые по смыслу???Я просто русский побег ещё не смотрел)

18-10-2010 20:06 Побег из тюрьмы Скачать торрент  

на скока я знаю, наш копия иностранного, тока с русскими зонами! ))

18-10-2010 20:28 Побег из тюрьмы Скачать торрент  

pav2995 писал(а):

AAVLAEА разве эти сериалы одинаковые по смыслу???Я просто русский побег ещё не смотрел)

Прочти описание фильмов, и смотреть не надо :

Молодой талантливый инженер успешной строительной компании Алексей Чернов решается на абсурдный поступок: ограбление банка. Алексея арестовывают и сажают в тюрьму неподалеку от Москвы. В этой тюрьме содержится его родной брат Кирилл Панин, из-за которого Государственная Дума РФ пошла на отмену моратория на смертную казнь: Кирилл убил министра финансов. Алексей верит в то, что Кирилл невиновен и что его подставили. Он встречается с братом в тюрьме и обещает устроить ему побег…

История о двух братьях. Старший - Линкольн Бэрроуз, парень неблагополучный, бывший наркоман - находится под стражей в тюрьме строгого режима “Фокс Ривер” в ожидании смертной казни за убийство брата вице-президента. Разумеется, он этого убийства не совершал. Поэтому младший брат Майкл Скофилд решает спасти своего брата и устроить побег из тюрьмы. Вот только для реализации плана Майкл устраивает фальшивое ограбление банка, отказывается от адвоката и сам садится в ту же тюрьму, где ждет казни его брат. В свое время он он работал в фирме, которая занималась планированием объекта “Фокс Ривер” и знает немало интересных особенностей всех помещений. Вся необходимая информация всегда находится при Майкле, поскольку перед отправкой на тюремные нары он сделал себе впечатляющее тату на теле. В то время как Майкл работает над выполнением плана в тюрьме, знакомясь с местными авторитетами и готовя побег века, подруга братьев - адвокат Вероника Донован занимается собственным расследованием убийства вице-президента. Она пытается выяснить, кто же подставил Линкольна и кто стоит за чередой убийств, связанных с этим делом.

19-10-2010 05:41 Побег из тюрьмы Скачать торрент  

сериал ваще супер)))все сезон видал)))русский побег-это тупой ремейк))

19-10-2010 05:48 Побег из тюрьмы Скачать торрент  

Asker писал(а):

сериал ваще супер)))все сезон видал)))русский побег-это тупой ремейк))

Во истину, слова бога! Зря русскую версию сделали, её смотреть не возможно, полный отстой. А вот Американская во истину прекрасна!

Pекламный агент PB

19-10-2010 10:51 Побег из тюрьмы Скачать торрент  

очень захватывает

02-11-2010 08:57 Побег из тюрьмы Скачать торрент  

на мой взгляд лучший сериал "вообще" а русский агалог полное УГ... не сморите, не портите апечатление от Prison Break...

25-11-2010 06:23 Побег из тюрьмы Скачать торрент  

Ну поднараздайте плиз!!!!!!!!!!!!!!!!!!!!!!!!!!!!!!!!!!!!!!!!!!!!!!!!!!!

01-12-2010 17:54 Побег из тюрьмы Скачать торрент  

пздц...поднавалите раздачу!

08-12-2010 04:13 Побег из тюрьмы Скачать торрент  

фильм класный...но помогить!раздайте плизз!!!

30-12-2010 18:58 Побег из тюрьмы Скачать торрент  

Перевод и правда двухголосый или дублированный?

31-12-2010 07:12 Побег из тюрьмы Скачать торрент  

написано что двухголосный, значит он и есть

19-01-2011 19:51 Побег из тюрьмы Скачать торрент  

Станьте кто-нибудь на раздачу, пожалуйста.

Pекламный агент PB

14-02-2011 08:09 Побег из тюрьмы Скачать торрент  

Пожайлуста встаньте на раздачу!

14-03-2011 12:19 Побег из тюрьмы Скачать торрент  

встаньте на раздачу вы чё оупели там раздавать нада а насчёт версий суперская оригинал т.е американский

30-05-2011 15:36 Побег из тюрьмы Скачать торрент  

Встаньте на раздачу пожалуйста!

09-06-2011 16:55 Побег из тюрьмы Скачать торрент  

Встаньте кто нить на раздачу! =)

07-09-2011 02:54 Побег из тюрьмы Скачать торрент  

Перевод: Профессиональный (двухголосый)

Многоголосый тут. Только что досмотрел 3 сезона. Начал смотреть 4ый. Так вот, в 4ом переводили другие ребята, а я так привык к предыдущим. Ну это все равно не портит впечатлений от просмотра. Нефиговый тут сюжетец, рекомендую.

09-09-2011 19:46 Побег из тюрьмы Скачать торрент  

хотелось бы скачать, да скорости нет

15-09-2011 13:25 Побег из тюрьмы Скачать торрент  

24-09-2011 10:46 Побег из тюрьмы Скачать торрент  

сериал очень понравился, смотрел онлайн, до сих пор скачать пытаюсь. Конец грустный слишком!

Pекламный агент PB

Дорогой пользователь! Огромная просьба, поблагодарите релизера, оцените раздачу и оставьте свои комментарий, если Вы скачали Побег из тюрьмы через торрент бесплатно! Внесите свою лепту в развитие PiratBit!

Комментировать посты могут только пользователи прошедшие не сложную регистрацию

Побег из тюрьмы через торрент Скачать бесплатно Побег из тюрьмы Побег из тюрьмы скачать торрент Побег из тюрьмы смотреть онлайн Cкачать фильм Побег из тюрьмы бесплатно Побег из тюрьмы скачать торрент в хорошем качестве Побег из тюрьмы смотреть онлайн бесплатно в хорошем качестве

Вы не можете начинать темыВы не можете отвечать на сообщенияВы не можете редактировать свои сообщенияВы не можете удалять свои сообщенияВы не можете голосовать в опросахВы не можете прикреплять файлы к сообщениямВы можете скачивать файлы

piratbit.ru

rutor.org :: Побег из тюрьмы / Prison Break [S03] (2007-2008) BDRip 720p от New-Team

General Unique ID : 179149954409914769766801744773768945683 (0x86C706B34C3847E6B6F3653C4EDE2013) Complete name : D:Docume and SettingsAdminМои документыDownloadsPrison Break.Season.3.BDRip_720pPrison Break.s03.e01.720p.BDRip.mkv Format : Matroska Format version : Version 1 File size : 1.44 GiB Duration : 43mn 5s Overall bit rate : 4 781 Kbps Encoded date : UTC 2010-04-02 19:18:54 Writing application : mkvmerge v2.2.0 ('Turn It On Again') built on Mar 4 2008 12:58:26 Writing library : libebml v0.7.7 + libmatroska v0.8.1

Video ID : 1 Format : AVC Format/Info : Advanced Video Codec Format profile : [email protected] Format settings, CABAC : Yes Format settings, ReFrames : 5 frames Codec ID : V_MPEG4/ISO/AVC Duration : 43mn 5s Bit rate : 4 395 Kbps Width : 1 280 pixels Height : 720 pixels Display aspect ratio : 16:9 Frame rate : 23.976 fps Color space : YUV Chroma subsampling : 4:2:0 Bit depth : 8 bits Scan type : Progressive Bits/(Pixel*Frame) : 0.199 Stream size : 1.29 GiB (90%) Title : Prison Break.s03.e01.2007 Writing library : x264 core 80 r1376M 3feaec2 Encoding settings : cabac=1 / ref=5 / deblock=1:-1:-1 / analyse=0x3:0x133 / me=hex / subme=7 / psy=1 / psy_rd=1.0:0.0 / mixed_ref=1 / me_range=16 / chroma_me=1 / trellis=2 / 8x8dct=1 / cqm=0 / deadzone=21,11 / fast_pskip=0 / chroma_qp_offset=-2 / threads=6 / sliced_threads=0 / nr=0 / decimate=1 / mbaff=0 / constrained_intra=0 / bframes=3 / b_pyramid=0 / b_adapt=2 / b_bias=0 / direct=1 / wpredb=1 / wpredp=2 / keyint=250 / keyint_min=25 / scenecut=40 / rc_lookahead=40 / rc=2pass / mbtree=1 / bitrate=4395 / ratetol=1.0 / qcomp=0.60 / qpmin=10 / qpmax=51 / qpstep=4 / cplxblur=20.0 / qblur=0.5 / ip_ratio=1.40 / aq=1:1.00 Language : English Default : Yes Forced : No

Audio ID : 2 Format : AC-3 Format/Info : Audio Coding 3 Mode extension : CM (complete main) Format settings, Endianness : Big Codec ID : A_AC3 Duration : 43mn 5s Bit rate mode : Constant Bit rate : 384 Kbps Channel(s) : 6 channels Channel positions : Front: L C R, Side: L R, LFE Sampling rate : 48.0 KHz Bit depth : 16 bits Compression mode : Lossy Stream size : 118 MiB (8%) Title : AC3 5.1ch 384kbps (Дубляж, Ren-TV) Language : Russian Default : Yes Forced : No

General Unique ID : 212669160623630737414700012132533450219 (0x9FFE9728FE911B40850F684ECE76B5EB) Complete name : D:Docum and SettingsAdminМои документыDownloadsPrison Break.Season.3.BDRip_720pPrison Break.s03.e02.720p.BDRip.mkv Format : Matroska Format version : Version 1 File size : 1.44 GiB Duration : 43mn 53s Overall bit rate : 4 694 Kbps Encoded date : UTC 2010-04-15 15:07:50 Writing application : mkvmerge v2.2.0 ('Turn It On Again') built on Mar 4 2008 12:58:26 Writing library : libebml v0.7.7 + libmatroska v0.8.1

Video ID : 1 Format : AVC Format/Info : Advanced Video Codec Format profile : [email protected] Format settings, CABAC : Yes Format settings, ReFrames : 5 frames Codec ID : V_MPEG4/ISO/AVC Duration : 43mn 53s Bit rate : 4 308 Kbps Width : 1 280 pixels Height : 720 pixels Display aspect ratio : 16:9 Frame rate : 23.976 fps Color space : YUV Chroma subsampling : 4:2:0 Bit depth : 8 bits Scan type : Progressive Bits/(Pixel*Frame) : 0.195 Stream size : 1.29 GiB (90%) Title : Prison Break.s03.e02.2007 Writing library : x264 core 80 r1376M 3feaec2 Encoding settings : cabac=1 / ref=5 / deblock=1:-1:-1 / analyse=0x3:0x133 / me=hex / subme=7 / psy=1 / psy_rd=1.0:0.0 / mixed_ref=1 / me_range=16 / chroma_me=1 / trellis=2 / 8x8dct=1 / cqm=0 / deadzone=21,11 / fast_pskip=0 / chroma_qp_offset=-2 / threads=6 / sliced_threads=0 / nr=0 / decimate=1 / mbaff=0 / constrained_intra=0 / bframes=3 / b_pyramid=0 / b_adapt=2 / b_bias=0 / direct=1 / wpredb=1 / wpredp=2 / keyint=250 / keyint_min=25 / scenecut=40 / rc_lookahead=40 / rc=2pass / mbtree=1 / bitrate=4308 / ratetol=1.0 / qcomp=0.60 / qpmin=10 / qpmax=51 / qpstep=4 / cplxblur=20.0 / qblur=0.5 / ip_ratio=1.40 / aq=1:1.00 Language : English Default : Yes Forced : No

Audio ID : 2 Format : AC-3 Format/Info : Audio Coding 3 Mode extension : CM (complete main) Format settings, Endianness : Big Codec ID : A_AC3 Duration : 43mn 53s Bit rate mode : Constant Bit rate : 384 Kbps Channel(s) : 6 channels Channel positions : Front: L C R, Side: L R, LFE Sampling rate : 48.0 KHz Bit depth : 16 bits Compression mode : Lossy Stream size : 121 MiB (8%) Title : AC3 5.1ch 384kbps (Дубляж, Ren-TV) Language : Russian Default : Yes Forced : No

General Unique ID : 247792054130325512922841940893378036569 (0xBA6B03820B8FA62A809A52F2F2D44359) Complete name : D:Docume and SettingsAdminМои документыDownloadsPrison Break.Season.3.BDRip_720pPrison Break.s03.e03.720p.BDRip.mkv Format : Matroska Format version : Version 1 File size : 1.44 GiB Duration : 44mn 0s Overall bit rate : 4 682 Kbps Encoded date : UTC 2010-04-16 01:24:55 Writing application : mkvmerge v2.2.0 ('Turn It On Again') built on Mar 4 2008 12:58:26 Writing library : libebml v0.7.7 + libmatroska v0.8.1

Video ID : 1 Format : AVC Format/Info : Advanced Video Codec Format profile : [email protected] Format settings, CABAC : Yes Format settings, ReFrames : 5 frames Codec ID : V_MPEG4/ISO/AVC Duration : 44mn 0s Bit rate : 4 295 Kbps Width : 1 280 pixels Height : 720 pixels Display aspect ratio : 16:9 Frame rate : 23.976 fps Color space : YUV Chroma subsampling : 4:2:0 Bit depth : 8 bits Scan type : Progressive Bits/(Pixel*Frame) : 0.194 Stream size : 1.29 GiB (90%) Title : Prison Break.s03.e03.2007 Writing library : x264 core 80 r1376M 3feaec2 Encoding settings : cabac=1 / ref=5 / deblock=1:-1:-1 / analyse=0x3:0x133 / me=hex / subme=7 / psy=1 / psy_rd=1.0:0.0 / mixed_ref=1 / me_range=16 / chroma_me=1 / trellis=2 / 8x8dct=1 / cqm=0 / deadzone=21,11 / fast_pskip=0 / chroma_qp_offset=-2 / threads=6 / sliced_threads=0 / nr=0 / decimate=1 / mbaff=0 / constrained_intra=0 / bframes=3 / b_pyramid=0 / b_adapt=2 / b_bias=0 / direct=1 / wpredb=1 / wpredp=2 / keyint=250 / keyint_min=25 / scenecut=40 / rc_lookahead=40 / rc=2pass / mbtree=1 / bitrate=4295 / ratetol=1.0 / qcomp=0.60 / qpmin=10 / qpmax=51 / qpstep=4 / cplxblur=20.0 / qblur=0.5 / ip_ratio=1.40 / aq=1:1.00 Language : English Default : Yes Forced : No

Audio ID : 2 Format : AC-3 Format/Info : Audio Coding 3 Mode extension : CM (complete main) Format settings, Endianness : Big Codec ID : A_AC3 Duration : 44mn 0s Bit rate mode : Constant Bit rate : 384 Kbps Channel(s) : 6 channels Channel positions : Front: L C R, Side: L R, LFE Sampling rate : 48.0 KHz Bit depth : 16 bits Compression mode : Lossy Stream size : 121 MiB (8%) Title : AC3 5.1ch 384kbps (Дубляж, Ren-TV) Language : Russian Default : Yes Forced : No

General Unique ID : 185901730415821101312981213420293509196 (0x8BDB5EF5685AB6FCACDF15FAF970D04C) Complete name : D:Docume and SettingsAdminМои документыDownloadsPrison Break.Season.3.BDRip_720pPrison Break.s03.e04.720p.BDRip.mkv Format : Matroska Format version : Version 1 File size : 1.44 GiB Duration : 43mn 59s Overall bit rate : 4 684 Kbps Encoded date : UTC 2010-04-16 11:41:25 Writing application : mkvmerge v2.2.0 ('Turn It On Again') built on Mar 4 2008 12:58:26 Writing library : libebml v0.7.7 + libmatroska v0.8.1

Video ID : 1 Format : AVC Format/Info : Advanced Video Codec Format profile : [email protected] Format settings, CABAC : Yes Format settings, ReFrames : 5 frames Codec ID : V_MPEG4/ISO/AVC Duration : 43mn 59s Bit rate : 4 297 Kbps Width : 1 280 pixels Height : 720 pixels Display aspect ratio : 16:9 Frame rate : 23.976 fps Color space : YUV Chroma subsampling : 4:2:0 Bit depth : 8 bits Scan type : Progressive Bits/(Pixel*Frame) : 0.194 Stream size : 1.29 GiB (90%) Title : Prison Break.s03.e04.2007 Writing library : x264 core 80 r1376M 3feaec2 Encoding settings : cabac=1 / ref=5 / deblock=1:-1:-1 / analyse=0x3:0x133 / me=hex / subme=7 / psy=1 / psy_rd=1.0:0.0 / mixed_ref=1 / me_range=16 / chroma_me=1 / trellis=2 / 8x8dct=1 / cqm=0 / deadzone=21,11 / fast_pskip=0 / chroma_qp_offset=-2 / threads=6 / sliced_threads=0 / nr=0 / decimate=1 / mbaff=0 / constrained_intra=0 / bframes=3 / b_pyramid=0 / b_adapt=2 / b_bias=0 / direct=1 / wpredb=1 / wpredp=2 / keyint=250 / keyint_min=25 / scenecut=40 / rc_lookahead=40 / rc=2pass / mbtree=1 / bitrate=4297 / ratetol=1.0 / qcomp=0.60 / qpmin=10 / qpmax=51 / qpstep=4 / cplxblur=20.0 / qblur=0.5 / ip_ratio=1.40 / aq=1:1.00 Language : English Default : Yes Forced : No

Audio ID : 2 Format : AC-3 Format/Info : Audio Coding 3 Mode extension : CM (complete main) Format settings, Endianness : Big Codec ID : A_AC3 Duration : 43mn 59s Bit rate mode : Constant Bit rate : 384 Kbps Channel(s) : 6 channels Channel positions : Front: L C R, Side: L R, LFE Sampling rate : 48.0 KHz Bit depth : 16 bits Compression mode : Lossy Stream size : 121 MiB (8%) Title : AC3 5.1ch 384kbps (Дубляж, Ren-TV) Language : Russian Default : Yes Forced : No

General Unique ID : 228953766481301903225619254449094832342 (0xAC3EE437AEE629FBB769ECBA1224B0D6) Complete name : D:Docume and SettingsAdminМои документыDownloadsPrison Break.Season.3.BDRip_720pPrison Break.s03.e05.720p.BDRip.mkv Format : Matroska Format version : Version 1 File size : 1.44 GiB Duration : 44mn 1s Overall bit rate : 4 681 Kbps Encoded date : UTC 2010-04-17 00:38:44 Writing application : mkvmerge v2.2.0 ('Turn It On Again') built on Mar 4 2008 12:58:26 Writing library : libebml v0.7.7 + libmatroska v0.8.1

Video ID : 1 Format : AVC Format/Info : Advanced Video Codec Format profile : [email protected] Format settings, CABAC : Yes Format settings, ReFrames : 5 frames Codec ID : V_MPEG4/ISO/AVC Duration : 44mn 1s Bit rate : 4 296 Kbps Width : 1 280 pixels Height : 720 pixels Display aspect ratio : 16:9 Frame rate : 23.976 fps Color space : YUV Chroma subsampling : 4:2:0 Bit depth : 8 bits Scan type : Progressive Bits/(Pixel*Frame) : 0.194 Stream size : 1.29 GiB (90%) Title : Prison Break.s03.e05.2007 Writing library : x264 core 80 r1376M 3feaec2 Encoding settings : cabac=1 / ref=5 / deblock=1:-1:-1 / analyse=0x3:0x133 / me=hex / subme=7 / psy=1 / psy_rd=1.0:0.0 / mixed_ref=1 / me_range=16 / chroma_me=1 / trellis=2 / 8x8dct=1 / cqm=0 / deadzone=21,11 / fast_pskip=0 / chroma_qp_offset=-2 / threads=6 / sliced_threads=0 / nr=0 / decimate=1 / mbaff=0 / constrained_intra=0 / bframes=3 / b_pyramid=0 / b_adapt=2 / b_bias=0 / direct=1 / wpredb=1 / wpredp=2 / keyint=250 / keyint_min=25 / scenecut=40 / rc_lookahead=40 / rc=2pass / mbtree=1 / bitrate=4296 / ratetol=1.0 / qcomp=0.60 / qpmin=10 / qpmax=51 / qpstep=4 / cplxblur=20.0 / qblur=0.5 / ip_ratio=1.40 / aq=1:1.00 Language : English Default : Yes Forced : No

Audio ID : 2 Format : AC-3 Format/Info : Audio Coding 3 Mode extension : CM (complete main) Format settings, Endianness : Big Codec ID : A_AC3 Duration : 44mn 1s Bit rate mode : Constant Bit rate : 384 Kbps Channel(s) : 6 channels Channel positions : Front: L C R, Side: L R, LFE Sampling rate : 48.0 KHz Bit depth : 16 bits Compression mode : Lossy Stream size : 121 MiB (8%) Title : AC3 5.1ch 384kbps (Дубляж, Ren-TV) Language : Russian Default : Yes Forced : No

General Unique ID : 239833813113796749726931162207493792250 (0xB46E4FEEA61EC1D19B6BCEAB71A7A1FA) Complete name : D:Docume and SettingsAdminМои документыDownloadsPrison Break.Season.3.BDRip_720pPrison Break.s03.e06.720p.BDRip.mkv Format : Matroska Format version : Version 1 File size : 1.44 GiB Duration : 44mn 1s Overall bit rate : 4 680 Kbps Encoded date : UTC 2010-04-17 04:07:29 Writing application : mkvmerge v2.2.0 ('Turn It On Again') built on Mar 4 2008 12:58:26 Writing library : libebml v0.7.7 + libmatroska v0.8.1

Video ID : 1 Format : AVC Format/Info : Advanced Video Codec Format profile : [email protected] Format settings, CABAC : Yes Format settings, ReFrames : 5 frames Codec ID : V_MPEG4/ISO/AVC Duration : 44mn 1s Bit rate : 4 294 Kbps Width : 1 280 pixels Height : 720 pixels Display aspect ratio : 16:9 Frame rate : 23.976 fps Color space : YUV Chroma subsampling : 4:2:0 Bit depth : 8 bits Scan type : Progressive Bits/(Pixel*Frame) : 0.194 Stream size : 1.29 GiB (90%) Title : Prison Break.s03.e06.2007 Writing library : x264 core 80 r1376M 3feaec2 Encoding settings : cabac=1 / ref=5 / deblock=1:-1:-1 / analyse=0x3:0x133 / me=hex / subme=7 / psy=1 / psy_rd=1.0:0.0 / mixed_ref=1 / me_range=16 / chroma_me=1 / trellis=2 / 8x8dct=1 / cqm=0 / deadzone=21,11 / fast_pskip=0 / chroma_qp_offset=-2 / threads=6 / sliced_threads=0 / nr=0 / decimate=1 / mbaff=0 / constrained_intra=0 / bframes=3 / b_pyramid=0 / b_adapt=2 / b_bias=0 / direct=1 / wpredb=1 / wpredp=2 / keyint=250 / keyint_min=25 / scenecut=40 / rc_lookahead=40 / rc=2pass / mbtree=1 / bitrate=4294 / ratetol=1.0 / qcomp=0.60 / qpmin=10 / qpmax=51 / qpstep=4 / cplxblur=20.0 / qblur=0.5 / ip_ratio=1.40 / aq=1:1.00 Language : English Default : Yes Forced : No

Audio ID : 2 Format : AC-3 Format/Info : Audio Coding 3 Mode extension : CM (complete main) Format settings, Endianness : Big Codec ID : A_AC3 Duration : 44mn 1s Bit rate mode : Constant Bit rate : 384 Kbps Channel(s) : 6 channels Channel positions : Front: L C R, Side: L R, LFE Sampling rate : 48.0 KHz Bit depth : 16 bits Compression mode : Lossy Stream size : 121 MiB (8%) Title : AC3 5.1ch 384kbps (Дубляж, Ren-TV) Language : Russian Default : Yes Forced : No

General Unique ID : 235850373832090731908657924494376095480 (0xB16F21365DC96176B62B66BFC3E0CEF8) Complete name : D:Documen and SettingsAdminМои документыDownloadsPrison Break.Season.3.BDRip_720pPrison Break.s03.e07.720p.BDRip.mkv Format : Matroska Format version : Version 1 File size : 1.44 GiB Duration : 44mn 0s Overall bit rate : 4 682 Kbps Encoded date : UTC 2010-04-17 12:56:44 Writing application : mkvmerge v2.2.0 ('Turn It On Again') built on Mar 4 2008 12:58:26 Writing library : libebml v0.7.7 + libmatroska v0.8.1

Video ID : 1 Format : AVC Format/Info : Advanced Video Codec Format profile : [email protected] Format settings, CABAC : Yes Format settings, ReFrames : 5 frames Codec ID : V_MPEG4/ISO/AVC Duration : 44mn 0s Bit rate : 4 295 Kbps Width : 1 280 pixels Height : 720 pixels Display aspect ratio : 16:9 Frame rate : 23.976 fps Color space : YUV Chroma subsampling : 4:2:0 Bit depth : 8 bits Scan type : Progressive Bits/(Pixel*Frame) : 0.194 Stream size : 1.29 GiB (90%) Title : Prison Break.s03.e07.2007 Writing library : x264 core 80 r1376M 3feaec2 Encoding settings : cabac=1 / ref=5 / deblock=1:-1:-1 / analyse=0x3:0x133 / me=hex / subme=7 / psy=1 / psy_rd=1.0:0.0 / mixed_ref=1 / me_range=16 / chroma_me=1 / trellis=2 / 8x8dct=1 / cqm=0 / deadzone=21,11 / fast_pskip=0 / chroma_qp_offset=-2 / threads=6 / sliced_threads=0 / nr=0 / decimate=1 / mbaff=0 / constrained_intra=0 / bframes=3 / b_pyramid=0 / b_adapt=2 / b_bias=0 / direct=1 / wpredb=1 / wpredp=2 / keyint=250 / keyint_min=25 / scenecut=40 / rc_lookahead=40 / rc=2pass / mbtree=1 / bitrate=4295 / ratetol=1.0 / qcomp=0.60 / qpmin=10 / qpmax=51 / qpstep=4 / cplxblur=20.0 / qblur=0.5 / ip_ratio=1.40 / aq=1:1.00 Language : English Default : Yes Forced : No

Audio ID : 2 Format : AC-3 Format/Info : Audio Coding 3 Mode extension : CM (complete main) Format settings, Endianness : Big Codec ID : A_AC3 Duration : 44mn 0s Bit rate mode : Constant Bit rate : 384 Kbps Channel(s) : 6 channels Channel positions : Front: L C R, Side: L R, LFE Sampling rate : 48.0 KHz Bit depth : 16 bits Compression mode : Lossy Stream size : 121 MiB (8%) Title : AC3 5.1ch 384kbps (Дубляж, Ren-TV) Language : Russian Default : Yes Forced : No

General Unique ID : 253986301618330723820925675341585606918 (0xBF13FB7CEF18DA35B111F7345CBC6906) Complete name : D:Documen and SettingsAdminМои документыDownloadsPrison Break.Season.3.BDRip_720pPrison Break.s03.e08.720p.BDRip.mkv Format : Matroska Format version : Version 1 File size : 1.44 GiB Duration : 43mn 19s Overall bit rate : 4 757 Kbps Encoded date : UTC 2010-04-18 01:36:03 Writing application : mkvmerge v2.2.0 ('Turn It On Again') built on Mar 4 2008 12:58:26 Writing library : libebml v0.7.7 + libmatroska v0.8.1

Video ID : 1 Format : AVC Format/Info : Advanced Video Codec Format profile : [email protected] Format settings, CABAC : Yes Format settings, ReFrames : 5 frames Codec ID : V_MPEG4/ISO/AVC Duration : 43mn 19s Bit rate : 4 372 Kbps Width : 1 280 pixels Height : 720 pixels Display aspect ratio : 16:9 Frame rate : 23.976 fps Color space : YUV Chroma subsampling : 4:2:0 Bit depth : 8 bits Scan type : Progressive Bits/(Pixel*Frame) : 0.198 Stream size : 1.29 GiB (90%) Title : Prison Break.s03.e08.2007 Writing library : x264 core 80 r1376M 3feaec2 Encoding settings : cabac=1 / ref=5 / deblock=1:-1:-1 / analyse=0x3:0x133 / me=hex / subme=7 / psy=1 / psy_rd=1.0:0.0 / mixed_ref=1 / me_range=16 / chroma_me=1 / trellis=2 / 8x8dct=1 / cqm=0 / deadzone=21,11 / fast_pskip=0 / chroma_qp_offset=-2 / threads=6 / sliced_threads=0 / nr=0 / decimate=1 / mbaff=0 / constrained_intra=0 / bframes=3 / b_pyramid=0 / b_adapt=2 / b_bias=0 / direct=1 / wpredb=1 / wpredp=2 / keyint=250 / keyint_min=25 / scenecut=40 / rc_lookahead=40 / rc=2pass / mbtree=1 / bitrate=4372 / ratetol=1.0 / qcomp=0.60 / qpmin=10 / qpmax=51 / qpstep=4 / cplxblur=20.0 / qblur=0.5 / ip_ratio=1.40 / aq=1:1.00 Language : English Default : Yes Forced : No

Audio ID : 2 Format : AC-3 Format/Info : Audio Coding 3 Mode extension : CM (complete main) Format settings, Endianness : Big Codec ID : A_AC3 Duration : 43mn 19s Bit rate mode : Constant Bit rate : 384 Kbps Channel(s) : 6 channels Channel positions : Front: L C R, Side: L R, LFE Sampling rate : 48.0 KHz Bit depth : 16 bits Compression mode : Lossy Stream size : 119 MiB (8%) Title : AC3 5.1ch 384kbps (Дубляж, Ren-TV) Language : Russian Default : Yes Forced : No

General Unique ID : 210610408678465346029424783017465551928 (0x9E7216DA399875F4AAE324EA1A3B1C38) Complete name : D:Documen and SettingsAdminМои документыDownloadsPrison Break.Season.3.BDRip_720pPrison Break.s03.e09.720p.BDRip.mkv Format : Matroska Format version : Version 1 File size : 1.44 GiB Duration : 44mn 1s Overall bit rate : 4 683 Kbps Encoded date : UTC 2010-04-18 09:32:00 Writing application : mkvmerge v2.2.0 ('Turn It On Again') built on Mar 4 2008 12:58:26 Writing library : libebml v0.7.7 + libmatroska v0.8.1

Video ID : 1 Format : AVC Format/Info : Advanced Video Codec Format profile : [email protected] Format settings, CABAC : Yes Format settings, ReFrames : 5 frames Codec ID : V_MPEG4/ISO/AVC Duration : 44mn 1s Bit rate : 4 295 Kbps Width : 1 280 pixels Height : 720 pixels Display aspect ratio : 16:9 Frame rate : 23.976 fps Color space : YUV Chroma subsampling : 4:2:0 Bit depth : 8 bits Scan type : Progressive Bits/(Pixel*Frame) : 0.194 Stream size : 1.29 GiB (90%) Title : Prison Break.s03.e09.2007 Writing library : x264 core 80 r1376M 3feaec2 Encoding settings : cabac=1 / ref=5 / deblock=1:-1:-1 / analyse=0x3:0x133 / me=hex / subme=7 / psy=1 / psy_rd=1.0:0.0 / mixed_ref=1 / me_range=16 / chroma_me=1 / trellis=2 / 8x8dct=1 / cqm=0 / deadzone=21,11 / fast_pskip=0 / chroma_qp_offset=-2 / threads=6 / sliced_threads=0 / nr=0 / decimate=1 / mbaff=0 / constrained_intra=0 / bframes=3 / b_pyramid=0 / b_adapt=2 / b_bias=0 / direct=1 / wpredb=1 / wpredp=2 / keyint=250 / keyint_min=25 / scenecut=40 / rc_lookahead=40 / rc=2pass / mbtree=1 / bitrate=4295 / ratetol=1.0 / qcomp=0.60 / qpmin=10 / qpmax=51 / qpstep=4 / cplxblur=20.0 / qblur=0.5 / ip_ratio=1.40 / aq=1:1.00 Language : English Default : Yes Forced : No

Audio ID : 2 Format : AC-3 Format/Info : Audio Coding 3 Mode extension : CM (complete main) Format settings, Endianness : Big Codec ID : A_AC3 Duration : 44mn 1s Bit rate mode : Constant Bit rate : 384 Kbps Channel(s) : 6 channels Channel positions : Front: L C R, Side: L R, LFE Sampling rate : 48.0 KHz Bit depth : 16 bits Compression mode : Lossy Stream size : 121 MiB (8%) Title : AC3 5.1ch 384kbps (Дубляж, Ren-TV) Language : Russian Default : Yes Forced : No

General Unique ID : 215030381320117982253549855906441077821 (0xA1C55854219E4FF1A3ABEB92D9A6243D) Complete name : D:Documen and SettingsAdminМои документыDownloadsPrison Break.Season.3.BDRip_720pPrison Break.s03.e10.720p.BDRip.mkv Format : Matroska Format version : Version 1 File size : 1.44 GiB Duration : 44mn 2s Overall bit rate : 4 678 Kbps Encoded date : UTC 2010-04-18 17:54:16 Writing application : mkvmerge v2.2.0 ('Turn It On Again') built on Mar 4 2008 12:58:26 Writing library : libebml v0.7.7 + libmatroska v0.8.1

Video ID : 1 Format : AVC Format/Info : Advanced Video Codec Format profile : [email protected] Format settings, CABAC : Yes Format settings, ReFrames : 5 frames Codec ID : V_MPEG4/ISO/AVC Duration : 44mn 2s Bit rate : 4 292 Kbps Width : 1 280 pixels Height : 720 pixels Display aspect ratio : 16:9 Frame rate : 23.976 fps Color space : YUV Chroma subsampling : 4:2:0 Bit depth : 8 bits Scan type : Progressive Bits/(Pixel*Frame) : 0.194 Stream size : 1.29 GiB (90%) Title : Prison Break.s03.e10.2007 Writing library : x264 core 80 r1376M 3feaec2 Encoding settings : cabac=1 / ref=5 / deblock=1:-1:-1 / analyse=0x3:0x133 / me=hex / subme=7 / psy=1 / psy_rd=1.0:0.0 / mixed_ref=1 / me_range=16 / chroma_me=1 / trellis=2 / 8x8dct=1 / cqm=0 / deadzone=21,11 / fast_pskip=0 / chroma_qp_offset=-2 / threads=6 / sliced_threads=0 / nr=0 / decimate=1 / mbaff=0 / constrained_intra=0 / bframes=3 / b_pyramid=0 / b_adapt=2 / b_bias=0 / direct=1 / wpredb=1 / wpredp=2 / keyint=250 / keyint_min=25 / scenecut=40 / rc_lookahead=40 / rc=2pass / mbtree=1 / bitrate=4292 / ratetol=1.0 / qcomp=0.60 / qpmin=10 / qpmax=51 / qpstep=4 / cplxblur=20.0 / qblur=0.5 / ip_ratio=1.40 / aq=1:1.00 Language : English Default : Yes Forced : No

Audio ID : 2 Format : AC-3 Format/Info : Audio Coding 3 Mode extension : CM (complete main) Format settings, Endianness : Big Codec ID : A_AC3 Duration : 44mn 2s Bit rate mode : Constant Bit rate : 384 Kbps Channel(s) : 6 channels Channel positions : Front: L C R, Side: L R, LFE Sampling rate : 48.0 KHz Bit depth : 16 bits Compression mode : Lossy Stream size : 121 MiB (8%) Title : AC3 5.1ch 384kbps (Дубляж, Ren-TV) Language : Russian Default : Yes Forced : No

General Unique ID : 193193723034283394295855645958939985171 (0x9157C1F3C60282B1BB89E5FA6D99C513) Complete name : D:Docume and SettingsAdminМои документыDownloadsPrison Break.Season.3.BDRip_720pPrison Break.s03.e11.720p.BDRip.mkv Format : Matroska Format version : Version 1 File size : 1.44 GiB Duration : 43mn 36s Overall bit rate : 4 725 Kbps Encoded date : UTC 2010-04-19 01:34:54 Writing application : mkvmerge v2.2.0 ('Turn It On Again') built on Mar 4 2008 12:58:26 Writing library : libebml v0.7.7 + libmatroska v0.8.1

Video ID : 1 Format : AVC Format/Info : Advanced Video Codec Format profile : [email protected] Format settings, CABAC : Yes Format settings, ReFrames : 5 frames Codec ID : V_MPEG4/ISO/AVC Duration : 43mn 36s Bit rate : 4 338 Kbps Width : 1 280 pixels Height : 720 pixels Display aspect ratio : 16:9 Frame rate : 23.976 fps Color space : YUV Chroma subsampling : 4:2:0 Bit depth : 8 bits Scan type : Progressive Bits/(Pixel*Frame) : 0.196 Stream size : 1.29 GiB (90%) Title : Prison Break.s03.e11.2007 Writing library : x264 core 80 r1376M 3feaec2 Encoding settings : cabac=1 / ref=5 / deblock=1:-1:-1 / analyse=0x3:0x133 / me=hex / subme=7 / psy=1 / psy_rd=1.0:0.0 / mixed_ref=1 / me_range=16 / chroma_me=1 / trellis=2 / 8x8dct=1 / cqm=0 / deadzone=21,11 / fast_pskip=0 / chroma_qp_offset=-2 / threads=6 / sliced_threads=0 / nr=0 / decimate=1 / mbaff=0 / constrained_intra=0 / bframes=3 / b_pyramid=0 / b_adapt=2 / b_bias=0 / direct=1 / wpredb=1 / wpredp=2 / keyint=250 / keyint_min=25 / scenecut=40 / rc_lookahead=40 / rc=2pass / mbtree=1 / bitrate=4338 / ratetol=1.0 / qcomp=0.60 / qpmin=10 / qpmax=51 / qpstep=4 / cplxblur=20.0 / qblur=0.5 / ip_ratio=1.40 / aq=1:1.00 Language : English Default : Yes Forced : No

Audio ID : 2 Format : AC-3 Format/Info : Audio Coding 3 Mode extension : CM (complete main) Format settings, Endianness : Big Codec ID : A_AC3 Duration : 43mn 36s Bit rate mode : Constant Bit rate : 384 Kbps Channel(s) : 6 channels Channel positions : Front: L C R, Side: L R, LFE Sampling rate : 48.0 KHz Bit depth : 16 bits Compression mode : Lossy Stream size : 120 MiB (8%) Title : AC3 5.1ch 384kbps (Дубляж, Ren-TV) Language : Russian Default : Yes Forced : No

General Unique ID : 200155267993032080524358950086982077738 (0x9694809E4CBFB0C989AD1596C5598D2A) Complete name : D:Docume and SettingsAdminМои документыDownloadsPrison Break.Season.3.BDRip_720pPrison Break.s03.e12.720p.BDRip.mkv Format : Matroska Format version : Version 1 File size : 1.44 GiB Duration : 43mn 15s Overall bit rate : 4 763 Kbps Encoded date : UTC 2010-04-19 09:46:58 Writing application : mkvmerge v2.2.0 ('Turn It On Again') built on Mar 4 2008 12:58:26 Writing library : libebml v0.7.7 + libmatroska v0.8.1

Video ID : 1 Format : AVC Format/Info : Advanced Video Codec Format profile : [email protected] Format settings, CABAC : Yes Format settings, ReFrames : 5 frames Codec ID : V_MPEG4/ISO/AVC Duration : 43mn 15s Bit rate : 4 378 Kbps Width : 1 280 pixels Height : 720 pixels Display aspect ratio : 16:9 Frame rate : 23.976 fps Color space : YUV Chroma subsampling : 4:2:0 Bit depth : 8 bits Scan type : Progressive Bits/(Pixel*Frame) : 0.198 Stream size : 1.29 GiB (90%) Title : Prison Break.s03.e12.2007 Writing library : x264 core 80 r1376M 3feaec2 Encoding settings : cabac=1 / ref=5 / deblock=1:-1:-1 / analyse=0x3:0x133 / me=hex / subme=7 / psy=1 / psy_rd=1.0:0.0 / mixed_ref=1 / me_range=16 / chroma_me=1 / trellis=2 / 8x8dct=1 / cqm=0 / deadzone=21,11 / fast_pskip=0 / chroma_qp_offset=-2 / threads=6 / sliced_threads=0 / nr=0 / decimate=1 / mbaff=0 / constrained_intra=0 / bframes=3 / b_pyramid=0 / b_adapt=2 / b_bias=0 / direct=1 / wpredb=1 / wpredp=2 / keyint=250 / keyint_min=25 / scenecut=40 / rc_lookahead=40 / rc=2pass / mbtree=1 / bitrate=4378 / ratetol=1.0 / qcomp=0.60 / qpmin=10 / qpmax=51 / qpstep=4 / cplxblur=20.0 / qblur=0.5 / ip_ratio=1.40 / aq=1:1.00 Language : English Default : Yes Forced : No

Audio ID : 2 Format : AC-3 Format/Info : Audio Coding 3 Mode extension : CM (complete main) Format settings, Endianness : Big Codec ID : A_AC3 Duration : 43mn 15s Bit rate mode : Constant Bit rate : 384 Kbps Channel(s) : 6 channels Channel positions : Front: L C R, Side: L R, LFE Sampling rate : 48.0 KHz Bit depth : 16 bits Compression mode : Lossy Stream size : 119 MiB (8%) Title : AC3 5.1ch 384kbps (Дубляж, Ren-TV) Language : Russian Default : Yes Forced : No

General Unique ID : 171636664489553852086984789125359107084 (0x812004E84B23A6019486892704CA7C0C) Complete name : D:Docume and SettingsAdminМои документыDownloadsPrison Break.Season.3.BDRip_720pPrison Break.s03.e13.720p.BDRip.mkv Format : Matroska Format version : Version 1 File size : 1.44 GiB Duration : 43mn 49s Overall bit rate : 4 702 Kbps Encoded date : UTC 2010-04-19 13:36:27 Writing application : mkvmerge v2.2.0 ('Turn It On Again') built on Mar 4 2008 12:58:26 Writing library : libebml v0.7.7 + libmatroska v0.8.1

Video ID : 1 Format : AVC Format/Info : Advanced Video Codec Format profile : [email protected] Format settings, CABAC : Yes Format settings, ReFrames : 5 frames Codec ID : V_MPEG4/ISO/AVC Duration : 43mn 49s Bit rate : 4 317 Kbps Width : 1 280 pixels Height : 720 pixels Display aspect ratio : 16:9 Frame rate : 23.976 fps Color space : YUV Chroma subsampling : 4:2:0 Bit depth : 8 bits Scan type : Progressive Bits/(Pixel*Frame) : 0.195 Stream size : 1.29 GiB (90%) Title : Prison Break.s03.e13.2007 Writing library : x264 core 80 r1376M 3feaec2 Encoding settings : cabac=1 / ref=5 / deblock=1:-1:-1 / analyse=0x3:0x133 / me=hex / subme=7 / psy=1 / psy_rd=1.0:0.0 / mixed_ref=1 / me_range=16 / chroma_me=1 / trellis=2 / 8x8dct=1 / cqm=0 / deadzone=21,11 / fast_pskip=0 / chroma_qp_offset=-2 / threads=6 / sliced_threads=0 / nr=0 / decimate=1 / mbaff=0 / constrained_intra=0 / bframes=3 / b_pyramid=0 / b_adapt=2 / b_bias=0 / direct=1 / wpredb=1 / wpredp=2 / keyint=250 / keyint_min=25 / scenecut=40 / rc_lookahead=40 / rc=2pass / mbtree=1 / bitrate=4317 / ratetol=1.0 / qcomp=0.60 / qpmin=10 / qpmax=51 / qpstep=4 / cplxblur=20.0 / qblur=0.5 / ip_ratio=1.40 / aq=1:1.00 Language : English Default : Yes Forced : No

Audio ID : 2 Format : AC-3 Format/Info : Audio Coding 3 Mode extension : CM (complete main) Format settings, Endianness : Big Codec ID : A_AC3 Duration : 43mn 49s Bit rate mode : Constant Bit rate : 384 Kbps Channel(s) : 6 channels Channel positions : Front: L C R, Side: L R, LFE Sampling rate : 48.0 KHz Bit depth : 16 bits Compression mode : Lossy Stream size : 120 MiB (8%) Title : AC3 5.1ch 384kbps (Дубляж, Ren-TV) Language : Russian Default : Yes Forced : No

main-rutor.org

rutor.org :: Побег из тюрьмы: Финальный побег / На свободе / Prison Break: The Final Break (2008) НDRip от Scarabey

Год выпуска: 2008Страна: СШАЖанр: боевик, триллер, драмаПродолжительность: 01:29:06Перевод: Профессиональный (дублированный)Русские субтитры: нет

Режиссер: Брэд Тернер / Brad Turner

В ролях: Доминик Пёселл, Уэнтворф Миллер, Амори Ноласко, Уэйд Уильямс, Роберт Неппэ, Крис Вэнс, Роберт Уиздом, Дэйнэй Гарсиа, Джоуди Линн О’Киф, Уильям Фихнер

Описание: The Final Break - это полнометражный фильм с независимым сюжетом. События повествуют о тех 3ех (6ти? 9ти?) месяцах, которые авторы сериала пропустили в конце финальной серии. Сару арестовывают за убийство матери Майкла и отправляют в тюрьму, и она все ещё носит его ребёнка под сердцем. На сей раз всё меняется местами: тюремный врач становится заключённым, а Майкл остаётся на свободе. В кинофильме задействована большая часть героев сериала: Майкл, Линкольн, Сара, Сукрэ, Бэгвел, Махоуни и… Грэтхен. Каков же будет исход и финальный побег?.. Всё вновь зависит от гениального инженера-строителя.

Качество: HDRipФормат: AVI

Видео: 688x384 (1.79:1), 23.976 fps, XviD build 73 ~2121 kbps avg, 0.34 bit/pixelАудио: 48 kHz, AC3 Dolby Digital, 2/0 (L,R) ch, ~192.00 kbps avg

Релиз от:

АНОНСЫ МОИХ РАЗДАЧ!

История сериала

Линкольн Бэрроуз (Доминик Пёрселл), парень неблагополучный, бывший наркоман - находится под стражей в тюрьме строгого режима "Фокс Ривер" в ожидании смертной казни за убийство брата вице-президента. Разумеется, он этого убийства не совершал. Поэтому младший брат Линкольна Майкл Скофилд (Вентворф Миллер) решает спасти своего брата и устроить побег из тюрьмы. Вот только для реализации плана Майкл устраивает фальшивое ограбление банка, отказывается от адвоката и сам садится в ту же тюрьму, где ждет казни его брат. В свое время он работал в фирме, которая занималась планированием объекта "Фокс Ривер" и знает немало интересных особенностей всех помещений. Вся необходимая информация всегда находится при Майкле, поскольк у перед отправкой на тюремные нары он сделал себе впечатляющее тату на теле. В то время как Майкл работает над выполнением плана в тюрьме, знакомясь с местными авторитетами и готовя побег века, подруга братьев - адвокат Вероника Донован (Робин Танни) занимается собственным расследованием убийства вице-президента. Она пытается выяснить, кто же подставил Линкольна и кто стоит за чередой убийств, связанных с этим делом.

Второй сезон, главным образом, сосредоточен на 8 беглецах. Появились новые персонажи: специальный агент ФБР Александр Махоуни (Уильям Фихтнер), который преследует беглецов, агент Секретной Службы Билл Ким (Регги Ли), посредник между Келлерманои и президентом Рейнолдс и другие. "Второй сезон - это просто хаос" - говорит создатель сериала Пол Шеринг. "Мы раскидали наших парней в четыре разных уголка страны. Они все свободны. Мы буквально освободили их из клетки и теперь они будут все делать то, что захотят. И у всех у них свои концовки игры, которые были нами поставлены ещё в первом сезоне".

Третий сезон Побега так же, как и первые два сезона, должен был состоять из 22 серий, но из-за забастовки сценаристов, как и многие другие сериалы, получился урезанным и включает в себя лишь 13 эпизодов.

Актриса Сара Уэйн-Коллиз, исполняющая роль доктора Сары Танкреди, отказалась принять участие в третьем сезоне, сочтя свою роль не достаточно интересной. Студия не пошла ей на встречу, и договориться им не удалось. То как сценаристы обыграли отсутствие главного женского персонажа в сериале, повергло многих фанатов Побега в недоумение.

В новом сезоне герои снова попадают в тюрьму, на этот раз в Панаме, и пытаются из неё выбраться. Сара оказывается в заложниках у наёмницы Компании Сьюзан Би Энтони (Джоди Лин О’Киф), а Майкл должен сбежать из панамской тюрьмы вместе с неким таинственным заключенным по имени Уистлер (Крис Вэнс). На свободе Майклу помогает его брат Линкольн, друг Сукре и девушка Уистлера София (Дэней Гарсиа).

Майкл и Линкольн снова готовы сплотить свои усилия в борьбе против Компании.

Братья объединяются с правительственным агентом, чтобы собрать сторонников своей борьбы. В список сторонников войдут известные нам персонажи – Махоуни, Беллик, и, конечно же, Сукре. И несмотря на всё нежелание братьев, им придется вновь принять в свои ряды Ти-Бэга, который сам о том не подозревая, стал обладателем жизненно важной для борьбы с Компанией улики.

main-rutor.org

Побег Из Тюрьмы торрент скачать

Побег из тюрьмы / Prison Break / Сезон: 1 / Серии: 1-22 из 22 (Пол Шойринг / Paul Scheuring) [2005-2006, США, боевик, триллер, драма, криминал, BDRip-AVC] Dub (Ren-tv)8.73 GBПобег из тюрьмы / Prison Break / Сезон: 2 / Серии: 1-22 из 22 (Пол Шойринг / Paul Scheuring) [2006-2007, США, боевик, триллер, драма, криминал, BDRip-AVC] Dub (Ren-tv)8.73 GBПобег из тюрьмы / Prison Break / Сезон: 4 / Серии: 1-22 из 22 + Финальный побег / The Final Break (Пол Шойринг / Paul Scheuring) [2008-2009, США, боевик, триллер, драма, криминал, BDRip-AVC] Dub (Ren-tv) + MVO (NovaFilm)9.63 GBПобег из тюрьмы / Prison Break / Сезон: 3 / Серии: 1-13 из 13 (Пол Шойринг / Paul Scheuring) [2007-2008, США, боевик, триллер, драма, криминал, BDRip-AVC] Dub (Ren-tv) + MVO (NovaFilm)4.87 GBПобег из тюрьмы (1-4 сезоны: 1-81 серии из 81) / Prison Break / 2005-2009 / ДБ / HDRip / 47.01 ГБ47.01 GBПобег из тюрьмы: Коллекция / Prison Break: Collection (2005-2009) BDRip [сезон 1-4 + Финальный побег]32 GBПобег из тюрьмы (1-4 сезоны: 1-79 серии из 79 + Финальный побег) / Prison Break / 2005-2009 / ДБ (РЕН ТВ) / BDRip (720p) / 59.55 ГБ59.55 GBПобег из тюрьмы / Побег / The Escapist (Руперт Виатт / Rupert Wyatt) [2008, Великобритания, Ирландия, триллер, драма, криминал, BDRip] MVO + Original (Eng)2.18 GBПобег из тюрьмы (1 сезон: 1-22 серии из 22) / Prison Break / 2005-2006 / ДБ / HDRip / 13.12 ГБ13.12 GBПобег из тюрьмы / Prison Break [S01-04] (2005-2009) BDRip | D35.67 GBПобег из тюрьмы (1-4 сезоны: 1-79 серии из 79 и Финальный побег) / Prison Break / 2005-2009 / ДБ (РЕН ТВ), ПМ, ПД, ПО (NovaFilm), СТ / BDRip (1080p) / 398.84 ГБ398.84 GBПобег из тюрьмы / Prison Break / Сезон: 1 / Серии: 1-22 (22) (Пол Шеринг / Paul Scheuring) [2005, США, Боевик, Драма, HDRip] MVO (С.Р.И.)7.46 GBПобег / Побег из тюрьмы / Prison Break [S04] (2008) НDRip от Scarabey | C. P. И.16.27 GBПобег из тюрьмы / Prison Break (1 сезон) (2008) DVDRip от NovaFiLM8.72 GBПобег из тюрьмы / Prison Break / Сезон: 1 / Серии: 1-22 (22) (Пол Шойринг) [2006, США, Экшн, Драма, DVDRip] Dub (Рен-ТВ)8.72 GBПобег из тюрьмы / Prison Break / Сезон: 2 / Серии: 1-22 (22) (Пол Шойринг) [2006, США, Экшн, Драма, DVDRip] Dub (Рен-ТВ)8.73 GBПобег из тюрьмы (Сезон 1,2,3,4 все серии) / Prison Break (Пол Шойринг / Paul Scheuring) [2006-2009, США, Экшн, Драма, HDTVRip] / NovaFilm27.64 GBПобег из тюрьмы (2 сезон: 1-22 серии из 22) / Prison Break / 2006-2007 / ДБ / HDRip / 13.75 ГБ13.75 GBПобег из тюрьмы / Prison Break / Сезон: 4 / Серии: 1-22 (22) + Финальный побег / Final Break (Пол Шеринг / Paul Scheuring) [2008, США, Боевик, Драма, HDRip] MVO (С.Р.И.)8.22 GBПобег / Побег из тюрьмы / Prison Break [S01] (2005 - 2006) НDRip от Scarabey | Ren-tv16.06 GBПобег из тюрьмы / Prison Break / Сезон: 2 / Серии: 1-22 (22) (Пол Шеринг / Paul Scheuring) [2006, США, Боевик, Драма, HDRip] MVO (С.Р.И.)7.47 GBПобег / Побег из тюрьмы / Prison Break [S03] (2007) НDRip от Scarabey | Ren-tv9.5 GBПобег из тюрьмы (4 сезон: 1-24 серии из 24) / Prison Break / 2008-2009 / ДБ / BDRip / 13.71 ГБ13.71 GBПобег из тюрьмы / Prison Break (2005-2009) DVDRip [Все сезоны: 79 серий + финальный побег]27.6 GBПобег из Тюрьмы (Сезон 3) 1-13 (13)/ Prison Break (Season 3) (Пол Шеринг / Paul Scheuring) [2007, США, Драма, приключения, детектив, DVDRip]4.96 GBПобег из тюрьмы: Коллекция / Prison Break: Collection (Пол Шеринг) [2005 - 2009, США, драма, боевик, BDRip 1080p](REN-TV + С.Р.И. + NovaFilm)398.84 GBПобег из тюрьмы: Коллекция / Prison Break: Collection [2005 - 2009, США, драма, боевик, BDRip 720p]177.65 GBПобег из тюрьмы: Коллекция / Prison Break: Collection (2005 - 2009) BDRip 720p [Все сезоны + Финальный побег]178 GBПобег из тюрьмы / Prison Break (2 сезон) (2008) DVDRip от NovaFiLM8.73 GBПобег из тюрьмы (1-4 сезоны: 1-81 серия из 81) / Prison Break / 2005-2009 / ПО, ПД, ПМ (NovaFilm) / BDRip / 51.88 ГБ51.88 GBПобег из тюрьмы / Prison Break / Сезон: 3 / Серии: 1-13 (13) (Пол Шеринг / Paul Scheuring) [2007, США, Боевик, Драма, HDRip] MVO (С.Р.И.)4.41 GBПобег из тюрьмы (3 сезон: 1-13 серии из 13) / Prison Break / 2007 / ДБ, 2 x ПМ, СТ / BDRip / 11.27 ГБ11.27 GBПобег из тюрьмы Сезон 3 (Серия 1-13) / Prison Break Season 3 (Episode 1-13) (Пол Шойринг) [2007, США, боевик, приключения, драма, триллер, BDRip, nanoHD, 720p] (Рен-ТВ)8.95 GBПобег из тюрьмы (3 сезон: 1-13 серии из 13) / Prison Break / 2007-2008 / ДБ / BDRip (720p) / 18.71 ГБ18.71 GBПобег / Побег из тюрьмы / Prison Break / Сезон 2 / Серии: 1-22 (22) / (Пол Шойринг / Paul Scheuring) [2006, США, криминальный боевик, триллер, BDRip-AVC] Dub (RenTV) + MVO (RenTV) + VO (Novafilm) + Original + Subs (Rus, Eng)28.72 GBПобег из тюрьмы (1 сезон: 1-22 серии из 22) / Prison Break / 2005-2006 / ДБ / BDRip (720p) / 31.67 ГБ31.67 GBПобег из тюрьмы (1-4 сезоны: 1-79 серии из 79 + Финальный побег) / Prison Break / 2005-2009 / ДБ, ПМ, ПД, ПО, СТ / BDRip (720p) / 177.65 ГБ177.65 GBПобег из тюрьмы Сезон 2 (Серия 1-22) / Prison Break Season 2 (Episode 1-22) (Пол Шойринг) [2006, США, боевик, приключения, драма, триллер, BDRip, nanoHD, 720p] (Рен-ТВ)17.27 GBПобег из тюрьмы / Prison Break (1ый сезон, серии 1-22) (Бобби Рот / Bobby Roth и другие) [2005-2006, США, криминальный боевик, триллер, драма, BDRip-AVC] VO (Novafilm) + Dub + MVO (RenTV) + Original + Subs (Rus, Eng)30.77 GBПобег из женской тюрьмы / Le evase - Storie di sesso e di violenze / Escape from Women's Prison (Giovanni Brusadori / Джованни Брусадори) [1978, Италия, боевик, эротика, DVDRip] VO (ССК+)1.06 GBПобег из тюрьмы (Сезон 4, серии 1-22) и Финальный побег / Prison Break (Пол Шойринг / Paul Scheuring) [2008, США, драма, криминал, триллер, 720p, BDRip] (Рен-ТВ)31.73 GBПобег / Побег из тюрьмы / Prison Break / Сезон: 04 / Серии: 01-22 (22) (Пол Шойринг) [2008, США, криминальный боевик, триллер, BDRip-AVC] MVO (Novafilm) + Original + Subs (Rus, Eng)25.19 GBПобег из тюрьмы (Сезон 1, серии 1-22) / Prison Break (Пол Шойринг / Paul Scheuring) [2005, США, драма, криминал, триллер, 720p, BDRip]31.67 GBПобег из тюрьмы Сезон 1 (Серия 1-22) / Prison Break Season 1 (Episode 1-22) (Пол Шойринг) [2005, США, боевик, приключения, драма, триллер, BDRip, nanoHD, 720p] (Рен-ТВ)14.92 GBПобег из тюрьмы / Prison Break [S02] (2006-2007) BDRip 720p от New-Team | Ren-tv31.66 GB[Soundtrack / Unofficial] Побег из тюрьмы (Сезоны 1-4) | Prison Break (Seasons 1-4) [2005-2009, MP3, 320 kbps]366.8 MBПобег из тюрьмы (Сезон 2, серии 1-22) / Prison Break (Пол Шойринг / Paul Scheuring) [2006, США, драма, криминал, триллер, 720p, BDRip]31.66 GBПобег из тюрьмы (2 сезон: 1-22 серии из 22) / Prison Break / 2006-2007 / ДБ / BDRip (720p) / 31.66 ГБ31.66 GBПобег / Побег из тюрьмы / Prison Break [S02] (2006) НDRip от Scarabey | Ren-tv16.04 GBПобег из тюрьмы (Коллекция) / Prison Break + Prison Break - Final Break (Сезон 1-4 / 1-79 из 79 серий) (Бобби Рот, Джейс Александр, Мэтт Эрл Бисли / Bobby Roth, Jace Alexander, Matt Earl Beesley) [2005-2009, боевик, триллер, драма, HDRip, 576x320]30.74 GB tparser.org – торрент поисковик по популярным торрент трекерам. Находить и скачивать новинки кино в HDRip и BDRip качестве через tparser намного проще! Добро пожаловать на крупный торрент архив фильмов и игр tparser.org. Вам больше не придется искать торренты на основных торрент трекерах в поисках нужной раздачи – мы предлагаем найти и скачать фильмы в хорошем качестве прямо на нашем сайте. Наш сервис поиска торрентов в реальном времени собирает информацию с крупных торрент трекеров и сортирует полученные результаты в удобную таблицу. Скачивайте торренты без ограничений и без всяких регистраций на трекерах. Начните скачивать торрент Побег Из Тюрьмы прямо сейчас!

tparser.org


Смотрите также