Скачать фильм мученицы 2008 через торрент в хорошем качестве


Скачать фильм Мученицы (2008) через торрент

13 сентября 2016 06:05 Мученицы / Martyrs (2008) DVD5 | P .torrent   [Информация о файле (нажмите для просмотра)] Перевод: профессиональный (многоголосый, закадровый)Кодек: MPEG2Качество: DVD5Видео: PAL 16:9 ([email protected]) VBR 4603 Kbps, 25.000 fpsЗвук: Dolby AC3, 6 ch, 48.0 KHz, 448 Kbpsрусский, французскийСубтитры: русские 4,21 Gb 3 4 13 сентября 2016 06:05 Мученицы / Martyrs (2008) HDRip .torrent   [Информация о файле (нажмите для просмотра)] Перевод: Профессиональный (многоголосый закадровый)Кодек: XviD,Качество: HDRipВидео: 688х368, 23.976 fps, 908 Kbps, 0.15 Bits/PixelЗвук: MP3, 48 KHz, 128 Kbps, 2 channelsСубтитры: нет 745,11 Mb 6 5 13 сентября 2016 06:05 Мученицы / Martyrs (2008) BDRip 1080p | Лицензия .torrent   [Информация о файле (нажмите для просмотра)] Перевод: Профессиональный (многоголосый закадровый)Контейнер: MKVВидео: AVC / [email protected] /2 pass / 23,976 fps / 1920x1040p / 15,5 Mbps / 0.324Аудио 1: AC3 / 5.1 ch / 448 kbps /Русский многоголосый закадровый BD RUSАудио 2: AC3 / 5.1 ch / 640 kbps /Французский original BD FREСубтитры: русские полные, английские полные (softsub SRT)Видео: Идентификатор : 1 Формат : AVC Формат/Информация : Advanced Video Codec Профиль формата : [email protected] Параметр CABAC формата : Да Параметр ReFrames формата : 4 кадра Идентификатор кодека : V_MPEG4/ISO/AVC Битрейт : 15,5 Мбит/сек Ширина : 1920 пикселей Высота : 1040 пикселей Соотношение сторон : 1,85:1 Режим частоты кадров : Переменный Частота кадров в оригинале : 23,976 кадра/сек Цветовое пространство : YUV Субдискретизация насыщенности : 4:2:0 Битовая глубина : 8 бит Тип развёртки : Прогрессивная Бит/(Пиксели*Кадры) : 0.324 Заголовок : Martyrs (2008) Библиотека кодирования : x264 core 128 r2216 198a7ea Настройки программы : cabac=1 / ref=4 / deblock=1:-3:-3 / analyse=0x3:0x113 / me=umh / subme=10 / psy=1 / psy_rd=1.00:0.15 / mixed_ref=1 / me_range=16 / chroma_me=1 / trellis=2 / 8x8dct=1 / cqm=0 / deadzone=21,11 / fast_pskip=1 / chroma_qp_offset=-3 / threads=3 / lookahead_threads=1 / sliced_threads=0 / nr=0 / decimate=0 / interlaced=0 / bluray_compat=0 / constrained_intra=0 / bframes=8 / b_pyramid=2 / b_adapt=2 / b_bias=0 / direct=3 / weightb=1 / open_gop=0 / weightp=2 / keyint=240 / keyint_min=23 / scenecut=40 / intra_refresh=0 / rc_lookahead=60 / rc=2pass / mbtree=0 / bitrate=15500 / ratetol=1.0 / qcomp=0.70 / qpmin=0 / qpmax=69 / qpstep=4 / cplxblur=20.0 / qblur=0.5 / vbv_maxrate=40000 / vbv_bufsize=40000 / nal_hrd=none / ip_ratio=1.40 / pb_ratio=1.30 / aq=1:0.90 Язык : French Default : Да Forced : НетАудио #1: Идентификатор : 2 Формат : AC-3 Формат/Информация : Audio Coding 3 Расширение режима : CM (complete main) Параметр Endianness формата : Big Идентификатор кодека : A_AC3 Продолжительность : 1 ч. 39 м. Вид битрейта : Постоянный Битрейт : 448 Кбит/сек Каналы : 6 каналов Расположение каналов : Front: L C R, Side: L R, LFE Частота : 48,0 КГц Битовая глубина : 16 бит Метод сжатия : С потерями Размер потока : 320 Мбайт (3%) Заголовок : AC3 / 5.1 ch / 448 kbps / Русский многоголосый закадровыйl BD RUS Язык : Russian Default : Да Forced : НетАудио #2: Идентификатор : 3 Формат : AC-3 Формат/Информация : Audio Coding 3 Расширение режима : CM (complete main) Параметр Endianness формата : Big Идентификатор кодека : A_AC3 Продолжительность : 1 ч. 39 м. Вид битрейта : Постоянный Битрейт : 640 Кбит/сек Каналы : 6 каналов Расположение каналов : Front: L C R, Side: L R, LFE Частота : 48,0 КГц Битовая глубина : 16 бит Метод сжатия : С потерями Размер потока : 457 Мбайт (4%) Заголовок : AC3 / 5.1 ch / 640 kbps / Французский original BD FRE Язык : French Default : Нет Forced : Нет 11,55 Gb 14 4 13 сентября 2016 06:05 Мученицы / Martyrs (2008) BDRip (720p) от vvmon .torrent   [Информация о файле (нажмите для просмотра)] Перевод: Профессиональный многоголосый (CP Digital), любительский одноголосый (Zamez)Кодек: x264Качество: BDRip (720p)Видео: MPEG-4 AVC, 6650 Кбит/с, 1280x692Звук: 1. Русский (AC3, 6 ch, 448 Кбит/с) - Профессиональный многоголосый (CP Digital) 2. Русский (DTS, 6 ch, 1510 Кбит/с) - Любительский одноголосый (Zamez) 3. Французский (DTS, 6 ch, 1510 Кбит/с)Субтитры: Русские, английские 7,02 Gb 20 4 13 сентября 2016 06:05 Мученицы / Martyrs (2008) BDRip-AVC от SilverCinema / FLGroup .torrent   [Информация о файле (нажмите для просмотра)] Перевод: Профессиональный (многоголосый закадровый)Кодек: x264Качество: ВDRip-AVCВидео: MPEG4, 1024x552, 23.976 fps, 1657 Кб/секЗвук: АС3, 6 ch, 448 Кб/секСубтитры: Русские (вшитые) 1,46 Gb 33 3 13 сентября 2016 06:05 Мученицы / Martyrs (2008) BDRip от HQ-ViDEO .torrent   [Информация о файле (нажмите для просмотра)] Перевод: Русский профессиональный перевод + Оригинальная дорожка (6 ch, 384 kbps, Отдельно)Кодек: XviD, build 50 codecКачество: BDRip (Исходник: BD Remux)Видео: 720 x 384 (1.88:1), 23.976 fps, XviD, build 50 ~ 1700 kbps avg, ~ 0.26 bit/pixelЗвук #1: 48 kHz, AC3 Dolby Digital, 3/2 (L,C,R,l,r) + LFE ch, ~384.00 kbps avgЗвук #2: 48 kHz, AC3 Dolby Digital, 3/2 (L,C,R,l,r) + LFE ch, ~384.00 kbps avg (Отдельно)Субтитры: Русские 1,72 Gb 3 3 13 сентября 2016 06:05 Мученицы / Martyrs (2008) BDRip от HQCLUB .torrent   [Информация о файле (нажмите для просмотра)] Перевод: Профессиональный (многоголосый, закадровый)|R5| + Любительский одноголосый |zamez| + ОригиналСубтитры: Русские, английские (внешние *.srt)Формат: AVIКачество: BDRip (источник:Видео: 704x384 (1.83:1), 23.976 fps, XviD build 50 ~1987 kbps avg, 0.31 bit/pixelАудио #1: 48 kHz, AC3 Dolby Digital, 3/2 (L,C,R,l,r) + LFE ch, ~384.00 kbps avgАудио #2: 48 kHz, AC3 Dolby Digital, 3/2 (L,C,R,l,r) + LFE ch, ~384.00 kbps avgАудио #3: 48 kHz, AC3 Dolby Digital, 3/2 (L,C,R,l,r) + LFE ch, ~384.00 kbps avg 2,18 Gb 18 3 13 сентября 2016 06:05 Мученицы / Martyrs (2008) BDRip от HELLYWOOD .torrent   [Информация о файле (нажмите для просмотра)] Перевод: Русский профессиональный перевод (СP Digital)Субтитры: НетФормат: AVIКачество: BDRip (источник: Видео: 720x384 (1.88:1), 23.976 fps, XviD build 50 ~1707 kbps avg, 0.26 bit/pixelЗвук: 48 kHz, AC3 Dolby Digital, 3/2 (L,C,R,l,r) + LFE ch, ~384.00 kbps avg 1,46 Gb 64 4 13 сентября 2016 06:05 Мученицы / Martyrs (2008) BDRip от HELLYWOOD .torrent   [Информация о файле (нажмите для просмотра)] Перевод: Русский профессиональный перевод (СP Digital) + Оригинальная французская звуковая дорожкаСубтитры: НетФормат: AVIКачество: BDRip (источник: Видео: 720x384 (1.88:1), 23.976 fps, XviD build 50 ~2240 kbps avg, 0.34 bit/pixelЗвук #1: 48 kHz, AC3 Dolby Digital, 3/2 (L,C,R,l,r) + LFE ch, ~448.00 kbps avgЗвук #2: 48 kHz, AC3 Dolby Digital, 3/2 (L,C,R,l,r) + LFE ch, ~448.00 kbps avg 2,18 Gb 4 1

gig-torrent.net

Скачать фильм Мученицы через торрент в хорошем качестве бесплатно HDRip

Размер: 1.36 GB | Добавлен: 1 год 7 мес. назад | Торрент скачан:233 раза
Реклама Дарим 3000 рублей за регистрацию, не упусти свой шанс получить шикарный бонус!!!

07-03-2016 17:53 Мученицы Скачать торрент  

Мученицы / Martyrs Год выпуска: 2015Страна: США / Blumhouse Productions, Safran Company, The, Temple Hill EntertainmenЖанр: ужасы, триллер, драмаПродолжительность: 01:26:25
  • Перевод: Дубляж - [Лицензия / iTunes]
  • Оригинальная аудиодорожка: Нет
Режиссер: Кевин Гетц, Майкл Гетц В ролях: Тройэн Эвери Беллисарио (Lucie), Бэйли Ноубл (Anna), Кейт Бёртон (Eleanor), Кэйтлин Кармайкл (Sam), Мелисса Трэйси (The Creature), Роми Роузмонт (Mom), Тоби Хасс (Fenton), Элиз Коул (Young Anna), Эвер Пришкульник (Young Lucie), Блейк Роббинс (Dad), Тейлор Джон Смит (Son), Лекси ДиБенедетто (Daughter) Описание: Спустя год после своего исчезновения, десятилетняя Люси неожиданно находится. Девочка так напугана, что не может ни с кем разговаривать и рассказать, что же с ней произошло. Проходит 10 лет. Люси все еще продолжают посещать кошмары и она не оставляет попыток выяснить, что с ней тогда случилось. И когда она, наконец, вместе со своей подругой, приближается вплотную к разгадке тайны, то попадает в новую ловушку. Теперь, если им не удастся найти выход, им грозит страшная и мучительная смерть.
  • Тип релиза: HDRip
  • Формат: AVI
  • Видео кодек: XviD | Аудио кодек: AC3
  • Видео: XviD, 720x304 (2.35:1), 1861 kbps, 23,976 fps, 0,355 bpp
  • Аудио: AC3 / 5.1 / 48 kHz / 384 kbps / 16 bit
  • Сэмпл: скачать
GeneralComplete name : C:\торрент\тор\My4enicy.2015.D.HDRip.aviFormat : AVIFormat/Info : Audio Video InterleaveFile size : 1.36 GiBDuration : 1h 26mnOverall bit rate : 2 255 KbpsWriting application : VirtualDubMod 1.5.10.2 (build 2540/release)Writing library : VirtualDubMod build 2540/release

VideoID : 0Format : MPEG-4 VisualFormat profile : Advanced [email protected] settings, BVOP : 2Format settings, QPel : NoFormat settings, GMC : No warppointsFormat settings, Matrix : Default (MPEG)Codec ID : XVIDCodec ID/Hint : XviDDuration : 1h 26mnBit rate : 1 862 KbpsWidth : 720 pixelsHeight : 304 pixelsDisplay aspect ratio : 2.35:1Frame rate : 23.976 (23976/1000) fpsColor space : YUVChroma subsampling : 4:2:0Bit depth : 8 bitsScan type : ProgressiveCompression mode : LossyBits/(Pixel*Frame) : 0.355Stream size : 1.12 GiB (83%)Writing library : XviD 1.2.1 (UTC 2008-12-04)

AudioID : 1Format : AC-3Format/Info : Audio Coding 3Mode extension : CM (complete main)Format settings, Endianness : BigCodec ID : 2000Duration : 1h 26mnBit rate mode : ConstantBit rate : 384 KbpsChannel(s) : 6 channelsChannel positions : Front: L C R, Side: L R, LFESampling rate : 48.0 KHzFrame rate : 31.250 fps (1536 spf)Compression mode : LossyStream size : 237 MiB (17%)Alignment : Split accross interleavesInterleave, duration : 42 ms (1.00 video frame)Interleave, preload duratio : 500 ms

Скачать Мученицы через торрент http://i75.fastpic.ru/big/2016/0307/ea/33cfe502ee6663775f79916a5b7f5fea.jpg Скачать фильм Мученицы через торрент бесплантно в хорошем качестве Описание: Спустя год после своего исчезновения, десятилетняя Люси неожиданно находится. Девочка так напугана, что не может ни с кем ... 2016-03-07 17:53 8.9 10 14

Loading...

Loading...

Рекламный пират

08-03-2016 04:18 Мученицы Скачать торрент  

Слабенький фильм мне непонравился(

Дорогой пользователь! Огромная просьба, поблагодарите релизера, оцените раздачу и оставьте свои комментарий, если Вы скачали Мученицы через торрент бесплатно! Внесите свою лепту в развитие PiratBit!

Комментировать посты могут только пользователи прошедшие не сложную регистрацию

Мученицы через торрент Скачать бесплатно Мученицы Мученицы скачать торрент Мученицы смотреть онлайн Cкачать фильм Мученицы бесплатно Мученицы скачать торрент в хорошем качестве Мученицы смотреть онлайн бесплатно в хорошем качестве

Вы не можете начинать темыВы не можете отвечать на сообщенияВы не можете редактировать свои сообщенияВы не можете удалять свои сообщенияВы не можете голосовать в опросахВы не можете прикреплять файлы к сообщениямВы можете скачивать файлы

piratbit.ru

Скачать фильм Мученицы через торрент в хорошем качестве бесплатно BDRip-AVC

Размер: 2.24 GB | Добавлен: 4 года 11 мес. назад | Торрент скачан:1337 раз
Реклама Дарим 3000 рублей за регистрацию, не упусти свой шанс получить шикарный бонус!!!

20-11-2012 11:57 Мученицы Скачать торрент  

Мученицы / Martyrs

Год выпуска: 2008Страна: ФранцияЖанр: ужасы, триллер, драмаПродолжительность: 01:39:44Перевод: Профессиональный многоголосый, Лицензия

Режиссер: Паскаль ЛожьеПродюссер: Ришар Гранпьер, Фредерик Донекуан, Марсель ЖироСценарий: Паскаль Ложье

Мировой рейтинг IMDB 7.00 (30 134)

В ролях: Морьяна Алауи, Милен Джампаной, Катрин Беджин, Роберт Тупан, Патриция Туласне, Джульетт Госселин, Ксавье Долан, Луиз Бойсверт, Jean-Marie Moncelet, Джесси Пэм

Описание: Франция, начало 70-х. Люси, маленькая девочка, почти год считавшаяся пропавшей без вести, обнаружена бредущей по проселочной дороге. Ребенок в состоянии глубокого шока и не может рассказать о случившемся. Полиция быстро находит место ее заточения — заброшенную скотобойню. Все говорит о том, что девочка долгое время не покидала своей тюрьмы. На грязном, исхудавшем, обезвоженном теле ребенка нет никаких следов сексуального насилия: это не было преступление, совершенное педофилом, но что-то гораздо более странное. Что случилось в этом месте? И как Люси сумела сбежать?

Качество: BDRip-AVCФормат: MKVВидео кодек: MPEG4/ISO/AVCАудио кодек: AC3Видео: 1280x692, 2772 Кбит/сек, 23,976 кадр/сек, AVC, 1,850, 0.131 Бит/(Пиксели*Кадры)Аудио#1: AC-3, 448 Кбит/сек, 6 канала(ов), 48,0 КГц

Мученицы скачать торрент

Скачать Мученицы через торрент http://pic.pb.wtf/images/1/gzo5cj1jhb.jpg Скачать фильм Мученицы через торрент бесплантно в хорошем качестве Описание: Франция, начало 70-х. Люси, маленькая девочка, почти год считавшаяся пропавшей без вести, обнаружена бредущей по проселочной ... 2012-11-20 11:57 10 10 12

Loading...

Loading...

Рекламный пират

20-11-2012 12:11 Мученицы Скачать торрент  

Год выпуска: 2008

20-11-2012 12:39 Мученицы Скачать торрент  

Kesady писал(а):

Год выпуска: 2008

да 2008 но фильм стоит посмотреть.

23-11-2012 15:03 Мученицы Скачать торрент  

очень жесткий фильм

26-11-2012 17:29 Мученицы Скачать торрент  

Однозначно к просмотру!

02-12-2012 06:39 Мученицы Скачать торрент  

Это пьяный БРЕД! Кто финансирует такие фильмы?

06-12-2012 11:16 Мученицы Скачать торрент  

Это тот фильм, где с нее в конце сняли кожу?реально самый кровавый фильм, который только существует...Долго не могла спать после него...Очень надо крепкие нервы, чтобы на это все смотреть...

08-12-2012 07:17 Мученицы Скачать торрент  

кому нравятся ужасы качайте не пожалеете

12-12-2012 22:18 Мученицы Скачать торрент  

фильм клас но кто несмотрел несмотритееееееее.

Pекламный агент PB

19-12-2012 22:37 Мученицы Скачать торрент  

Честно фильм не понравился вовсе. Блевать хочется...

23-12-2012 20:14 Мученицы Скачать торрент  

полный бред((((( кто снимает такие фильмы????? куда мир катится(((( нет слов!!!!

23-12-2012 21:51 Мученицы Скачать торрент  

Фильм классный,как для меня!Но скажу что смотреть и понять не каждому дано)

30-12-2012 13:26 Мученицы Скачать торрент  

Отличный фильм. Смотреть тяжело но философия фильма несет глубокий смысл. :jest3:

31-12-2012 08:43 Мученицы Скачать торрент  

спасибо, посмотрим, отпишемся

04-01-2013 22:52 Мученицы Скачать торрент  

-=Cherry=- подскажи что делает фильм 2008года здесь: Зарубежные фильмы 2012 HDrip, DVDrip

08-01-2013 09:37 Мученицы Скачать торрент  

фильм на разок,интересно что она нашептала бабули в ухо

11-01-2013 07:14 Мученицы Скачать торрент  

какие к черту ужасы...извращения и мерзость одна...

Pекламный агент PB

11-01-2013 17:02 Мученицы Скачать торрент  

МЯСО !!!! Ёпт нах такие фильмы !!!! шлакобут !!!

12-01-2013 15:22 Мученицы Скачать торрент  

фильм капееец !!!!!! мачете не такая кровавая . жесть досмотрел и ахирел!!!

09-10-2013 19:39 Мученицы Скачать торрент  

жесткий фильм!

06-04-2014 06:12 Мученицы Скачать торрент  

Поддержите раздачу плиз.

20-03-2016 08:10 Мученицы Скачать торрент  

фильм конечно жестковат, но меня долго мучил вопрос, так что же она сказала, бабке! В итоге смирился с разочарованием.

Дорогой пользователь! Огромная просьба, поблагодарите релизера, оцените раздачу и оставьте свои комментарий, если Вы скачали Мученицы через торрент бесплатно! Внесите свою лепту в развитие PiratBit!

Комментировать посты могут только пользователи прошедшие не сложную регистрацию

Мученицы через торрент Скачать бесплатно Мученицы Мученицы скачать торрент Мученицы смотреть онлайн Cкачать фильм Мученицы бесплатно Мученицы скачать торрент в хорошем качестве Мученицы смотреть онлайн бесплатно в хорошем качестве

Вы не можете начинать темыВы не можете отвечать на сообщенияВы не можете редактировать свои сообщенияВы не можете удалять свои сообщенияВы не можете голосовать в опросахВы не можете прикреплять файлы к сообщениямВы можете скачивать файлы

piratbit.ru

Скачать фильм Мученицы через торрент в хорошем качестве бесплатно HDRip

Размер: 1.43 GB | Добавлен: 1 год 9 мес. назад | Торрент скачан:230 раз
Реклама Дарим 3000 рублей за регистрацию, не упусти свой шанс получить шикарный бонус!!!

23-01-2016 01:35 Мученицы Скачать торрент  

Мученицы / Martyrs
  • Год выпуска: 2015
  • Страна: США
  • Жанр: ужасы, триллер, драма
  • Продолжительность: 01:26:25
  • Перевод: Любительский (одноголосый) [Xixidok]
  • Режиссер: Кевин Гетц / Kevin Goetz, Майкл Гетц / Michael Goetz
  • В ролях: Тройэн Эвери Беллисарио, Кэйтлин Кармайкл (Sam), Кейт Бёртон, Бэйли Ноубл, Тоби Хасс (Fenton), Лекси ДиБенедетто (Nicole Patterson), Тейлор Джон Смит (Brian Patterson), Диана Хоппер (Sarah), Блейк Роббинс, Питер Майкл Гец (Professor), Бориана Уильямс (Orphan), Эдвин Модлин (SWAT Team Leader)
  • Спустя год после своего исчезновения, десятилетняя Люси неожиданно находится. Девочка так напугана, что не может ни с кем разговаривать и рассказать, что же с ней произошло. Проходит 10 лет. Люси все еще продолжают посещать кошмары и она не оставляет попыток выяснить, что с ней тогда случилось. И когда она, наконец, вместе со своей подругой, приближается вплотную к разгадке тайны, то попадает в новую ловушку. Теперь, если им не удастся найти выход, им грозит страшная и мучительная смерть.
  • Рейтинг:
  • Качество: HDRip
  • Формат: :AVI
  • Видео кодек: XviD
  • Аудио кодек: AC3
  • Видео: 720x304 (2.35:1), 1919 kbps, 23,976 fps, 0,366 bpp
  • Аудио: 5.1 / 48 kHz / 448 kbps / 16 bit
  • Релиз от: GEKADOL

    Код:

    GeneralComplete name                            : G:\Martyrs.2015.L1.HDRip.aviFormat                                   : AVIFormat/Info                              : Audio Video InterleaveFile size                                : 1.43 GiBDuration                                 : 1h 26mnOverall bit rate                         : 2 376 KbpsWriting application                      : VirtualDubMod 1.5.10.3 | www.virtualdub-fr.org || (build 2550/release)Writing library                          : VirtualDubMod build 2550/release

    VideoID                                       : 0Format                                   : MPEG-4 VisualFormat profile                           : Advanced [email protected] settings, BVOP                    : 1Format settings, QPel                    : NoFormat settings, GMC                     : No warppointsFormat settings, Matrix                  : CustomCodec ID                                 : XVIDCodec ID/Hint                            : XviDDuration                                 : 1h 26mnBit rate                                 : 1 919 KbpsWidth                                    : 720 pixelsHeight                                   : 304 pixelsDisplay aspect ratio                     : 2.35:1Frame rate                               : 23.976 fpsColor space                              : YUVChroma subsampling                       : 4:2:0Bit depth                                : 8 bitsScan type                                : ProgressiveCompression mode                         : LossyBits/(Pixel*Frame)                       : 0.366Stream size                              : 1.16 GiB (81%)Writing library                          : XviD 73

    AudioID                                       : 1Format                                   : AC-3Format/Info                              : Audio Coding 3Mode extension                           : CM (complete main)Codec ID                                 : 2000Duration                                 : 1h 26mnBit rate mode                            : ConstantBit rate                                 : 448 KbpsChannel(s)                               : 6 channelsChannel positions                        : Front: L C R, Side: L R, LFESampling rate                            : 48.0 KHzBit depth                                : 16 bitsCompression mode                         : LossyStream size                              : 277 MiB (19%)Alignment                                : Split accross interleavesInterleave, duration                     : 42 ms (1.00 video frame)Interleave, preload duration             : 500 ms

    Скриншоты:
  • Скачать Мученицы через торрент http://i75.fastpic.ru/big/2016/0123/77/b389c6ebb50b7ed1be84fdf7e84c4877.jpg Скачать фильм Мученицы через торрент бесплантно в хорошем качестве qw.png Спустя год после своего исчезновения, десятилетняя Люси неожиданно находится. Девочка так напугана, что не может ни с кем ... 2016-01-23 01:35 5.5 10 4

    Loading...

    Loading...

    Рекламный пират

    23-01-2016 21:26 Мученицы Скачать торрент  

    Странный фильм...Не знаю, почему, но у меня ассоциации возникли с "Кожей, в которой я живу"!Фильм не ужасный и не страшный. Фильм мерзкий и противный, что тоже является одним из видов страха по Кингу!

    25-01-2016 09:30 Мученицы Скачать торрент  

    Помню фильм с таким же названием,вроде французкий,до сих пор как вспомню некоторые отрывки того фильма аж мутить начинает,надеюсь этот фильм на него не похож...

    Дорогой пользователь! Огромная просьба, поблагодарите релизера, оцените раздачу и оставьте свои комментарий, если Вы скачали Мученицы через торрент бесплатно! Внесите свою лепту в развитие PiratBit!

    Комментировать посты могут только пользователи прошедшие не сложную регистрацию

    Мученицы через торрент Скачать бесплатно Мученицы Мученицы скачать торрент Мученицы смотреть онлайн Cкачать фильм Мученицы бесплатно Мученицы скачать торрент в хорошем качестве Мученицы смотреть онлайн бесплатно в хорошем качестве

    Вы можете начинать темыВы можете отвечать на сообщенияВы не можете редактировать свои сообщенияВы не можете удалять свои сообщенияВы не можете голосовать в опросахВы не можете прикреплять файлы к сообщениямВы можете скачивать файлы

    piratbit.ru


    Смотрите также