Скачать торрент унесенные призраками 2001


Унесённые призраками (2001) hd 720p скачать торрент в хорошем качестве

Информация о фильмеНазвание: Унесённые призракамиОригинальное название: Sen to Chihiro no kamikakushiГод выхода: 2001Жанр: аниме, мультфильм, фэнтези, приключения, семейныйРежиссер: Хаяо МиядзакиВ ролях: Руми Хираги, Такаши Найто, Ясуко Савагучи, Ирино Мию, Бунта Сугавара, Мари Нацуки, Юми Тамаи, Тацуя Гасюин, Акио Накамура, Рюноскэ Камики

О фильме: Маленькая Тихиро вместе с мамой и папой переезжают в новый дом. Заблудившись по дороге, они оказываются в странном пустынном городе, где их ждет великолепный пир. Родители с жадностью набрасываются на еду и к ужасу девочки превращаются в свиней, став пленниками злой колдуньи Юбабы, властительницы таинственного мира древних богов и могущественных духов.

Теперь, оказавшись одна среди магических существ и загадочных видений, отважная Тихиро должна придумать, как избавить своих родителей от чар коварной старухи и спастись из пугающего царства призраков…

Выпущено: Studio GhibliПродолжительность: 02:04:32Перевод: Дублированный (лицензия)

ФайлКодек: x264Качество: BDRip (источник: Blu-ray Disc)Видео: 1280x690 (1,85:1), 23.976 fps, 2860 kbpsАудио #1: AC-3, 6 ch, 448 kbps (Rus)Аудио #2: AC-3, 6 ch, 448 kbps (Jpn)Субтитры: РусскиеСкачать: сэмпл

ОбщееУникальный идентификатор : 194243476774524442017854243767181983968 (0x9221EECEBEFCEEA9B1EE8E76A05D40E0)Полное имя : Sen.to.Chihiro.no.kamikakushi.2001.BDRip.720p.Rus.Jpn.mkvФормат : MatroskaВерсия формата : Version 2Размер файла : 3,27 ГбайтПродолжительность : 2 ч. 4 м.Общий поток : 3757 Кбит/секНазвание фильма : Унесённые призраками / Sen to Chihiro no kamikakushi (2001)Дата кодирования : UTC 2014-07-23 15:36:44Программа кодирования : mkvmerge v5.8.0 ('No Sleep / Pillow') built on Sep 2 2012 15:37:04Библиотека кодирования : libebml v1.2.3 + libmatroska v1.3.0

ВидеоИдентификатор : 1Формат : AVCФормат/Информация : Advanced Video CodecПрофиль формата : [email protected]Параметр CABAC формата : ДаПараметр ReFrames формата : 9 кадровИдентификатор кодека : V_MPEG4/ISO/AVCПродолжительность : 2 ч. 4 м.Битрейт : 2859 Кбит/секШирина : 1280 пикселейВысота : 690 пикселейСоотношение сторон : 1,85:1Режим частоты кадров : ПостоянныйЧастота кадров : 23,976 кадра/секЦветовое пространство : YUVСубдискретизация насыщенности : 4:2:0Битовая глубина : 8 битТип развёртки : ПрогрессивнаяБит/(Пиксели*Кадры) : 0.135Размер потока : 2,42 Гбайт (74%)Заголовок : Release by AlexKaБиблиотека кодирования : x264 core 142 r2431 ac76440Настройки программы : cabac=1 / ref=9 / deblock=1:0:0 / analyse=0x3:0x133 / me=umh / subme=11 / psy=1 / psy_rd=1.00:0.00 / mixed_ref=1 / me_range=32 / chroma_me=1 / trellis=2 / 8x8dct=1 / cqm=0 / deadzone=21,11 / fast_pskip=0 / chroma_qp_offset=-2 / threads=12 / lookahead_threads=3 / sliced_threads=0 / nr=0 / decimate=1 / interlaced=0 / bluray_compat=0 / constrained_intra=0 / bframes=11 / b_pyramid=2 / b_adapt=2 / b_bias=0 / direct=3 / weightb=1 / open_gop=0 / weightp=2 / keyint=240 / keyint_min=23 / scenecut=40 / intra_refresh=0 / rc=2pass / mbtree=0 / bitrate=2859 / ratetol=1.0 / qcomp=0.60 / qpmin=0 / qpmax=69 / qpstep=4 / cplxblur=20.0 / qblur=0.5 / ip_ratio=1.40 / pb_ratio=1.30 / aq=1:1.00Язык : Japanese

Аудио #1Идентификатор : 2Формат : AC-3Формат/Информация : Audio Coding 3Расширение режима : CM (complete main)Параметр Endianness формата : BigИдентификатор кодека : A_AC3Продолжительность : 2 ч. 4 м.Вид битрейта : ПостоянныйБитрейт : 448 Кбит/секКаналы : 6 каналовРасположение каналов : Front: L C R, Side: L R, LFEЧастота : 48,0 КГцБитовая глубина : 16 битМетод сжатия : С потерямиРазмер потока : 399 Мбайт (12%)Заголовок : RusЯзык : Russian

Аудио #2Идентификатор : 3Формат : AC-3Формат/Информация : Audio Coding 3Расширение режима : CM (complete main)Параметр Endianness формата : BigИдентификатор кодека : A_AC3Продолжительность : 2 ч. 4 м.Вид битрейта : ПостоянныйБитрейт : 448 Кбит/секКаналы : 6 каналовРасположение каналов : Front: L C R, Side: L R, LFEЧастота : 48,0 КГцБитовая глубина : 16 битМетод сжатия : С потерямиРазмер потока : 399 Мбайт (12%)Заголовок : JpnЯзык : Japanese

ТекстИдентификатор : 4Формат : UTF-8Идентификатор кодека : S_TEXT/UTF8Идентификатор кодека/Информация : UTF-8 Plain TextЗаголовок : RusЯзык : Russian

Меню00:00:00.000 : :Chapter 0100:01:39.098 : :Chapter 0200:03:16.236 : :Chapter 0300:07:23.526 : :Chapter 0400:10:45.394 : :Chapter 0500:17:03.021 : :Chapter 0600:22:48.532 : :Chapter 0700:28:36.047 : :Chapter 0800:33:28.172 : :Chapter 0900:38:21.674 : :Chapter 1000:44:11.815 : :Chapter 1100:48:26.820 : :Chapter 1200:54:31.351 : :Chapter 1301:02:09.016 : :Chapter 1401:08:11.587 : :Chapter 1501:14:36.847 : :Chapter 1601:19:10.579 : :Chapter 1701:25:39.759 : :Chapter 1801:31:18.889 : :Chapter 1901:37:33.805 : :Chapter 2001:45:18.937 : :Chapter 2101:50:25.118 : :Chapter 2201:52:51.097 : :Chapter 2301:55:14.198 : :Chapter 2402:00:53.579 : :Chapter 2502:04:31.255 : :Chapter 26

x264 [info]: frame I:1401 Avg QP:14.19 size:184955x264 [info]: frame P:39745 Avg QP:16.78 size: 35428x264 [info]: frame B:138009 Avg QP:19.28 size: 7268x264 [info]: consecutive B-frames: 2.9% 3.0% 9.3% 18.0% 17.8% 27.6% 12.2% 4.2% 2.3% 0.9% 0.8% 0.9%

rutorg2.ru

Унесённые призраками / Sen to Chihiro no kamikakushi [2001 аниме мультфильм DVDRip VO] скачать через торрент

Размер: 2.38 GB | Добавлен: 4 года 10 мес. назад | Торрент скачан:578 раз
Реклама Дарим 3000 рублей за регистрацию, не упусти свой шанс получить шикарный бонус!!!

24-12-2012 21:44 Унесённые призраками Скачать торрент  

Унесённые призраками / Sen to Chihiro no kamikakushi

Год выпуска: 2001Страна: ЯпонияЖанр: аниме, мультфильм, фэнтези, приключения, семейныйПродолжительность: 02:04:28Перевод: Профессиональный (полное дублирование)

Режиссер: Хаяо МиядзакиПродюссер: Дональд В. Эрнст, Тосио Судзуки, Лори КорнгебельСценарий: Хаяо Миядзаки

Мировой рейтинг IMDB 8.60 (195 386)

В ролях: Руми Хираги, Ирино Мию, Мари Нацуки, Такаши Найто, Ясуко Савагучи, Тацуя Гасюин, Рюноскэ Камики, Юми Тамаи, Ё Ойзуми, Коба Хаяси, Елизавета Захарьева, Наталья Данилова, Валерий Кухарешин, Александра Кожевникова, Светлана Репетина

Описание: Маленькая Тихиро вместе с мамой и папой переезжают в новый дом. Заблудившись по дороге, они оказываются в странном пустынном городе, где их ждет великолепный пир. Родители с жадностью набрасываются на еду и к ужасу девочки превращаются в свиней, став пленниками злой колдуньи Юбабы, властительницы таинственного мира древних богов и могущественных духов. Теперь, оказавшись одна среди магических существ и загадочных видений, отважная Тихиро должна придумать, как избавить своих родителей от чар коварной старухи и спастись из пугающего царства призраков...

Качество: DVDRipФормат: AVIВидео кодек: XviDАудио кодек: AC3Видео: 720x384(1.85:1) , XviD,1823 Кбит/сек,25.000 кадра/секАудио#1: Русск. яз., 48 kHz, AC3, 6 ch, ~448.00 kbps avgАудио#2: Японск. яз., 48 kHz, AC3, 6 ch, ~448.00 kbps avg

Унесённые призраками скачать торрент

Скачать Унесённые призраками через торрент http://pic.pb.wtf/images/1/gr4uzhxi7o.jpg Скачать фильм Унесённые призраками через торрент бесплантно в хорошем качестве Описание: Маленькая Тихиро вместе с мамой и папой переезжают в новый дом. Заблудившись по дороге, они оказываются в странном пустынном ... 2012-12-24 21:44 10 10 17

Loading...

Loading...

Последний раз редактировалось: Alex_E (2012-12-25 08:27), всего редактировалось 2 раз(а)

Рекламный пират

24-12-2012 21:59 Унесённые призраками Скачать торрент  

Отличное аниме

24-12-2012 22:02 Унесённые призраками Скачать торрент  

Teddy писал(а):

Отличное аниме Самому нравится

24-12-2012 23:36 Унесённые призраками Скачать торрент  

Очень, давно хотел ребёнку показать... Благодарю! :ad:

25-12-2012 02:17 Унесённые призраками Скачать торрент  

Одно из немногих аниме, которое мне очень нравится.

25-12-2012 04:50 Унесённые призраками Скачать торрент  

Редкостное, не перевариваемое мозгом Г. впрочем, как и весь жанр. ИмХо.

25-12-2012 05:15 Унесённые призраками Скачать торрент  

Alex_EСтань на раздачу. Укажи частоту видео.

25-12-2012 07:44 Унесённые призраками Скачать торрент  

Люблю Миядзаки. Хорошее аниме :)

05-06-2013 11:05 Унесённые призраками Скачать торрент  

Дайте скорости пожалуйста

Pекламный агент PB

22-06-2013 04:08 Унесённые призраками Скачать торрент  

Обожаю этот мултик. Спасибо.

21-05-2017 10:17 Унесённые призраками Скачать торрент  

Супер мультфильм! Спасибо!

Дорогой пользователь! Огромная просьба, поблагодарите релизера, оцените раздачу и оставьте свои комментарий, если Вы скачали Унесённые призраками через торрент бесплатно! Внесите свою лепту в развитие PiratBit!

Комментировать посты могут только пользователи прошедшие не сложную регистрацию

Унесённые призраками через торрент Скачать бесплатно Унесённые призраками Унесённые призраками скачать торрент Унесённые призраками смотреть онлайн Cкачать фильм Унесённые призраками бесплатно Унесённые призраками скачать торрент в хорошем качестве Унесённые призраками смотреть онлайн бесплатно в хорошем качестве

Вы не можете начинать темыВы не можете отвечать на сообщенияВы не можете редактировать свои сообщенияВы не можете удалять свои сообщенияВы не можете голосовать в опросахВы не можете прикреплять файлы к сообщениямВы можете скачивать файлы

piratbit.ru

Унесённые призраками / Sen to Chihiro no kamikakush [2001 сказка полнометражный BDRip 720p]DUBMVODVOAVOSubs скачать через торрент

ОбщееУникальный идентификатор : 191633932573476988145575278831842506191 (0x902B5A5855EA4C558209F41B57EA35CF)Полное имя : D:\720\Unesjonnye.prizrakami.2001.x264.BDRip.720p.MediaClub.mkvФормат : MatroskaВерсия формата : Version 4 / Version 2Размер файла : 7,23 ГбайтПродолжительность : 2 ч. 4 м.Общий поток : 8310 Кбит/секНазвание фильма : ReJIiZ MediaClub by BenderBESTДата кодирования : UTC 2014-07-21 17:39:47Программа кодирования : mkvmerge v6.9.1 ('Blue Panther') 64bit built on Apr 18 2014 18:23:38Библиотека кодирования : libebml v1.3.0 + libmatroska v1.4.1

ВидеоИдентификатор : 1Формат : AVCФормат/Информация : Advanced Video CodecПрофиль формата : [email protected]Параметр CABAC формата : ДаПараметр ReFrames формата : 8 кадровИдентификатор кодека : V_MPEG4/ISO/AVCПродолжительность : 2 ч. 4 м.Битрейт : 2641 Кбит/секНоминальный битрейт : 2800 Кбит/секШирина : 1280 пикселейВысота : 690 пикселейСоотношение сторон : 1,85:1Режим частоты кадров : ПостоянныйЧастота кадров : 23,976 кадра/секЦветовое пространство : YUVСубдискретизация насыщенности : 4:2:0Битовая глубина : 8 битТип развёртки : ПрогрессивнаяБит/(Пиксели*Кадры) : 0.125Размер потока : 2,30 Гбайт (32%)Библиотека кодирования : x264 core 142 r2431 ac76440Настройки программы : cabac=1 / ref=8 / deblock=1:-3:-3 / analyse=0x3:0x133 / me=umh / subme=11 / psy=1 / psy_rd=1.00:0.10 / mixed_ref=1 / me_range=48 / chroma_me=1 / trellis=2 / 8x8dct=1 / cqm=0 / deadzone=21,11 / fast_pskip=0 / chroma_qp_offset=-3 / threads=6 / lookahead_threads=1 / sliced_threads=0 / nr=0 / decimate=0 / interlaced=0 / bluray_compat=0 / constrained_intra=0 / bframes=12 / b_pyramid=2 / b_adapt=2 / b_bias=0 / direct=3 / weightb=1 / open_gop=0 / weightp=2 / keyint=240 / keyint_min=23 / scenecut=40 / intra_refresh=0 / rc=2pass / mbtree=0 / bitrate=2800 / ratetol=1.0 / qcomp=0.60 / qpmin=10 / qpmax=51 / qpstep=4 / cplxblur=20.0 / qblur=0.5 / ip_ratio=1.40 / pb_ratio=1.30 / aq=1:1.00Язык : JapaneseDefault : ДаForced : Нет

Аудио #1Идентификатор : 2Формат : AC-3Формат/Информация : Audio Coding 3Расширение режима : CM (complete main)Параметр Endianness формата : BigИдентификатор кодека : A_AC3Продолжительность : 2 ч. 4 м.Вид битрейта : ПостоянныйБитрейт : 448 Кбит/секКаналы : 6 каналовРасположение каналов : Front: L C R, Side: L R, LFEЧастота : 48,0 КГцБитовая глубина : 16 битМетод сжатия : С потерямиРазмер потока : 399 Мбайт (5%)Заголовок : ДубляжЯзык : RussianDefault : ДаForced : Нет

Аудио #2Идентификатор : 3Формат : AC-3Формат/Информация : Audio Coding 3Расширение режима : CM (complete main)Параметр Endianness формата : BigИдентификатор кодека : A_AC3Продолжительность : 2 ч. 4 м.Вид битрейта : ПостоянныйБитрейт : 192 Кбит/секКаналы : 2 каналаРасположение каналов : Front: L RЧастота : 48,0 КГцБитовая глубина : 16 битМетод сжатия : С потерямиРазмер потока : 171 Мбайт (2%)Заголовок : 2x2Язык : RussianDefault : НетForced : Нет

Аудио #3Идентификатор : 4Формат : AC-3Формат/Информация : Audio Coding 3Расширение режима : CM (complete main)Параметр Endianness формата : BigИдентификатор кодека : A_AC3Продолжительность : 2 ч. 4 м.Вид битрейта : ПостоянныйБитрейт : 448 Кбит/секКаналы : 6 каналовРасположение каналов : Front: L C R, Side: L R, LFEЧастота : 48,0 КГцБитовая глубина : 16 битМетод сжатия : С потерямиРазмер потока : 399 Мбайт (5%)Заголовок : DVDXpertЯзык : RussianDefault : НетForced : Нет

Аудио #4Идентификатор : 5Формат : AC-3Формат/Информация : Audio Coding 3Расширение режима : CM (complete main)Параметр Endianness формата : BigИдентификатор кодека : A_AC3Продолжительность : 2 ч. 4 м.Вид битрейта : ПостоянныйБитрейт : 448 Кбит/секКаналы : 6 каналовРасположение каналов : Front: L C R, Side: L R, LFEЧастота : 48,0 КГцБитовая глубина : 16 битМетод сжатия : С потерямиРазмер потока : 399 Мбайт (5%)Заголовок : TycoonЯзык : RussianDefault : НетForced : Нет

Аудио #5Идентификатор : 6Формат : AC-3Формат/Информация : Audio Coding 3Расширение режима : CM (complete main)Параметр Endianness формата : BigИдентификатор кодека : A_AC3Продолжительность : 2 ч. 4 м.Вид битрейта : ПостоянныйБитрейт : 448 Кбит/секКаналы : 6 каналовРасположение каналов : Front: L C R, Side: L R, LFEЧастота : 48,0 КГцБитовая глубина : 16 битМетод сжатия : С потерямиРазмер потока : 399 Мбайт (5%)Заголовок : П. Гланц, И. КоролёваЯзык : RussianDefault : НетForced : Нет

Аудио #6Идентификатор : 7Формат : AC-3Формат/Информация : Audio Coding 3Расширение режима : CM (complete main)Параметр Endianness формата : BigИдентификатор кодека : A_AC3Продолжительность : 2 ч. 4 м.Вид битрейта : ПостоянныйБитрейт : 448 Кбит/секКаналы : 6 каналовРасположение каналов : Front: L C R, Side: L R, LFEЧастота : 48,0 КГцБитовая глубина : 16 битМетод сжатия : С потерямиРазмер потока : 399 Мбайт (5%)Заголовок : Ю. СербинЯзык : RussianDefault : НетForced : Нет

Аудио #7Идентификатор : 8Формат : AC-3Формат/Информация : Audio Coding 3Расширение режима : CM (complete main)Параметр Endianness формата : BigИдентификатор кодека : A_AC3Продолжительность : 2 ч. 4 м.Вид битрейта : ПостоянныйБитрейт : 448 Кбит/секКаналы : 6 каналовРасположение каналов : Front: L C R, Side: L R, LFEЧастота : 48,0 КГцБитовая глубина : 16 битМетод сжатия : С потерямиРазмер потока : 399 Мбайт (5%)Заголовок : А. ГавриловЯзык : RussianDefault : НетForced : Нет

Аудио #8Идентификатор : 9Формат : AC-3Формат/Информация : Audio Coding 3Расширение режима : CM (complete main)Параметр Endianness формата : BigИдентификатор кодека : A_AC3Продолжительность : 2 ч. 4 м.Вид битрейта : ПостоянныйБитрейт : 448 Кбит/секКаналы : 6 каналовРасположение каналов : Front: L C R, Side: L R, LFEЧастота : 48,0 КГцБитовая глубина : 16 битМетод сжатия : С потерямиРазмер потока : 399 Мбайт (5%)Заголовок : А. ТолстобровЯзык : RussianDefault : НетForced : Нет

Аудио #9Идентификатор : 10Формат : AC-3Формат/Информация : Audio Coding 3Расширение режима : CM (complete main)Параметр Endianness формата : BigИдентификатор кодека : A_AC3Продолжительность : 2 ч. 4 м.Вид битрейта : ПостоянныйБитрейт : 448 Кбит/секКаналы : 6 каналовРасположение каналов : Front: L C R, Side: L R, LFEЧастота : 48,0 КГцБитовая глубина : 16 битМетод сжатия : С потерямиРазмер потока : 399 Мбайт (5%)Заголовок : С. РябовЯзык : RussianDefault : НетForced : Нет

Аудио #10Идентификатор : 11Формат : AC-3Формат/Информация : Audio Coding 3Расширение режима : CM (complete main)Параметр Endianness формата : BigИдентификатор кодека : A_AC3Продолжительность : 2 ч. 4 м.Вид битрейта : ПостоянныйБитрейт : 448 Кбит/секКаналы : 6 каналовРасположение каналов : Front: L C R, Side: L R, LFEЧастота : 48,0 КГцБитовая глубина : 16 битМетод сжатия : С потерямиРазмер потока : 399 Мбайт (5%)Заголовок : Е. РудойЯзык : RussianDefault : НетForced : Нет

Аудио #11Идентификатор : 12Формат : AC-3Формат/Информация : Audio Coding 3Расширение режима : CM (complete main)Параметр Endianness формата : BigИдентификатор кодека : A_AC3Продолжительность : 2 ч. 4 м.Вид битрейта : ПостоянныйБитрейт : 192 Кбит/секКаналы : 2 каналаРасположение каналов : Front: L RЧастота : 48,0 КГцБитовая глубина : 16 битМетод сжатия : С потерямиРазмер потока : 171 Мбайт (2%)Заголовок : TETЯзык : UkrainianDefault : НетForced : Нет

Аудио #12Идентификатор : 13Формат : AC-3Формат/Информация : Audio Coding 3Расширение режима : CM (complete main)Параметр Endianness формата : BigИдентификатор кодека : A_AC3Продолжительность : 2 ч. 4 м.Вид битрейта : ПостоянныйБитрейт : 192 Кбит/секКаналы : 2 каналаРасположение каналов : Front: L RЧастота : 48,0 КГцБитовая глубина : 16 битМетод сжатия : С потерямиРазмер потока : 171 Мбайт (2%)Заголовок : AnimEx, AniFilm, UkrDubЯзык : UkrainianDefault : НетForced : Нет

Аудио #13Идентификатор : 14Формат : AC-3Формат/Информация : Audio Coding 3Расширение режима : CM (complete main)Параметр Endianness формата : BigИдентификатор кодека : A_AC3Продолжительность : 2 ч. 4 м.Вид битрейта : ПостоянныйБитрейт : 448 Кбит/секКаналы : 6 каналовРасположение каналов : Front: L C R, Side: L R, LFEЧастота : 48,0 КГцБитовая глубина : 16 битМетод сжатия : С потерямиРазмер потока : 399 Мбайт (5%)Заголовок : ДубляжЯзык : EnglishDefault : НетForced : Нет

Аудио #14Идентификатор : 15Формат : AC-3Формат/Информация : Audio Coding 3Расширение режима : CM (complete main)Параметр Endianness формата : BigИдентификатор кодека : A_AC3Продолжительность : 2 ч. 4 м.Вид битрейта : ПостоянныйБитрейт : 448 Кбит/секКаналы : 6 каналовРасположение каналов : Front: L C R, Side: L R, LFEЧастота : 48,0 КГцБитовая глубина : 16 битМетод сжатия : С потерямиРазмер потока : 399 Мбайт (5%)Язык : JapaneseDefault : НетForced : Нет

Текст #1Идентификатор : 16Формат : UTF-8Идентификатор кодека : S_TEXT/UTF8Идентификатор кодека/Информация : UTF-8 Plain TextЯзык : RussianDefault : НетForced : Нет

Текст #2Идентификатор : 17Формат : UTF-8Идентификатор кодека : S_TEXT/UTF8Идентификатор кодека/Информация : UTF-8 Plain TextЯзык : UkrainianDefault : НетForced : Нет

Текст #3Идентификатор : 18Формат : UTF-8Идентификатор кодека : S_TEXT/UTF8Идентификатор кодека/Информация : UTF-8 Plain TextЯзык : EnglishDefault : НетForced : Нет

Текст #4Идентификатор : 19Формат : UTF-8Идентификатор кодека : S_TEXT/UTF8Идентификатор кодека/Информация : UTF-8 Plain TextЯзык : JapaneseDefault : НетForced : Нет

Меню00:00:00.000 : en:00:00:00.00000:01:39.099 : en:00:01:39.09900:03:16.238 : en:00:03:16.23800:07:23.526 : en:00:07:23.52600:10:45.395 : en:00:10:45.39500:17:03.022 : en:00:17:03.02200:22:48.534 : en:00:22:48.53400:28:36.048 : en:00:28:36.04800:33:28.173 : en:00:33:28.17300:38:21.674 : en:00:38:21.67400:44:11.816 : en:00:44:11.81600:48:26.821 : en:00:48:26.82100:54:31.351 : en:00:54:31.35101:02:09.017 : en:01:02:09.01701:08:11.587 : en:01:08:11.58701:14:36.847 : en:01:14:36.84701:19:10.579 : en:01:19:10.57901:25:39.760 : en:01:25:39.76001:31:18.890 : en:01:31:18.89001:37:33.806 : en:01:37:33.80601:45:18.937 : en:01:45:18.93701:50:25.118 : en:01:50:25.11801:52:51.098 : en:01:52:51.09801:55:14.199 : en:01:55:14.19902:00:53.580 : en:02:00:53.580

piratbit.ru

rutor.org :: Унесённые призраками / Sen to Chihiro no kamikakushi (2001) BDRip 720p ::: Скачать торрент

Информация о фильмеНазвание: Унесённые призракамиОригинальное название: Sen to Chihiro no kamikakushiГод выхода: 2001Жанр: аниме, мультфильм, фэнтези, приключения, семейныйРежиссер: Хаяо МиядзакиВ ролях: Руми Хираги, Такаши Найто, Ясуко Савагучи, Ирино Мию, Бунта Сугавара, Мари Нацуки, Юми Тамаи, Тацуя Гасюин, Акио Накамура, Рюноскэ Камики

О фильме: Маленькая Тихиро вместе с мамой и папой переезжают в новый дом. Заблудившись по дороге, они оказываются в странном пустынном городе, где их ждет великолепный пир. Родители с жадностью набрасываются на еду и к ужасу девочки превращаются в свиней, став пленниками злой колдуньи Юбабы, властительницы таинственного мира древних богов и могущественных духов.

Теперь, оказавшись одна среди магических существ и загадочных видений, отважная Тихиро должна придумать, как избавить своих родителей от чар коварной старухи и спастись из пугающего царства призраков…

Выпущено: Studio GhibliПродолжительность: 02:04:32Перевод: Дублированный (лицензия)

ФайлКодек: x264Качество: BDRip (источник: Blu-ray Disc)Видео: 1280x690 (1,85:1), 23.976 fps, 2860 kbpsАудио #1: AC-3, 6 ch, 448 kbps (Rus)Аудио #2: AC-3, 6 ch, 448 kbps (Jpn)Субтитры: РусскиеСкачать: сэмпл

Скриншоты

MI

Общее Уникальный идентификатор : 194243476774524442017854243767181983968 (0x9221EECEBEFCEEA9B1EE8E76A05D40E0) Полное имя : Sen.to.Chihiro.no.kamikakushi.2001.BDRip.720p.Rus.Jpn.mkv Формат : Matroska Версия формата : Version 2 Размер файла : 3,27 Гбайт Продолжительность : 2 ч. 4 м. Общий поток : 3757 Кбит/сек Название фильма : Унесённые призраками / Sen to Chihiro no kamikakushi (2001) Дата кодирования : UTC 2014-07-23 15:36:44 Программа кодирования : mkvmerge v5.8.0 ('No Sleep / Pillow') built on Sep 2 2012 15:37:04 Библиотека кодирования : libebml v1.2.3 + libmatroska v1.3.0

Видео Идентификатор : 1 Формат : AVC Формат/Информация : Advanced Video Codec Профиль формата : [email protected] Параметр CABAC формата : Да Параметр ReFrames формата : 9 кадров Идентификатор кодека : V_MPEG4/ISO/AVC Продолжительность : 2 ч. 4 м. Битрейт : 2859 Кбит/сек Ширина : 1280 пикселей Высота : 690 пикселей Соотношение сторон : 1,85:1 Режим частоты кадров : Постоянный Частота кадров : 23,976 кадра/сек Цветовое пространство : YUV Субдискретизация насыщенности : 4:2:0 Битовая глубина : 8 бит Тип развёртки : Прогрессивная Бит/(Пиксели*Кадры) : 0.135 Размер потока : 2,42 Гбайт (74%) Заголовок : Release by AlexKa Библиотека кодирования : x264 core 142 r2431 ac76440 Настройки программы : cabac=1 / ref=9 / deblock=1:0:0 / analyse=0x3:0x133 / me=umh / subme=11 / psy=1 / psy_rd=1.00:0.00 / mixed_ref=1 / me_range=32 / chroma_me=1 / trellis=2 / 8x8dct=1 / cqm=0 / deadzone=21,11 / fast_pskip=0 / chroma_qp_offset=-2 / threads=12 / lookahead_threads=3 / sliced_threads=0 / nr=0 / decimate=1 / interlaced=0 / bluray_compat=0 / constrained_intra=0 / bframes=11 / b_pyramid=2 / b_adapt=2 / b_bias=0 / direct=3 / weightb=1 / open_gop=0 / weightp=2 / keyint=240 / keyint_min=23 / scenecut=40 / intra_refresh=0 / rc=2pass / mbtree=0 / bitrate=2859 / ratetol=1.0 / qcomp=0.60 / qpmin=0 / qpmax=69 / qpstep=4 / cplxblur=20.0 / qblur=0.5 / ip_ratio=1.40 / pb_ratio=1.30 / aq=1:1.00 Язык : Japanese

Аудио #1 Идентификатор : 2 Формат : AC-3 Формат/Информация : Audio Coding 3 Расширение режима : CM (complete main) Параметр Endianness формата : Big Идентификатор кодека : A_AC3 Продолжительность : 2 ч. 4 м. Вид битрейта : Постоянный Битрейт : 448 Кбит/сек Каналы : 6 каналов Расположение каналов : Front: L C R, Side: L R, LFE Частота : 48,0 КГц Битовая глубина : 16 бит Метод сжатия : С потерями Размер потока : 399 Мбайт (12%) Заголовок : Rus Язык : Russian

Аудио #2 Идентификатор : 3 Формат : AC-3 Формат/Информация : Audio Coding 3 Расширение режима : CM (complete main) Параметр Endianness формата : Big Идентификатор кодека : A_AC3 Продолжительность : 2 ч. 4 м. Вид битрейта : Постоянный Битрейт : 448 Кбит/сек Каналы : 6 каналов Расположение каналов : Front: L C R, Side: L R, LFE Частота : 48,0 КГц Битовая глубина : 16 бит Метод сжатия : С потерями Размер потока : 399 Мбайт (12%) Заголовок : Jpn Язык : Japanese

Текст Идентификатор : 4 Формат : UTF-8 Идентификатор кодека : S_TEXT/UTF8 Идентификатор кодека/Информация : UTF-8 Plain Text Заголовок : Rus Язык : Russian

Меню 00:00:00.000 : :Chapter 01 00:01:39.098 : :Chapter 02 00:03:16.236 : :Chapter 03 00:07:23.526 : :Chapter 04 00:10:45.394 : :Chapter 05 00:17:03.021 : :Chapter 06 00:22:48.532 : :Chapter 07 00:28:36.047 : :Chapter 08 00:33:28.172 : :Chapter 09 00:38:21.674 : :Chapter 10 00:44:11.815 : :Chapter 11 00:48:26.820 : :Chapter 12 00:54:31.351 : :Chapter 13 01:02:09.016 : :Chapter 14 01:08:11.587 : :Chapter 15 01:14:36.847 : :Chapter 16 01:19:10.579 : :Chapter 17 01:25:39.759 : :Chapter 18 01:31:18.889 : :Chapter 19 01:37:33.805 : :Chapter 20 01:45:18.937 : :Chapter 21 01:50:25.118 : :Chapter 22 01:52:51.097 : :Chapter 23 01:55:14.198 : :Chapter 24 02:00:53.579 : :Chapter 25 02:04:31.255 : :Chapter 26

x264

x264 [info]: frame I:1401 Avg QP:14.19 size:184955 x264 [info]: frame P:39745 Avg QP:16.78 size: 35428 x264 [info]: frame B:138009 Avg QP:19.28 size: 7268 x264 [info]: consecutive B-frames: 2.9% 3.0% 9.3% 18.0% 17.8% 27.6% 12.2% 4.2% 2.3% 0.9% 0.8% 0.9%

main-rutor.org


Смотрите также