В поисках немо мультфильм 2003 скачать торрент 1080


rutor.org :: В поисках Немо / Finding Nemo (2003) BDRip 1080p ::: Скачать торрент

Информация о фильмеНазвание: В поисках НемоОригинальное название: Finding NemoГод выхода: 2003Жанр: мультфильм, комедия, приключения, семейныйРежиссер: Эндрю Стэнтон, Ли АнкричВ ролях: Альберт Брукс, Эллен ДеДженерес, Александр Гулд, Уиллем Дефо, Эллисон Дженни, Джо Рэнфт, Джеффри Раш, Элизабет Перкинс, Эрик Бана, Эндрю Стэнтон

О фильме: Среди прекрасных тропических морских стихий, в районе Большого барьерного рифа в уединении живет рыба-клоун по имени Марлин. Он растит своего единственного сыночка Немо. Океан и существующие в нем опасности очень страшат Марлина, и он как может ограждает сына от них, но молодой Немо, страдающий излишним любопытством, очень хочет разузнать побольше о таинственном рифе, рядом с которым они живут.

Когда Немо по иронии судьбы оказывается вдалеке от дома, да и еще сталкивается с угрозой стать обедом рыбы-танка, Марлин отправляется на поиски сына. Но Марлин, конечно же, понимает, что героический спасатель из него не получится и просит о помощи в поисках, Дори, королевскую синюю рыбу, которая хоть и страдает от того, что почти ничего не помнит, но добрее ее не отыскать во всем безбрежном океане!

Итак, наши герои отправляются в путешествие, в котором их подкарауливают многочисленные трудности и опасности…

Выпущено: Walt Disney PicturesПродолжительность: 01:40:54Перевод: Дублированный (лицензия)

ФайлКодек: x264Качество: BDRip (источник: Blu-ray Disc)Видео: 1920x1080 (16:9), 23.976 fps, 6898 kbpsАудио #1: AC-3, 6 ch, 640 kbps (Rus)Аудио #2: AC-3, 6 ch, 640 kbps (Eng)Субтитры: Русские, АнглийскиеСкачать: сэмпл

Скриншоты

MI

Общее Уникальный идентификатор : 182797521888520761985066421714055125074 (0x898585A96D1A1692B0114FD65104D852) Полное имя : Finding.Nemo.2003.BDRip.1080p.Rus.Eng.mkv Формат : Matroska Версия формата : Version 2 Размер файла : 5,77 Гбайт Продолжительность : 1 ч. 40 м. Общий поток : 8180 Кбит/сек Название фильма : В поисках Немо / Finding Nemo (2003) Дата кодирования : UTC 2012-11-07 22:37:43 Программа кодирования : mkvmerge v5.8.0 ('No Sleep / Pillow') built on Sep 2 2012 15:37:04 Библиотека кодирования : libebml v1.2.3 + libmatroska v1.3.0

Видео Идентификатор : 1 Формат : AVC Формат/Информация : Advanced Video Codec Профиль формата : [email protected] Параметр CABAC формата : Да Параметр ReFrames формата : 4 кадра Идентификатор кодека : V_MPEG4/ISO/AVC Продолжительность : 1 ч. 40 м. Битрейт : 6898 Кбит/сек Ширина : 1920 пикселей Высота : 1080 пикселей Соотношение сторон : 16:9 Частота кадров : 23,976 кадра/сек Цветовое пространство : YUV Субдискретизация насыщенности : 4:2:0 Битовая глубина : 8 бит Тип развёртки : Прогрессивная Бит/(Пиксели*Кадры) : 0.139 Размер потока : 4,75 Гбайт (82%) Заголовок : Release by AlexKa Библиотека кодирования : x264 core 128 r2216 198a7ea Настройки программы : cabac=1 / ref=4 / deblock=1:0:0 / analyse=0x3:0x133 / me=umh / subme=10 / psy=1 / psy_rd=1.00:0.00 / mixed_ref=1 / me_range=32 / chroma_me=1 / trellis=2 / 8x8dct=1 / cqm=0 / deadzone=21,11 / fast_pskip=0 / chroma_qp_offset=-2 / threads=12 / lookahead_threads=2 / sliced_threads=0 / nr=0 / decimate=0 / interlaced=0 / bluray_compat=0 / constrained_intra=0 / bframes=5 / b_pyramid=2 / b_adapt=2 / b_bias=0 / direct=3 / weightb=1 / open_gop=0 / weightp=2 / keyint=240 / keyint_min=23 / scenecut=40 / intra_refresh=0 / rc=2pass / mbtree=0 / bitrate=6898 / ratetol=1.0 / qcomp=0.60 / qpmin=0 / qpmax=69 / qpstep=4 / cplxblur=20.0 / qblur=0.5 / ip_ratio=1.40 / pb_ratio=1.30 / aq=1:1.00 Язык : English

Аудио #1 Идентификатор : 2 Формат : AC-3 Формат/Информация : Audio Coding 3 Расширение режима : CM (complete main) Идентификатор кодека : A_AC3 Продолжительность : 1 ч. 40 м. Вид битрейта : Постоянный Битрейт : 640 Кбит/сек Каналы : 6 каналов Расположение каналов : Front: L C R, Side: L R, LFE Частота : 48,0 КГц Битовая глубина : 16 бит Метод сжатия : С потерями Размер потока : 462 Мбайт (8%) Заголовок : Rus Язык : Russian

Аудио #2 Идентификатор : 3 Формат : AC-3 Формат/Информация : Audio Coding 3 Расширение режима : CM (complete main) Идентификатор кодека : A_AC3 Продолжительность : 1 ч. 40 м. Вид битрейта : Постоянный Битрейт : 640 Кбит/сек Каналы : 6 каналов Расположение каналов : Front: L C R, Side: L R, LFE Частота : 48,0 КГц Битовая глубина : 16 бит Метод сжатия : С потерями Размер потока : 462 Мбайт (8%) Заголовок : Eng Язык : English

Текст #1 Идентификатор : 4 Формат : UTF-8 Идентификатор кодека : S_TEXT/UTF8 Идентификатор кодека/Информация : UTF-8 Plain Text Заголовок : Rus Язык : Russian

Текст #2 Идентификатор : 5 Формат : UTF-8 Идентификатор кодека : S_TEXT/UTF8 Идентификатор кодека/Информация : UTF-8 Plain Text Заголовок : Eng Язык : English

Меню 00:00:00.000 : :Chapter 01 00:04:18.716 : :Chapter 02 00:05:35.668 : :Chapter 03 00:11:17.802 : :Chapter 04 00:12:16.277 : :Chapter 05 00:14:08.847 : :Chapter 06 00:16:29.279 : :Chapter 07 00:18:50.337 : :Chapter 08 00:25:31.988 : :Chapter 09 00:30:54.227 : :Chapter 10 00:33:01.646 : :Chapter 11 00:36:11.836 : :Chapter 12 00:40:19.166 : :Chapter 13 00:44:58.278 : :Chapter 14 00:48:12.389 : :Chapter 15 00:51:28.418 : :Chapter 16 00:56:07.030 : :Chapter 17 01:00:55.902 : :Chapter 18 01:05:20.666 : :Chapter 19 01:07:02.101 : :Chapter 20 01:08:30.147 : :Chapter 21 01:13:19.436 : :Chapter 22 01:14:15.200 : :Chapter 23 01:16:00.097 : :Chapter 24 01:18:41.299 : :Chapter 25 01:21:57.621 : :Chapter 26 01:24:29.481 : :Chapter 27 01:26:54.334 : :Chapter 28 01:29:26.611 : :Chapter 29 01:30:51.362 : :Chapter 30 01:32:42.974 : :Chapter 31 01:33:24.265 : :Chapter 32 01:40:53.714 : :Chapter 33

x264

x264 [info]: frame I:1087 Avg QP:17.62 size:190109 x264 [info]: frame P:43423 Avg QP:20.22 size: 62208 x264 [info]: frame B:100640 Avg QP:22.01 size: 22975

main-rutor.org

rutor.org :: В поисках Немо / Finding Nemo (2003) BDRip 720p от Leonardo and Scarabey

В поисках Немо / Finding Nemo

Страна: СШАГод выпуска: 2003Жанр: мультфильм, комедия, приключения, семейныйПродолжительность: 01:40:53Перевод: Профессиональный (полное дублирование) Лицензия

Режиссер: Эндрю Стэнтон, Ли Анкрич / Andrew Stanton, Lee Unkrich

Актеры: Альберт Брукс, Эллен ДеДженерес, Александр Гоулд, Уиллем Дефо, Эллисон Дженни, Джо Рэнфт, Джеффри Раш, Элизабет Перкинс, Эрик Бана, Эндрю Стэнтон

Описание фильма: Среди прекрасных тропических морских стихий, в районе Большого барьерного рифа в уединении живет рыба-клоун по имени Марлин. Он растит своего единственного сыночка Немо. Океан и существующие в нем опасности очень страшат Марлина, и он как может ограждает сына от них, но молодой Немо, страдающий излишним любопытством, очень хочет разузнать побольше о таинственном рифе, рядом с которым они живут.

Когда Немо по иронии судьбы оказывается вдалеке от дома, да и еще сталкивается с угрозой стать обедом рыбы-танка, Марлин отправляется на поиски сына. Но Марлин, конечно же, понимает, что героический спасатель из него не получится и просит о помощи в поисках, Дори, королевскую синюю рыбу, которая хоть и страдает от того, что почти ничего не помнит, но добрее ее не отыскать во всем безбрежном океане!

Итак, наши герои отправляются в путешествие, в котором их подкарауливают многочисленные трудности и опасности…

ФайлКачество видео: BDRip 720p Исходник: Blu-rayФормат: MKV Видео кодек: MPEG-4 AVC Аудио кодек: AC3Видео: AVC, 1280x720 (16:9) at 23.976 fps, AVC at 4757 kbps avg, 0.215 bit/pixelАудио: Russian: 48 kHz; AC3 5.1; 640.00 kbps avg; профессиональный, полное дублированиеСубтитры: Русские, английскиеНавигация по главам: Есть

Автор рипа:

Релиз от:

АНОНСЫ МОИХ РАЗДАЧ!

MediaInfo

* * * MediaInfo Mac 0.7.33.4 file analysis report. * * * MediaInfo Mac is ©2010 by Diego Massanti - http://mediainfo.massanti.com * * * MediaInfoLib by Jerome Martinez - http://mediainfo.sourceforge.net Created on: 21.07.2014 15:51:10 Московское летнее время Report for file: Finding Nemo.2003.720p.BluRay.x264-LEONARDO_[scarabey.org].mkv

General / Container Stream #1 Total Video Streams for this File.................1 Total Audio Streams for this File.................1 Total Subtitle Streams for this File..............4 Video Codecs Used.................................AVC Audio Codecs Used.................................AC3 SubTitle Codecs Used..............................UTF-8 / UTF-8 / UTF-8 / UTF-8 Available Sutbitle Languages......................Russian / Ukrainian / / File Format.......................................Matroska Play Time.........................................1h 40mn Total File Size...................................3.88 GiB Total Stream BitRate..............................5 506 Kbps Title (Tag).......................................-=LEONARDO=- Encoded with......................................mkvmerge v5.0.1 ('Es ist Sommer') built on Oct 23 2011 00:46:40 Encoding Library..................................libebml v1.2.2 + libmatroska v1.3.0 Video Stream #1 Codec (Human Name)................................AVC Codec (FourCC)....................................V_MPEG4/ISO/AVC Codec [email protected] Frame Width.......................................1 280 pixels Frame Height......................................720 pixels Frame Rate........................................23.976 fps Total Frames......................................145150 Display Aspect Ratio..............................16:9 Scan Type.........................................Progressive Color Space.......................................YUV Codec Settings (Summary)..........................CABAC / 9 Ref Frames QF (like Gordian Knot)............................0.215 Codec Settings (CABAC)............................Yes Codec Settings (Reference Frames).................9 Video Stream Length...............................1h 40mn 53s 971ms Video Stream BitRate..............................4 757 Kbps Bit Depth.........................................8 bits Video Stream Size.................................3.35 GiB (86%) Video Encoder.....................................x264 - core 125 r2208 d9d2288 Video Encoder (Settings)..........................cabac=1 / ref=9 / deblock=1:-3:-3 / analyse=0x3:0x133 / me=umh / subme=11 / psy=1 / psy_rd=1.00:0.20 / mixed_ref=1 / me_range=32 / chroma_me=1 / trellis=2 / 8x8dct=1 / cqm=0 / deadzone=21,11 / fast_pskip=0 / chroma_qp_offset=-3 / threads=12 / lookahead_threads=2 / sliced_threads=0 / nr=0 / decimate=1 / interlaced=0 / bluray_compat=0 / constrained_intra=0 / bframes=8 / b_pyramid=2 / b_adapt=2 / b_bias=0 / direct=1 / weightb=1 / open_gop=0 / weightp=2 / keyint=250 / keyint_min=23 / scenecut=40 / intra_refresh=0 / rc=crf / mbtree=0 / crf=19.0 / qcomp=0.60 / qpmin=0 / qpmax=69 / qpstep=4 / ip_ratio=1.10 / pb_ratio=1.10 / aq=1:1.00 Audio Stream #1 Codec.............................................AC-3 Codec (FourCC)....................................A_AC3 Audio Stream Length...............................1h 40mn 53s 984ms Audio Stream BitRate..............................640 Kbps Audio Stream BitRate Mode.........................CBR Number of Audio Channels..........................6 Audio Channel's Positions.........................Front: L C R, Side: L R, LFE Sampling Rate.....................................48.0 KHz Audio Stream Size.................................462 MiB (12%) Audio Stream Language.............................Russian Subtitle Stream #1 Language..........................................Russian Format............................................UTF-8 Codec ID..........................................S_TEXT/UTF8 Codec Info........................................UTF-8 Plain Text Subtitle Stream #2 Language..........................................Ukrainian Format............................................UTF-8 Codec ID..........................................S_TEXT/UTF8 Codec Info........................................UTF-8 Plain Text Subtitle Stream #3 Format............................................UTF-8 Codec ID..........................................S_TEXT/UTF8 Codec Info........................................UTF-8 Plain Text Subtitle Stream #4 Format............................................UTF-8 Codec ID..........................................S_TEXT/UTF8 Codec Info........................................UTF-8 Plain Text Menu / Chapters Stream #1

main-rutor.org

В поисках Немо / Finding Nemo [2003 Мультфильм Мело 3D BDRip 1080p] Дубляж

Размер: 10.94 GB | Добавлен: 1 год 1 мес. назад | Торрент скачан:31 раз
Реклама Дарим 3000 рублей за регистрацию, не упусти свой шанс получить шикарный бонус!!!

29-08-2016 12:52 В поисках Немо Скачать торрент  

В поисках Немо / Finding Nemo Год выпуска: 2003Страна: Австралия , США (Walt Disney Pictures, Pixar Animation Studios)Жанр: Мультфильм, Приключения, Мелодрама, Комедия, Семейный, 3DПродолжительность: 01:40:54Перевод: Дубляж - [BD CEE]Субтитры: русские (Полные), украинские (Полные), английские (Full), английские (SDH)

Режиссер: Эндрю Стэнтон, Ли Анкрич / Andrew Stanton, Lee Unkrich

В ролях: Альберт Брукс (Marlin, озвучка), Эллен ДеДженерес (Dory, озвучка), Александр Гоулд (Nemo, озвучка), Уиллем Дефо (Gill, озвучка), Эллисон Дженни (Peach, озвучка), Джо Рэнфт (Jacques, озвучка), Джеффри Раш (Nigel, озвучка), Элизабет Перкинс (Coral, озвучка), Эрик Бана (Anchor, озвучка), Эндрю Стэнтон (Crush, озвучка), Брэд Гэррет (Bloat, озвучка), Остин Пендлтон (Gurgle, озвучка)

Описание:

Среди прекрасных тропических морских стихий, в районе Большого барьерного рифа в уединении живет рыба-клоун по имени Марлин. Он растит своего единственного сыночка Немо. Океан и существующие в нем опасности очень страшат Марлина, и он как может ограждает сына от них, но молодой Немо, страдающий излишним любопытством, очень хочет разузнать побольше о таинственном рифе, рядом с которым они живут.Когда Немо по иронии судьбы оказывается вдалеке от дома, да и еще сталкивается с угрозой стать обедом рыбы-танка, Марлин отправляется на поиски сына. Но Марлин, конечно же, понимает, что героический спасатель из него не получится и просит о помощи в поисках, Дори, королевскую синюю рыбу, которая хоть и страдает от того, что почти ничего не помнит, но добрее ее не отыскать во всем безбрежном океане!Итак, наши герои отправляются в путешествие, в котором их подкарауливают многочисленные трудности и опасности…

Рейтинг: MPAA: G - Нет возрастных ограничений

Премьера: 30 мая 2003 (25 декабря 2003)Бюджет: $134 000 000Кассовые сборы: $921 261 061Ре-премьера: 13 сентября 2012Релиз на Blu-Ray: 27 ноября 2012

Качество: BDRip (Ash61)Формат: MKVФормат 3D: Half OverUnder / Вертикальная анаморфная стереопараВидео: AVC, 1920x1080 (16:9), 13294 kbps, 23,976 fps, 0,267 bppАудио №1: русский / AC3 / 5.1 / 48 kHz / 640 kbps / || (BD CEE)Аудио №2: украинский / AC3 / 5.1 / 48 kHz / 640 kbps / (BD CEE)Аудио №3: английский / AC3 / 5.1 / 48 kHz / 640 kbps /

GeneralUnique ID : 176880093375281114128585341131642593501 (0x8511DDE935A9C3B181D5CE20163B60DD)Complete name : FindingNemo(3D)2003.halfOU(Ash61).mkvFormat : MatroskaFormat version : Version 2File size : 10.9 GiBDuration : 1 h 40 minOverall bit rate : 15.5 Mb/sMovie name : Finding Nemo (3D) 2003 (by Ash61)Encoded date : UTC 2012-12-04 15:52:23Writing application : mkvmerge v5.8.0 ('No Sleep / Pillow') built on Sep 2 2012 15:37:04Writing library : libebml v1.2.3 + libmatroska v1.3.0

VideoID : 1Format : AVCFormat/Info : Advanced Video CodecFormat profile : Hi[email protected] settings, CABAC : YesFormat settings, ReFrames : 4 framesCodec ID : V_MPEG4/ISO/AVCDuration : 1 h 40 minBit rate : 13.3 Mb/sWidth : 1 920 pixelsHeight : 1 080 pixelsDisplay aspect ratio : 16:9Frame rate mode : ConstantFrame rate : 23.976 (24000/1001) FPSColor space : YUVChroma subsampling : 4:2:0Bit depth : 8 bitsScan type : ProgressiveBits/(Pixel*Frame) : 0.267Stream size : 9.37 GiB (86%)Title : BDrip by Ash61Writing library : x264 core 116 r2074 2641b9eEncoding settings : cabac=1 / ref=4 / deblock=1:-3:-3 / analyse=0x3:0x113 / me=umh / subme=9 / psy=1 / psy_rd=1.00:0.15 / mixed_ref=1 / me_range=16 / chroma_me=1 / trellis=2 / 8x8dct=1 / cqm=0 / deadzone=21,11 / fast_pskip=1 / chroma_qp_offset=-3 / threads=12 / sliced_threads=0 / nr=0 / decimate=1 / interlaced=0 / bluray_compat=0 / constrained_intra=0 / bframes=6 / b_pyramid=2 / b_adapt=2 / b_bias=0 / direct=3 / weightb=1 / open_gop=0 / weightp=2 / keyint=250 / keyint_min=23 / scenecut=40 / intra_refresh=0 / rc_lookahead=60 / rc=crf / mbtree=1 / crf=16.5 / qcomp=0.70 / qpmin=10 / qpmax=51 / qpstep=4 / vbv_maxrate=40000 / vbv_bufsize=40000 / crf_max=0.0 / nal_hrd=none / frame-packing=4 / ip_ratio=1.40 / aq=1:0.70Language : EnglishDefault : YesForced : No

Audio #1ID : 2Format : AC-3Format/Info : Audio Coding 3Mode extension : CM (complete main)Format settings, Endianness : BigCodec ID : A_AC3Duration : 1 h 40 minBit rate mode : ConstantBit rate : 640 kb/sChannel(s) : 6 channelsChannel positions : Front: L C R, Side: L R, LFESampling rate : 48.0 kHzFrame rate : 31.250 FPS (1536 spf)Compression mode : LossyStream size : 462 MiB (4%)Title : Дубляж (BD CEE)Language : RussianDefault : YesForced : No

Audio #2ID : 3Format : AC-3Format/Info : Audio Coding 3Mode extension : CM (complete main)Format settings, Endianness : BigCodec ID : A_AC3Duration : 1 h 40 minBit rate mode : ConstantBit rate : 640 kb/sChannel(s) : 6 channelsChannel positions : Front: L C R, Side: L R, LFESampling rate : 48.0 kHzFrame rate : 31.250 FPS (1536 spf)Compression mode : LossyStream size : 462 MiB (4%)Title : Дубляж (BD CEE)Language : UkrainianDefault : NoForced : No

Audio #3ID : 4Format : AC-3Format/Info : Audio Coding 3Mode extension : CM (complete main)Format settings, Endianness : BigCodec ID : A_AC3Duration : 1 h 40 minBit rate mode : ConstantBit rate : 640 kb/sChannel(s) : 6 channelsChannel positions : Front: L C R, Side: L R, LFESampling rate : 48.0 kHzFrame rate : 31.250 FPS (1536 spf)Compression mode : LossyStream size : 462 MiB (4%)Title : OriginalLanguage : EnglishDefault : NoForced : No

Text #1ID : 5Format : UTF-8Codec ID : S_TEXT/UTF8Codec ID/Info : UTF-8 Plain TextTitle : ПолныеLanguage : RussianDefault : NoForced : No

Text #2ID : 6Format : UTF-8Codec ID : S_TEXT/UTF8Codec ID/Info : UTF-8 Plain TextTitle : ПолныеLanguage : UkrainianDefault : NoForced : No

Text #3ID : 7Format : UTF-8Codec ID : S_TEXT/UTF8Codec ID/Info : UTF-8 Plain TextTitle : FullLanguage : EnglishDefault : NoForced : No

Text #4ID : 8Format : UTF-8Codec ID : S_TEXT/UTF8Codec ID/Info : UTF-8 Plain TextTitle : SDHLanguage : EnglishDefault : NoForced : No

Menu00:00:00.000 : :1.New Parents00:04:18.717 : :2.Main Titles00:05:35.669 : :3.First Day of School00:11:17.802 : :4.Field Trip00:12:16.277 : :5.The Drop Off00:14:08.848 : :6.Nemo Lost.00:16:29.280 : :7.Meeting Dory00:18:50.338 : :8.Sharks00:25:31.989 : :9.The Tank Gang00:30:54.227 : :10.The Abyss00:33:01.646 : :11.Angler Fish00:36:11.836 : :12.Nemo's Initiation00:40:19.167 : :13.Fish Impressions00:44:58.279 : :14.Jellyfish00:48:12.389 : :15.The Filter00:51:28.419 : :16.Sea Turtles00:56:07.030 : :17.News Travels01:00:55.902 : :18.Off Ramp01:05:20.667 : :19.Dory Speaks Whale01:07:02.101 : :20.Algae01:08:30.148 : :21.Inside the Whale01:13:19.437 : :22.Sydney Harbour01:14:15.201 : :23.The Aquascum01:16:00.097 : :24.Pelicans01:18:41.300 : :25.Darla!01:21:57.621 : :26.Goodbye, Dory01:24:29.481 : :27.Nemo and Dory01:26:54.334 : :28.Fishing Net01:29:26.611 : :29.Reunion01:30:51.363 : :30.Back on the Reef01:32:42.974 : :31.Tank Escape01:33:24.265 : :32.End Credits

    Фильм посвящен памяти Гленна МакКуина (1960—2002), аниматора Pixar.Первоначально для написания музыки рассматривались композиторы Дэнни Элфман и Ханц Циммер.Мальчик в кабинете дантиста читает комикс «Суперсемейка» — это своеобразная отсылка к будущему одноименному хиту от Pixar.Кабинет дантиста был смоделирован по образцу настоящего зубоврачебного кабинета, находящегося в том же здании, что и Pixar.Дарла получила свое имя в честь продюсера Pixar Дарлы К. Андерсон.Одна из лодок названа в честь скульптора Pixar Джерома Рэнфта.Сцена с чайками является пародийной цитатой из фильма Альфреда Хичкока «Птицы».Во время финальных титров видно Майка Вазовски (одноглазый персонаж из «Корпорации монстров» (2001)) проплывающего через весь экран в снаряжении для дайвинга.Согласно DVD, названия девяти лодок из гавани Сиднея это: Sea Monkey, Major Plot Point, Bow Movement, iBoat (намек на iTunes, компания созданная генеральным исполнительным директором Pixar Стивом Джобсом), Knottie Buoy, For the Birds, Pier Pressure, Skiff-A-Dee-Doo-Dah (намек на самую известную песню из фильма «Песня Юга» (1946) — «Zip-a-Dee-Doo-Dah»), и The Surly Mermaid.Окраска лица Гилла имитирует характерные линии вокруг рта озвучивающего его актера Уиллема Дефо.Соавтор Боб Питерсон так же озвучил мистера Рея.Самые большие кассовые сборы для анимационного фильма по результатам своего американского релиза (30 мая 2003 года).Было опасение, что после просмотра дети будут пытаться выпустить своих домашних рыбок на волю, смывая их в канализационные трубы. Компания, которая производит оборудование для фильтрации воды и занимается очисткой сточных вод распространила предупреждение в четверг, после того как фильм вышел, о том что, хотя стоки действительно в конечном счете достигают океана, прежде чем попасть туда вода проходит через оборудование, которое разрушает твердые тела. В довершение всего компания сказала, что в реальной жизни фильм было бы уместно назвать «Измельчение Немо».Эндрю Стэнтон всегда считал, что лучше всего для озвучивания Марлина подойдет Альберт Брукс. Хотя Брукс участвовал в нескольких эпизодах «Симпсонов», для него работа в полнометражном мультфильме оказалась существенно отличающейся в том, что ему приходилось работать в одиночестве, а не вместе с остальными актерами. Полученный опыт такой работы ему не особо понравился.Впервые работа над фильмом началась в 1997 году. А производство фактически началось в январе 2000 года с командой, которая в конечном итоге составила 180 человек.Развевающиеся пряди анемон на дне двигаются благодаря той же программе, при помощи которой были сделаны волосы Салли в мультфильме «Корпорация монстров» (2001).Внешний вид и ощущение подводного мира имело огромное значение для успеха фильма. С этой целью всю команду разработчиков отправили в океанариум, затем на дайвинг в Монтерее и на Гавайях, им проводили занятия перед собственным 25-литровым аквариумом Pixar и даже устроили ряд лекций ихтиолога.Количество человек в команде аниматоров колебалось от 28 до 50.Эндрю Стэнтон рассказал свои идеи и историю главе Pixar Джону Лассетеру за час беседы, при этом используя сложные наглядные пособия и голоса персонажей. В конце своей презентации истощенный Стэнтон спросил Лассетера, что он думает по этому поводу, на что Лассетер ответил: «Ты поймал меня на рыбу».Для сцен с медузами сотрудники Pixar создали целую новую систему затенения, которую они назвали «transblurrency» — прозрачная, но размытая, как матовое окно в ванной.Во время сцены езды на черепахе на фоне прорисовано около 200 черепах.Для исследований, ключевым фигурам принимавшим участие в создании фильма пришлось получить сертификат по подводному плаванию со снаряжением, чтобы отправиться к Большому Барьерному рифу по настоянию Джона Лассетера.Один из пациентов дантиста, «маленький Дэви Рейнольдс», это намек на Дэвида Рейнольдса, одного из сценаристов фильма.Чтобы увидеть, насколько реалистичной можно сделать картинку, команду художников попросили сделать точные копии кадров подводного и надводного миров. В конечном итоге результаты сочли «слишком реалистичными» для мультфильма.Согласно информации имеющейся на DVD, в фильме есть некие намеки на Массачусетс, в связи с тем, что один из его создателей родом из Рокпорта (Массачусетс) (маленький городок на мысе Энн, около одного часа езды к северу от Бостона). В кабинете стоматолога стоят две «Лампы-маяка» сделанные по образу маяков близнецов на острове Тэтчер (практически рядом с побережьем Рокпорта). Так же в кабинете имеется картина в рамке — «Мотив номер один», очень часто фотографируемое туристами здание в центре Рокпорта. И наконец, в то время как различные морские существа обсуждают приключения Марлина по всему океану, в одной сцене группа омаров разговаривает с бостонским акцентом, используя сленговые выражения. В комментариях к DVD нет ошибки в том, что омары есть в Австралии. Они там есть, но показываемые в фильме омары — это когтистые омары. Австралийские омары, которых больше всего в мире, на самом деле — лангусты. Однако, так как омары обсуждают приключения Марлина с английским акцентом, вполне вероятно, что они из мест прилегающих к Массачучетсу, и этим подчеркиват, что история Марлина известна всем в морском мире.В США мультфильм поставил рекорд по продажам в первый день — 8 миллионов проданных копий (80% из которых были на DVD).По состоянию на январь 2005 года, это был самый продаваемый в мире DVD за все время — 22 миллиона проданных копий.Хотя это никогда не упоминалось в фильме, но, по словам режиссера в комментариях, Краш и его команда ищущих приключений черепах плыла на Гавайи. Так же в комментариях отмечают, что панцири молодых черепах смоделированы по образу гавайских рубашек.Обработка одного кадра длинной около 1/24 доли секунды в фильме могла занимать до четырех дней, из-за сложности подводной среды с проходящим через воду солнечным светом и попадающим на рыбью чешую.Одна из тем музыкального сопровождения для фильма, которую сочинил Томас Ньюман, так и не появилась в конечном фильме, но она есть в одном из трейлеров и на одном из меню DVD c фильмом.Дори Лэйн и Марлин Драйв — это пересекающиеся улицы в пригороде Редвуд-Сити, прямо через залив от офиса Pixar.Имена двух главных черепах, это так же названия популярных в США марок цитрусовой газировки: Crush и Squirt.Режиссер Эндрю Стэнтон первоначально планировал раскрыть судьбу жены Марлина постепенно через воспоминания, периодически появляющиеся по ходу фильма. После нескольких тестовых просмотров ему показалось, что Марлин выглядит очень беспокойным персонажем, и он решил раскрыть всю предысторию, в результате чего Марлин стал более привлекательным, благодаря тому, что была выявлена причина его чрезмерной опеки.Первоначально кит, который глотает Марлин и Дори, подходит к ним спереди. Такая версия была в ранних трейлерах. Конечная версия, где кит появляется сзади, была создана под впечатлением от ранних анимационных тестов, демонстрирующих кита возникающего из мрака океана за маленькой рыбой.Аниматоры изучали выражение лица у собак, обращая особое внимание на глаза, чтобы оживить и сделать выражение лиц у рыб более эмоциональным.Pixar разработали очень реалистичный вид поверхности воды, но были вынуждены сделать его более отличающимся, чтобы люди не подумали, что это реальные кадры поверхности океана.В латинском языке слово «немо» обозначает «никто». Это так же ссылка на капитана Немо в романе Жюля Верна «20000 лье под водой».Первоначально озвучивать Марлина должен был Уильям Х. Мэйси и с ним были записаны все диалоги Марлина. Однако в конечном итоге его заменили Альбертом Бруксом.Персонаж Жака частично основан на актере Фрице Фельде, фирменным приемом которого шлепнуть ладонью себя по губам для выражения своего превосходства и раздражения.Получил N10 в списке Американского института кинематографии в жанре «анимация» в июне 2008.Дори — первая роль написанная специально для Эллен ДеДженерес.Реплика Найджела «Рыба должна плавать, птица должна есть» — это ссылка на фразу «Рыба должна плавать, птица должна летать» из песни «Can`t Help Lovin» That Man» из бродвейского мюзикла «Show Boat».Большую белую акулу в фильме зовут Брюс. Это имя было присвоено модели акулы используемой в фильме «Челюсти» (1975), названной так в честь адвоката Спилберга — Брюса Рамара.Для дополнительных материалов DVD Альберт Брукс провел целый день в студии, импровизируя сильно измененную версию шутки актинии; ни один из рассказанных им вариантов не повторялся. И на протяжении всего дня с ним была команда техников записывающих его импровизации.Когда Джил думает о побеге, камера поворачивается в сторону окна, и за окном на улице видно грузовик «Планета Пицца» из мультфильма «История игрушек» (1995).Номер модели камеры дантиста A-113, этот номер появляется во всех фильмах Pixar, в качестве ссылки на аудиторию Калифорнийского Университета Искусств, где работают аниматоры Pixar Studios.Диплом дантиста взят с факультета стоматологии университета Pixar.В нижней части аквариума водоросли покрывают модель лодки, на вершине которой русалка из мультфильма «Безделушка» (1989).Среди игрушек в комнате ожидания есть Джек-в-коробке и Базз Лайтер, а на полке самолет, который он использовал, чтобы летать в мультфильме «История игрушек» (1995) и мяч с товарным знаком Pixar из «Люксо младший» (1986).Для того, чтобы голос Найджела звучал так как он звучит, когда Марлин и Дори находятся у него во рту, Джеффри Раш прижимал свой язык, когда озвучивал его.Когда рыбы в аквариуме следят за работой стоматолога, Блот спрашивает, были ли установлены изоляционная пластина и зажим. Другая рыба отвечает, что были, но когда показывают пациента, их нет.Когда мистер Рэй поет свою песню «Let`s Name the Species»(Давайте называть виды), он на самом деле называет не виды. Губки, кишечнополостные, гребневики, мшанки, членистоногие, иглокожие и хордовые это все типы. Гидроидные, сцифоидные и коралловые полипы это классы из типа книдарии (кишечнополостные), и брюхоногие это класс из типа моллюски. Порядок классификации: царство, тип, класс, отряд, семейство, род, вид. Типы и классы, безусловно, не то же самое, что виды, хотя на DVD упоминается, что мистер Рэй не является реальным ученым. В этом случае вполне может быть, что он принял одно за другое, не зная, что на самом деле распространяет неверную информации.Инструмент, который использует дантист, называется «gates glidden», а не «gator glidden drill». Так же видно, что стоматолог использует его для доступа к корневому каналу. Этот инструмент на самом деле используется для очистки и его формирования. Правильный инструмент, который используется для эндодонтического доступа — это твердосплавный бор.Краш (морская черепаха) утверждает, что ему 150 лет и он все еще молод. На самом деле продолжительность жизни морской черепахи составляет всего 80 лет. Вопреки распространенному мнению ни один из видов черепах не имеет продолжительность жизни более 100 лет. Это сухопутные черепахи известны как долгожители. На данный момент рекорд составляет 188 лет, не намного старше Краша.Когда дантист достает Немо из аквариума, видно его сумку, на которой сверху есть молния. В следующий раз, когда показывают сумку, она уже без молнии.Когда Брюс преследует Марлин и Дори, маска у него во рту то с левой, то с правой стороны.Когда Немо плавает с мистером Рэем в школьной сцене, он скрывается за его правым глазом, а в конце сцены снова появляется на его спине.Когда рыбы в океане плывут вниз, чтобы спастись от рыболовецких сетей, часть древесины в итоге обрывается, когда сеть падает на дно. Однако в последующих кадрах древесину не видно.Когда Марлин рассказывает свою историю маленьким черепахам (55:47), их панцири выглядят иначе, чем в других сценах.Пеликан Найджел — это американский бурый пеликан, научно известный как Pelecanus occidentalis. Действие фильма происходит в Австралии, где нет бурых пеликанов, а есть австралийские пеликаны, известные как Pelecanus conspicillatus. Эти птицы выглядят абсолютно по-разному.Дайв-флаг (красный с белой полоской) на лодке стоматолога — это американский морской флаг, предназначенный для предупреждения окружающих о том, что с судна осуществляются подводные спуски. Этот флаг не используется в Австралии, и он вряд ли мог появиться у Большого Барьерного рифа. Австралийская версия — это синий с белым флаг.Марлину и Дори рекомендуют плавать в задней части горла кита, и затем их выдувают через дыхало кита. Это физически не возможно, так как рот и пищеварительная система у кита не связаны с дыхательной системой.Корал должна быть больше, чем Марлин. Женские особи рыб-клоунов обычно больше мужских (часто даже в два раза больше).Лодка водолазов имеет поворотно-откидную колонку с двумя винтами. Когда она начинает работать, оба винта вращаются в одном направлении, а должны в противоположных.Блот (Длинноиглая рыба-еж/Diodon holacanthus) и Жак (Креветка доктор/Lysmata amboinensis) не должны находиться в одном аквариуме, потому что беспозвоночные являются основной пищей для Diodon holacanthus.Мистер Рэй вовсе не мистер, поскольку ему не хватает крючков (мужские половые органы).У пеликана Найджела есть ноздри. У пеликанов нет ноздрей. Они дышат через рот.Когда Дори и Марлин находятся на языке у кита, они видят внизу в горле небный язычок. Ни у одного животного нет такого язычка. Он есть только у людей.«Траншеи», с которыми сталкиваются Марлин и Дори, на самом деле являются подводным каньоном, так как он возвышается над дном океана. Эти траншеи — это впадины в морском дне глубиной несколько миль, как та, где они нашли маску водолаза.«Морской черт», с которым сталкиваются Марлин и Дори имеет несколько характеристик, которые не встречаются у глубоководных удильщиков. У них нет фотофора (огоньки по стороне тела, которые заметно, когда рыбу видно целиком). Кроме того, у всех глубоководных удильщиков очень маленькие глаза, а у рыбы в фильме они очень большие. И помимо всего остального удильщики обитают на глубине от 1000 метров, а это слишком большая глубина для Марлин и Дори, на ней они бы не выжили.Когда Брюс (акула) разговаривает с Немо и Дори, видно его язык. У акул нет языка.Акулы проводят собрание у американской подводной лодки времен Второй Мировой войны потопленной миной. Это похоже на бессмыслицу, что американская субмарина подорвалась на мине в австралийских водах, так как во времена Второй Мировой войны у США было три базы в Австралии и они были полностью осведомлены о любых минных полях вблизи побережья.Когда Немо мчится вниз по канализации, он всплывает на поверхность воды и делает резкий вдох, как будто хватая ртом воздух. В нескольких других сценах в фильме (когда Марлин гонится за лодкой, и ему приходится всплывать на поверхность, чтобы осмотреться, и когда Немо собирается прыгнуть в фильтр аквариума) аниматоры позаботились о том, что рыбе приходится погружаться, чтобы сделать глоток воздуха.Если рыба находится в мешке с водой, который плавает в океане, то внутренний уровень воды в этом мешке должен быть на одном уровне с поверхностью океана.
Скриншоты                     Скачать В поисках Немо через торрент http://i80.fastpic.ru/big/2016/0829/24/b65d786e1add3010f340ccd8b30bcc24.png Скачать фильм В поисках Немо через торрент бесплантно в хорошем качестве Описание: Среди прекрасных тропических морских стихий, в районе Большого барьерного рифа в уединении живет рыба-клоун по имени Марлин. Он ... 2016-08-29 12:52 10 10 2

Loading...

Loading...

Рекламный пират

29-08-2016 16:56 В поисках Немо Скачать торрент  

Прикольный мульт !

Дорогой пользователь! Огромная просьба, поблагодарите релизера, оцените раздачу и оставьте свои комментарий, если Вы скачали В поисках Немо через торрент бесплатно! Внесите свою лепту в развитие PiratBit!

Комментировать посты могут только пользователи прошедшие не сложную регистрацию

В поисках Немо через торрент Скачать бесплатно В поисках Немо В поисках Немо скачать торрент В поисках Немо смотреть онлайн Cкачать фильм В поисках Немо бесплатно В поисках Немо скачать торрент в хорошем качестве В поисках Немо смотреть онлайн бесплатно в хорошем качестве

Вы не можете начинать темыВы не можете отвечать на сообщенияВы не можете редактировать свои сообщенияВы не можете удалять свои сообщенияВы не можете голосовать в опросахВы не можете прикреплять файлы к сообщениямВы можете скачивать файлы

piratbit.ru

rutor.org :: В Поисках Немо / Finding Nemo (2003) BDRemux 1080p ::: Скачать торрент

Информация о фильмеНазвание: В Поисках НемоОригинальное название: Finding NemoГод выхода: 2003Жанр: Мультфильм, комедия, приключения, семейныйРежиссер: Эндрю Стэнтон, Ли АнкричВ ролях: Альберт Брукс, Эллен ДеДженерес, Александр Гулд, Уиллем Дефо, Эллисон Дженни, Джо Рэнфт, Джеффри Раш, Элизабет Перкинс, Эрик Бана, Эндрю Стэнтон

О фильме: Среди прекрасных тропических морских стихий, в районе Большого барьерного рифа в уединении живет рыба-клоун по имени Марлин. Он растит своего единственного сыночка Немо. Океан и существующие в нем опасности очень страшат Марлина, и он как может ограждает сына от них, но молодой Немо, страдающий излишним любопытством, очень хочет разузнать побольше о таинственном рифе, рядом с которым они живут.

Когда Немо по иронии судьбы оказывается вдалеке от дома, да и еще сталкивается с угрозой стать обедом рыбы-танка, Марлин отправляется на поиски сына. Но Марлин, конечно же, понимает, что героический спасатель из него не получится и просит о помощи в поисках, Дори, королевскую синюю рыбу, которая хоть и страдает от того, что почти ничего не помнит, но добрее ее не отыскать во всем безбрежном океане!

Итак, наши герои отправляются в путешествие, в котором их подкарауливают многочисленные трудности и опасности…

Страна: СШАСтудия: Pixar Animation Studios, Walt Disney PicturesПродолжительность: 01:40:54Перевод: Дубляж [лицензия]

ФайлКодек: H.264/[email protected]/4 framesКачество: BDRemux 1080pВидео: MPEG-4 AVC, 24506 Кбит/с, 1920x1080, 23.976 кадр/сЗвук: Русский (AC3, 6 ch, 640 Кбит/с)

MediaInfo

General Unique ID : 222651971326587842152464241295924310266 (0xA78135BA662215CC80AF64B7B642B0FA) Complete name : Finding Nemo 2003 BDRemux 1920х1040 23.9-25.1 0.48.mkv Format : Matroska Format version : Version 2 File size : 17.7 GiB Duration : 1h 40mn Overall bit rate mode : Variable Overall bit rate : 25.1 Mbps Movie name : Finding Nemo Encoded date : UTC 2013-07-06 01:01:29 Writing application : mkvmerge v5.4.0 ('Piper') built on Mar 10 2012 13:34:39 Writing library : libebml v1.2.3 + libmatroska v1.3.0

Video ID : 1 Format : AVC Format/Info : Advanced Video Codec Format profile : [email protected] Format settings, CABAC : Yes Format settings, ReFrames : 4 frames Muxing mode : Container [email protected] Codec ID : V_MPEG4/ISO/AVC Duration : 1h 40mn Bit rate mode : Variable Bit rate : 23.9 Mbps Maximum bit rate : 31.5 Mbps Width : 1 920 pixels Height : 1 080 pixels Display aspect ratio : 16:9 Frame rate mode : Constant Frame rate : 23.976 fps Color space : YUV Chroma subsampling : 4:2:0 Bit depth : 8 bits Scan type : Progressive Bits/(Pixel*Frame) : 0.481 Stream size : 16.9 GiB (95%) Title : Finding Nemo Default : Yes Forced : No

Audio ID : 2 Format : AC-3 Format/Info : Audio Coding 3 Mode extension : CM (complete main) Format settings, Endianness : Big Codec ID : A_AC3 Duration : 1h 40mn Bit rate mode : Constant Bit rate : 640 Kbps Channel(s) : 6 channels Channel positions : Front: L C R, Side: L R, LFE Sampling rate : 48.0 KHz Bit depth : 16 bits Compression mode : Lossy Stream size : 462 MiB (3%) Title : Дубляж | BD CEE Language : Russian Default : Yes Forced : No

Menu 00:00:00.000 : en:00:00:00.000 00:04:18.717 : en:00:04:18.717 00:05:35.669 : en:00:05:35.669 00:11:17.802 : en:00:11:17.802 00:12:16.277 : en:00:12:16.277 00:14:08.848 : en:00:14:08.848 00:16:29.280 : en:00:16:29.280 00:18:50.338 : en:00:18:50.338 00:25:31.989 : en:00:25:31.989 00:30:54.227 : en:00:30:54.227 00:33:01.646 : en:00:33:01.646 00:36:11.836 : en:00:36:11.836 00:40:19.167 : en:00:40:19.167 00:44:58.279 : en:00:44:58.279 00:48:12.389 : en:00:48:12.389 00:51:28.419 : en:00:51:28.419 00:56:07.030 : en:00:56:07.030 01:00:55.902 : en:01:00:55.902 01:05:20.667 : en:01:05:20.667 01:07:02.101 : en:01:07:02.101 01:08:30.148 : en:01:08:30.148 01:13:19.437 : en:01:13:19.437 01:14:15.201 : en:01:14:15.201 01:16:00.097 : en:01:16:00.097 01:18:41.300 : en:01:18:41.300 01:21:57.621 : en:01:21:57.621 01:24:29.481 : en:01:24:29.481 01:26:54.334 : en:01:26:54.334 01:29:26.611 : en:01:29:26.611 01:30:51.363 : en:01:30:51.363 01:32:42.974 : en:01:32:42.974 01:33:24.265 : en:01:33:24.265

main-rutor.org

rutor.org :: В поисках Немо / Finding Nemo (2009) BDRip 720p от DHT-Movies ::: Скачать торрент

В поисках Немо / Finding Nemo (2003) BDRip 720pот DHT-Movies

Название: В поисках НемоОригинальное название: Finding NemoГод выхода: 2003Жанр: Мультфильм, комедия, приключения, семейныйРежиссер: Эндрю Стэнтон, Ли Анкрич

В ролях:

Альберт Брукс, Эллен ДеДженерес, Александр Гулд, Уиллем Дефо, Эллисон Дженни, Джо Рэнфт, Джеффри Раш, Элизабет Перкинс, Эрик Бана, Эндрю Стэнтон

Описание:

Среди прекрасных тропических морских стихий, в районе Большого барьерного рифа в уединении живет рыба-клоун по имени Марлин. Он растит своего единственного сыночка Немо. Океан и существующие в нем опасности очень страшат Марлина, и он как может ограждает сына от них, но молодой Немо, страдающий излишним любопытством, очень хочет разузнать побольше о таинственном рифе, рядом с которым они живут. Когда Немо по иронии судьбы оказывается вдалеке от дома, да и еще сталкивается с угрозой стать обедом рыбы-танка, Марлин отправляется на поиски сына. Но Марлин, конечно же, понимает, что героический спасатель из него не получится и просит о помощи в поисках, Дори, королевскую синюю рыбу, которая хоть и страдает от того, что почти ничего не помнит, но добрее ее не отыскать во всем безбрежном океане! Итак, наши герои отправляются в путешествие, в котором их подкарауливают многочисленные трудности и опасности…

Страна: США Продолжительность: 01:40:54Перевод: Дубляж (Профессиональный) [Лицензия] + Оригинал (Английский)Субтитры: Русские / Английские UTF-8 (full)

Релиз группа: | by Dean24

Качество: BDRip 720p | BDRemux 1080pФормат: MKVВидео кодек: H.264Видео: 1280x720/16:9/23.976 fps/3060 Kbps/0.138 Bits/(Pixel*Frame) Аудио (Русский): 48 kHz, AC3 Dolby Digital, 3/2 (L,C,R,l,r) + LFE ch, ~ 448 kbps avg | (Дубляж)Аудио (Английский): 48 kHz, AC3 Dolby Digital, 3/2 (L,C,R,l,r) + LFE ch, ~ 448 kbps avg | (Оригинал)

log x264 / MI

avs [info]: 1280x720p 1:1 @ 2500000/104271 fps (cfr) x264 [info]: using SAR=1/1 x264 [info]: using cpu capabilities: MMX2 SSE2Fast SSSE3 Cache64 x264 [info]: profile Main, level 4.1

x264 [info]: frame I:1099 Avg QP:17.26 size: 97700 x264 [info]: frame P:38536 Avg QP:20.45 size: 30262 x264 [info]: frame B:105515 Avg QP:22.22 size: 9652 x264 [info]: consecutive B-frames: 4.7% 3.6% 10.5% 39.8% 16.5% 21.4% 3.0% 0.6% x264 [info]: mb I I16..4: 37.2% 0.0% 62.8% x264 [info]: mb P I16..4: 36.1% 0.0% 0.0% P16..4: 43.3% 0.0% 0.0% 0.0% 0.0% skip:20.5% x264 [info]: mb B I16..4: 7.0% 0.0% 0.0% B16..8: 26.3% 0.0% 0.0% direct:11.3% skip:55.4% L0:35.8% L1:41.4% BI:22.8% x264 [info]: final ratefactor: 19.56 x264 [info]: direct mvs spatial:99.3% temporal:0.7% x264 [info]: coded y,uvDC,uvAC intra: 40.0% 44.1% 14.0% inter: 16.8% 16.0% 1.6% x264 [info]: i16 v,h,dc,p: 27% 33% 23% 17% x264 [info]: i4 v,h,dc,ddl,ddr,vr,hd,vl,hu: 19% 22% 12% 8% 8% 7% 9% 7% 8% x264 [info]: i8c dc,h,v,p: 49% 25% 17% 8% x264 [info]: Weighted P-Frames: Y:5.8% UV:3.5% x264 [info]: kb/s:3028.71

x264 [total]: encoded 145150 frames, 1.64 fps, 3028.71 kb/s _________________________________________

Общее: Уникальный идентификатор: 193683682889252084723859160601840446216 (0x91B61ED691A1E78B89BF0A8B5DA1EB08) Полное имя: D:Для сайтаRip'sFinding_Nemo_BDRip_720p_ot_DHT-Movies.mkv Формат: Matroska Версия формата: Version 4 / Version 2 Размер файла: 2,79 Гбайт Продолжительность: 1 ч. 41 м. Общий поток: 3954 Кбит/сек Дата кодирования: UTC 2013-12-14 11:51:25 Программа кодирования: mkvmerge v6.5.0 ('Isn't she lovely') built on Oct 20 2013 12:50:05 Библиотека кодирования: libebml v1.3.0 + libmatroska v1.4.1

Видео: Идентификатор: 1 Формат: AVC Формат/Информация: Advanced Video Codec Профиль формата: [email protected] Параметр CABAC формата: Да Параметр ReFrames формата: 9 кадров Идентификатор кодека: V_MPEG4/ISO/AVC Продолжительность: 1 ч. 41 м. Битрейт: 3060 Кбит/сек Ширина: 1280 пикселей Высота: 720 пикселей Соотношение сторон: 16:9 Режим частоты кадров: Постоянный Частота кадров: 23,976 кадра/сек Цветовое пространство: YUV Субдискретизация насыщенности: 4:2:0 Битовая глубина: 8 бит Тип развёртки: Прогрессивная Бит/(Пиксели*Кадры): 0.138 Размер потока: 2,10 Гбайт (75%) Библиотека кодирования : x264 core 119 r2106 07efeb4 Настройки программы: cabac=1 / ref=9 / deblock=1:-1:-1 / analyse=0x3:0x133 / me=umh / subme=10 / psy=1 / psy_rd=0.85:0.10 / mixed_ref=1 / me_range=32 / chroma_me=1 / trellis=2 / 8x8dct=1 / cqm=0 / deadzone=21,11 / fast_pskip=0 / chroma_qp_offset=0 / threads=3 / sliced_threads=0 / nr=0 / decimate=1 / interlaced=0 / bluray_compat=0 / constrained_intra=0 / bframes=7 / b_pyramid=2 / b_adapt=2 / b_bias=0 / direct=3 / weightb=1 / open_gop=0 / weightp=2 / keyint=240 / keyint_min=23 / scenecut=40 / intra_refresh=0 / rc_lookahead=50 / rc=2pass / mbtree=1 / bitrate=3060 / ratetol=1.0 / qcomp=0.60 / qpmin=0 / qpmax=69 / qpstep=4 / cplxblur=20.0 / qblur=0.5 / ip_ratio=1.40 / aq=1:0.80 Default: Да Forced: Нет

Аудио #1: Идентификатор: 2 Формат: AC-3 Формат/Информация: Audio Coding 3 Расширение режима: CM (complete main) Параметр Endianness формата: Big Идентификатор кодека: A_AC3 Продолжительность: 1 ч. 41 м. Вид битрейта: Постоянный Битрейт: 448 Кбит/сек Каналы: 6 каналов Расположение каналов: Front: L C R, Side: L R, LFE Частота: 48,0 КГц Битовая глубина: 16 бит Метод сжатия: С потерями Размер потока: 324 Мбайт (11%) Default: Да Forced: Нет

Аудио #2: Идентификатор: 3 Формат: AC-3 Формат/Информация: Audio Coding 3 Расширение режима: CM (complete main) Параметр Endianness формата: Big Идентификатор кодека: A_AC3 Продолжительность: 1 ч. 41 м. Вид битрейта: Постоянный Битрейт: 448 Кбит/сек Каналы: 6 каналов Расположение каналов: Front: L C R, Side: L R, LFE Частота: 48,0 КГц Битовая глубина: 16 бит Метод сжатия: С потерями Размер потока: 324 Мбайт (11%) Default: Нет Forced: Нет

Текст #1: Идентификатор: 4 Формат: UTF-8 Идентификатор кодека: S_TEXT/UTF8 Идентификатор кодека/Информация: UTF-8 Plain Text Default: Да Forced: Нет

Текст #2: Идентификатор: 5 Формат: UTF-8 Идентификатор кодека: S_TEXT/UTF8 Идентификатор кодека/Информация: UTF-8 Plain Text Default: Нет Forced: Нет

main-rutor.org


Смотрите также