Замученный фильм 2009 скачать торрент


Скачать фильм Замученный (2009) через торрент

24 июня 2016 09:54 Замученный / Измученный / The Tortured (2010) BDRip-AVC от Deadmauvlad | НТВ .torrent   [Информация о файле (нажмите для просмотра)] Перевод: Профессиональный (двухголосый закадровый) НТВ+Видео: 688 x 384 (1.792) at 25.000 fps,AVC at 2167 Кбит/секАудио: AC-3 at 192 Кбит/сек,6 каналов, 48,0 КГцВидео: Идентификатор : 1 Формат : AVC Формат/Информация : Advanced Video Codec Профиль формата : [email protected] Параметр CABAC формата : Нет Параметр ReFrames формата : 1 кадр Параметр GOP формата : M=1, N=25 Режим смешивания : Header stripping Идентификатор кодека : V_MPEG4/ISO/AVC Продолжительность : 1 ч. 21 м. Битрейт : 2167 Кбит/сек Ширина : 688 пикселей Высота : 384 пикселя Соотношение сторон : 16:9 Режим частоты кадров : Постоянный Частота кадров : 25,000 кадров/сек Цветовое пространство : YUV Субдискретизация насыщенности : 4:2:0 Битовая глубина : 8 бит Тип развёртки : Прогрессивная Бит/(Пиксели*Кадры) : 0.328 Размер потока : 1,24 Гбайт (90%) Заголовок : BDRip Deadmauvlad Default : Да Forced : НетАудио: Идентификатор : 2 Формат : AC-3 Формат/Информация : Audio Coding 3 Расширение режима : CM (complete main) Параметр Endianness формата : Big Режим смешивания : Header stripping Идентификатор кодека : A_AC3 Продолжительность : 1 ч. 21 м. Вид битрейта : Постоянный Битрейт : 192 Кбит/сек Каналы : 6 каналов Расположение каналов : Front: L C R, Side: L R, LFE Частота : 48,0 КГц Битовая глубина : 16 бит Метод сжатия : С потерями Размер потока : 112 Мбайт (8%) Заголовок : DVO [НТВ +] Default : Да Forced : Нет 1,37 Gb 4 3 24 июня 2016 09:54 Замученный / Измученный / The Tortured (2010) BDRip от HQCLUB | Лицензия .torrent   [Информация о файле (нажмите для просмотра)] Перевод: Профессиональный (многоголосый, закадровый) R5 + Оригинал (английский)Субтитры: русские, английские (SDH)Формат: AVIКачество: BDRip (источник:Видео: 704x400 (1.76:1), 23.976 fps, XviD build 65 ~1891 kbps avg, 0.28 bit/pixelАудио #1: 48 kHz, AC3 Dolby Digital, 2/0 (L,R) ch, ~192 kbps avg (MVO) R5Аудио #2: 48 kHz, AC3 Dolby Digital, 3/2 (L,C,R,l,r) + LFE ch, ~448 kbps avg (ENG)Аудио #3: 48 kHz, AC3 Dolby Digital, 2/0 (L,R) ch, ~192 kbps avg (UKR.MVO.NLO)(отдельно)Аудио #4: 48 kHz, AC3 Dolby Digital, 3/2 (L,C,R,l,r) + LFE ch, ~448 kbps avg (DVO.NTV.PLUS)(отдельно) 1,45 Gb 9 1 24 июня 2016 09:54 Замученный / The Tortured (2010) BDRip-AVC от MediaClub | P, P2, L1 .torrent   [Информация о файле (нажмите для просмотра)] Перевод: Профессиональный многоголосый, профессиональный двухголосый, любительский одноголосыйКодек: x264Качество: BDRip-AVCВидео: MPEG-4 AVC, 2500 Кбит/с, 1024x576, 23.976 кадр/сЗвук: 1. Русский (АС3, 2 ch, 224 Кбит/с) / Профессиональный многоголосый (R5) 2. Русский (AC3, 6 ch, 448 Кбит/с) / Профессиональный двухголосый (НТВ+) 3. Русский (AC3, 6 ch, 448 Кбит/с) / Любительский одноголосый (Kerob) 4. Английский (AC3, 6 ch, 448 Кбит/с)Субтитры: Русские, английскиеВидео: Идентификатор : 1 Формат : AVC Формат/Информация : Advanced Video Codec Профиль формата : [email protected] Параметр CABAC формата : Да Параметр ReFrames формата : 8 кадров Идентификатор кодека : V_MPEG4/ISO/AVC Продолжительность : 1 ч. 21 м. Битрейт : 2500 Кбит/сек Ширина : 1024 пикселя Высота : 576 пикселей Соотношение сторон : 16:9 Режим частоты кадров : Постоянный Частота кадров : 23,976 кадра/сек Цветовое пространство : YUV Субдискретизация насыщенности : 4:2:0 Битовая глубина : 8 бит Тип развёртки : Прогрессивная Бит/(Пиксели*Кадры) : 0.177 Размер потока : 1,38 Гбайт (59%) Заголовок : Izmuchennyi.2010.x264.BDRip(AVC)-MediaCLub.mkv Библиотека кодирования : x264 core 133 r2334 a3ac64b Настройки программы : cabac=1 / ref=8 / deblock=1:-2:-2 / analyse=0x3:0x133 / me=umh / subme=11 / psy=1 / psy_rd=1.00:0.00 / mixed_ref=1 / me_range=48 / chroma_me=1 / trellis=2 / 8x8dct=1 / cqm=0 / deadzone=21,11 / fast_pskip=0 / chroma_qp_offset=-2 / threads=3 / lookahead_threads=1 / sliced_threads=0 / nr=0 / decimate=0 / interlaced=0 / bluray_compat=0 / constrained_intra=0 / bframes=8 / b_pyramid=2 / b_adapt=2 / b_bias=0 / direct=3 / weightb=1 / open_gop=0 / weightp=2 / keyint=240 / keyint_min=23 / scenecut=40 / intra_refresh=0 / rc=2pass / mbtree=0 / bitrate=2500 / ratetol=1.0 / qcomp=0.60 / qpmin=10 / qpmax=51 / qpstep=4 / cplxblur=20.0 / qblur=0.5 / ip_ratio=1.40 / pb_ratio=1.30 / aq=2:1.00 Язык : English Default : Да Forced : НетАудио #1: Идентификатор : 2 Формат : AC-3 Формат/Информация : Audio Coding 3 Расширение режима : CM (complete main) Параметр Endianness формата : Big Идентификатор кодека : A_AC3 Продолжительность : 1 ч. 21 м. Вид битрейта : Постоянный Битрейт : 224 Кбит/сек Каналы : 2 канала Расположение каналов : Front: L R Частота : 48,0 КГц Битовая глубина : 16 бит Метод сжатия : С потерями Размер потока : 131 Мбайт (6%) Заголовок : Профессиональный многоголосый (R5) Язык : Russian Default : Да Forced : НетАудио #2: Идентификатор : 3 Формат : AC-3 Формат/Информация : Audio Coding 3 Расширение режима : CM (complete main) Параметр Endianness формата : Big Идентификатор кодека : A_AC3 Продолжительность : 1 ч. 21 м. Вид битрейта : Постоянный Битрейт : 448 Кбит/сек Каналы : 6 каналов Расположение каналов : Front: L C R, Side: L R, LFE Частота : 48,0 КГц Битовая глубина : 16 бит Метод сжатия : С потерями Размер потока : 262 Мбайт (11%) Заголовок : Профессиональный двухголосый (НТВ+) Язык : Russian Default : Нет Forced : НетАудио #3: Идентификатор : 4 Формат : AC-3 Формат/Информация : Audio Coding 3 Расширение режима : CM (complete main) Параметр Endianness формата : Big Идентификатор кодека : A_AC3 Продолжительность : 1 ч. 21 м. Вид битрейта : Постоянный Битрейт : 448 Кбит/сек Каналы : 6 каналов Расположение каналов : Front: L C R, Side: L R, LFE Частота : 48,0 КГц Битовая глубина : 16 бит Метод сжатия : С потерями Размер потока : 262 Мбайт (11%) Заголовок : Любительский одноголосый (Kerob) Язык : Russian Default : Нет Forced : НетАудио #4: Идентификатор : 5 Формат : AC-3 Формат/Информация : Audio Coding 3 Расширение режима : CM (complete main) Параметр Endianness формата : Big Идентификатор кодека : A_AC3 Продолжительность : 1 ч. 21 м. Вид битрейта : Постоянный Битрейт : 448 Кбит/сек Каналы : 6 каналов Расположение каналов : Front: L C R, Side: L R, LFE Частота : 48,0 КГц Битовая глубина : 16 бит Метод сжатия : С потерями Размер потока : 262 Мбайт (11%) Заголовок : Английский Язык : English Default : Нет Forced : Нет 2,32 Gb 11 2 24 июня 2016 09:54 Замученный / Измученный / The Tortured (2010) BDRip от HELLYWOOD .torrent   [Информация о файле (нажмите для просмотра)] Перевод: Профессиональный (многоголосый, закадровый) R5 + Оригинальная звуковая дорожка Профессиональный (двухголосый, закадровый) |НТВ+|Субтитры: Русские, Английские[SDH]Формат: AVIКачество: BDRip (Исходник: Arifis/BDRemux/1080p)Видео: 704x400 (1.76:1), 23.976 fps, XviD build 65 ~1862 kbps avg, 0.28 bit/pixelАудио #1: 48 kHz, AC3 Dolby Digital, 2/0 (L,R) ch, ~224 kbps|MVO, R5|Аудио #2: 48 kHz, AC3 Dolby Digital, 3/2 (L,C,R,l,r) + LFE ch, ~448 kbps|ENG|Аудио #3: 48 kHz, AC3 Dolby Digital, 3/2 (L,C,R,l,r) + LFE ch, ~448 kbps|DVO, НТВ+|Аудио #4: 48 kHz, AC3 Dolby Digital, 3/2 (L,C,R,l,r) + LFE ch, ~448 kbps|VO, Kerob| 1,45 Gb 3 1 24 июня 2016 09:54 Замученный / The Tortured (2010) BDRip 720p | Лицензия .torrent   [Информация о файле (нажмите для просмотра)] Перевод: Профессиональный (многоголосый) [лицензия]Кодек: H 264Качество: BDRip 720pВидео: 6882 kb/s, 1280x720Звук: Russian / English: AC3, 224 kb/s (2 ch) 4,17 Gb 4 3 24 июня 2016 09:54 Замученный / The Tortured (2010) DVD9 | Лицензия .torrent   [Информация о файле (нажмите для просмотра)] Перевод: Профессиональный (многоголосый) [лицензия]Кодек: MPEG 2Качество: DVD9Видео: PAL 16:9, (720x576)(1024х576) , ~7292 kb/sЗвук: Russian / English: AC3, 224 kb/s (2 ch)Субтитры: Russian (2 вида) 5,22 Gb 3 3 24 июня 2016 09:54 Замученный / The Tortured (2010) HDRip | Лицензия .torrent   [Информация о файле (нажмите для просмотра)] Формат: AVI (XviD)Видео: 23.976 fps, XviD, 1135 kb/s, 656x368Аудио: MP3, 128 kb/s (2 ch) 48 KHz 743,68 Mb 1 3 24 июня 2016 09:54 Измученный / The Tortured (2010) BDRip 1080p .torrent   [Информация о файле (нажмите для просмотра)] Перевод: Любительский (одноголосый) KerobКодек: H.264Качество: BDRipВидео: 1920x1080, 23.976 fps, 10.7 Mbps avg, 0.216 bit/pixelЗвук: Аудио#1: RUS DTS 48000Hz 1510 kb/s tot , 6 chnls (3/2 .1)Аудио#2: ENG DTS 48000Hz 1510 kb/s tot , 6 chnls (3/2 .1) 7,42 Gb 2 3

gig-torrent.net

Скачать фильм Замученный через торрент в хорошем качестве бесплатно BDRip-AVC

GeneralUnique ID : 184747279260776827275135732888385406908 (0x8AFD081F46C2A4518B688BB02BD8C7BC)Complete name : D:ТорентыIzmuchennyi.2010.x264.BDRip(AVC)-MediaCLub.mkvFormat : MatroskaFormat version : Version 2File size : 2.32 GiBDuration : 1h 21mnOverall bit rate : 4 067 KbpsMovie name : Release - MediaClub Rip by == vvmon ==Encoded date : UTC 2013-08-29 19:47:06Writing application : mkvmerge v4.5.0 ('Speed of Light') сборка от Feb 1 2011 02:10:32Writing library : libebml v1.2.0 + libmatroska v1.1.0

VideoID : 1Format : AVCFormat/Info : Advanced Video CodecFormat profile : [email protected] settings, CABAC : YesFormat settings, ReFrames : 8 framesCodec ID : V_MPEG4/ISO/AVCDuration : 1h 21mnBit rate : 2 500 KbpsWidth : 1 024 pixelsHeight : 576 pixelsDisplay aspect ratio : 16:9Frame rate : 23.976 fpsColor space : YUVChroma subsampling : 4:2:0Bit depth : 8 bitsScan type : ProgressiveBits/(Pixel*Frame) : 0.177Stream size : 1.38 GiB (59%)Title : Izmuchennyi.2010.x264.BDRip(AVC)-MediaCLub.mkvWriting library : x264 core 133 r2334 a3ac64bEncoding settings : cabac=1 / ref=8 / deblock=1:-2:-2 / analyse=0x3:0x133 / me=umh / subme=11 / psy=1 / psy_rd=1.00:0.00 / mixed_ref=1 / me_range=48 / chroma_me=1 / trellis=2 / 8x8dct=1 / cqm=0 / deadzone=21,11 / fast_pskip=0 / chroma_qp_offset=-2 / threads=3 / lookahead_threads=1 / sliced_threads=0 / nr=0 / decimate=0 / interlaced=0 / bluray_compat=0 / constrained_intra=0 / bframes=8 / b_pyramid=2 / b_adapt=2 / b_bias=0 / direct=3 / weightb=1 / open_gop=0 / weightp=2 / keyint=240 / keyint_min=23 / scenecut=40 / intra_refresh=0 / rc=2pass / mbtree=0 / bitrate=2500 / ratetol=1.0 / qcomp=0.60 / qpmin=10 / qpmax=51 / qpstep=4 / cplxblur=20.0 / qblur=0.5 / ip_ratio=1.40 / pb_ratio=1.30 / aq=2:1.00Language : EnglishDefault : YesForced : No

Audio #1ID : 2Format : AC-3Format/Info : Audio Coding 3Mode extension : CM (complete main)Codec ID : A_AC3Duration : 1h 21mnBit rate mode : ConstantBit rate : 224 KbpsChannel(s) : 2 channelsChannel positions : Front: L RSampling rate : 48.0 KHzBit depth : 16 bitsCompression mode : LossyStream size : 131 MiB (6%)Title : Профессиональный многоголосый (R5)Language : RussianDefault : YesForced : No

Audio #2ID : 3Format : AC-3Format/Info : Audio Coding 3Mode extension : CM (complete main)Codec ID : A_AC3Duration : 1h 21mnBit rate mode : ConstantBit rate : 448 KbpsChannel(s) : 6 channelsChannel positions : Front: L C R, Side: L R, LFESampling rate : 48.0 KHzBit depth : 16 bitsCompression mode : LossyStream size : 262 MiB (11%)Title : Профессиональный двухголосый (НТВ+)Language : RussianDefault : NoForced : No

Audio #3ID : 4Format : AC-3Format/Info : Audio Coding 3Mode extension : CM (complete main)Codec ID : A_AC3Duration : 1h 21mnBit rate mode : ConstantBit rate : 448 KbpsChannel(s) : 6 channelsChannel positions : Front: L C R, Side: L R, LFESampling rate : 48.0 KHzBit depth : 16 bitsCompression mode : LossyStream size : 262 MiB (11%)Title : Любительский одноголосый (Kerob)Language : RussianDefault : NoForced : No

Audio #4ID : 5Format : AC-3Format/Info : Audio Coding 3Mode extension : CM (complete main)Codec ID : A_AC3Duration : 1h 21mnBit rate mode : ConstantBit rate : 448 KbpsChannel(s) : 6 channelsChannel positions : Front: L C R, Side: L R, LFESampling rate : 48.0 KHzBit depth : 16 bitsCompression mode : LossyStream size : 262 MiB (11%)Title : АнглийскийLanguage : EnglishDefault : NoForced : No

Text #1ID : 6Format : UTF-8Codec ID : S_TEXT/UTF8Codec ID/Info : UTF-8 Plain TextTitle : РусскиеLanguage : RussianDefault : YesForced : No

Text #2ID : 7Format : UTF-8Codec ID : S_TEXT/UTF8Codec ID/Info : UTF-8 Plain TextTitle : АнглийскиеLanguage : EnglishDefault : NoForced : No

Menu00:00:00.000 : :Chapter 0100:05:36.002 : :Chapter 0200:13:13.001 : :Chapter 0300:22:59.044 : :Chapter 0400:38:00.904 : :Chapter 0500:45:49.997 : :Chapter 0600:52:46.997 : :Chapter 0701:00:09.981 : :Chapter 0801:07:19.911 : :Chapter 0901:11:21.944 : :Chapter 1001:12:51.993 : :Chapter 1101:16:39.929 : :Chapter 12

piratbit.ru

Скачать фильм Замученный через торрент в хорошем качестве бесплатно HDRip

Размер: 1.36 GB | Добавлен: 5 лет 5 мес. назад | Торрент скачан:286 раз
Реклама Дарим 3000 рублей за регистрацию, не упусти свой шанс получить шикарный бонус!!!

10-05-2012 16:23 Замученный Скачать торрент  

Замученный / The Tortured

Год выпуска: 2010Страна: США, КанадаЖанр: ужасы, триллер, драмаПродолжительность: 01:21:40Перевод: Профессиональный (многоголосый, закадровый) [лицензия] + оригинал

Режиссер: Роберт Либерман

В ролях: Джесси Меткалф, Эрика Кристенсен, Билл Моусли, Чела Хорсдэл, Фульвио Чечере, Джейкоб Дейвис, Аарон Перл, Вив Ликок, Кэйден Кесслер, Саманта Гудстад

Описание: Жизнь молодой семьи внезапно разрушается, после того как их единственный ребенок был похищен и убит. Одержимые местью родители готовы на все лишь бы расправиться с убийцей… На что способны убитые горем мать и отец, потерявшие смысл существования?

Качество: HDRipФормат: AVIВидео кодек: XviDАудио кодек: AC3Видео: 720x400 (1.80:1), 23.976 fps, XviD build 50 ~1928 kbps avg, 0.28 bit/pixelАудио#1: 48 kHz, AC3 Dolby Digital, 2/0 (L,R) ch, ~224 kbps |rus|Аудио#2: 48 kHz, AC3 Dolby Digital, 2/0 (L,R) ch, ~224 kbps |eng|

Скачать Замученный через торрент http://pic.pb.wtf/images/2000/9y9lxnowwv.png Скачать фильм Замученный через торрент бесплантно в хорошем качестве Описание: Жизнь молодой семьи внезапно разрушается, после того как их единственный ребенок был похищен и убит. Одержимые местью родители ... 2012-05-10 16:23 10 10 1

Loading...

Loading...

Последний раз редактировалось: markfiter (2012-05-15 18:28), всего редактировалось 2 раз(а)

Рекламный пират

10-05-2012 16:29 Замученный Скачать торрент  

11-05-2012 03:42 Замученный Скачать торрент  

Блин хоть бы кто нить написал как фильм)))Автору спасибо!!Что то с кнопкой давно уже случилось!!

24-08-2014 08:24 Замученный Скачать торрент  

Хороший фильм) местами жесткий

Дорогой пользователь! Огромная просьба, поблагодарите релизера, оцените раздачу и оставьте свои комментарий, если Вы скачали Замученный через торрент бесплатно! Внесите свою лепту в развитие PiratBit!

Комментировать посты могут только пользователи прошедшие не сложную регистрацию

Замученный через торрент Скачать бесплатно Замученный Замученный скачать торрент Замученный смотреть онлайн Cкачать фильм Замученный бесплатно Замученный скачать торрент в хорошем качестве Замученный смотреть онлайн бесплатно в хорошем качестве

Вы не можете начинать темыВы не можете отвечать на сообщенияВы не можете редактировать свои сообщенияВы не можете удалять свои сообщенияВы не можете голосовать в опросахВы не можете прикреплять файлы к сообщениямВы можете скачивать файлы

piratbit.ru

Скачать фильм Замученный через торрент в хорошем качестве бесплатно DVD9

Title: The.Tortured.2010.P.DVD.IRONCLUBSize: 5.22 Gb ( 5 478 314,00 KBytes ) - DVD-9Enabled regions: 1, 2, 3, 4, 5, 6, 7, 8

VTS_01 :  Play Length: 00:00:15  Video: PAL 4:3 (720x576) VBR  Audio:      Not specified, AC3, 2/0 (L,R) ch, 192 kbps, Delay 0 mSec

VTS_02 :  Play Length: 00:00:08  Video: PAL 16:9 (720x576) VBR, Auto Letterboxed  Audio:      Not specified, AC3, 2/0 (L,R) ch, 224 kbps, Delay 0 mSec

VTS_03 :  Play Length: 01:18:19  Video: PAL 16:9 (720x576) VBR, Auto Letterboxed  Audio:      Russian (Dolby AC3, 2 ch)      English (Dolby AC3, 2 ch)  Subtitles:      Russian

VTS_04 :  Play Length: 00:00:15  Video: PAL 16:9 (720x576) VBR, Auto Letterboxed  Audio:      Not specified, AC3, 3/2 (L,C,R,SL,SR)+LFE ch, 448 kbps, Delay 0 mSec      Not specified, AC3, 3/2 (L,C,R,SL,SR)+LFE ch, 448 kbps, Delay 0 mSec

  Subtitles:      Russian

VTS_05 :  Play Length: 00:01:34  Video: PAL 16:9 (720x576) VBR, Auto Letterboxed  Audio:      Not specified, AC3, 2/0 (L,R) ch, 224 kbps, Delay 0 mSec

VTS_06 :  Play Length: 00:01:19  Video: PAL 16:9 (720x576) VBR, Auto Letterboxed  Audio:      Not specified, AC3, 2/0 (L,R) ch, 224 kbps, Delay 0 mSec

VTS_07 :  Play Length: 00:01:57  Video: PAL 16:9 (720x576) VBR, Auto Letterboxed  Audio:      Not specified, AC3, 2/0 (L,R) ch, 224 kbps, Delay 0 mSec

  Subtitles:      Not specified

VTS_08 :  Play Length: 00:02:02  Video: PAL 16:9 (720x576) VBR, Auto Letterboxed  Audio:      Not specified, AC3, 2/0 (L,R) ch, 224 kbps, Delay 0 mSec

VTS_09 :  Play Length: 00:02:24  Video: PAL 16:9 (720x576) VBR, Auto Letterboxed  Audio:      Not specified, AC3, 2/0 (L,R) ch, 224 kbps, Delay 0 mSec

VTS_10 :  Play Length: 00:02:19  Video: PAL 16:9 (720x576) VBR, Auto Letterboxed  Audio:      Not specified, AC3, 2/0 (L,R) ch, 224 kbps, Delay 0 mSec

VTS_11 :  Play Length: 00:01:51  Video: PAL 16:9 (720x576) VBR, Auto Letterboxed  Audio:      Not specified, AC3, 2/0 (L,R) ch, 224 kbps, Delay 0 mSec

VTS_12 :  Play Length: 00:01:31  Video: PAL 16:9 (720x576) VBR, Auto Letterboxed  Audio:      Not specified, AC3, 2/0 (L,R) ch, 384 kbps, Delay 0 mSec

VTS_13 :  Play Length: 00:02:33  Video: PAL 16:9 (720x576) VBR, Auto Letterboxed  Audio:      Not specified, AC3, 2/0 (L,R) ch, 224 kbps, Delay 0 mSec

VTS_14 :  Play Length: 00:02:31  Video: PAL 16:9 (720x576) VBR, Auto Letterboxed  Audio:      Not specified, AC3, 2/0 (L,R) ch, 224 kbps, Delay 0 mSec

VTS_15 :  Play Length: 00:02:00  Video: PAL 16:9 (720x576) VBR, Auto Letterboxed  Audio:      Not specified, AC3, 2/0 (L,R) ch, 224 kbps, Delay 0 mSec

VTS_16 :  Play Length: 00:01:19  Video: PAL 16:9 (720x576) VBR, Auto Letterboxed  Audio:      Not specified, AC3, 2/0 (L,R) ch, 224 kbps, Delay 0 mSec

VTS_17 :  Play Length: 00:00:01  Video: PAL 16:9 (720x576) VBR, Auto Letterboxed  Audio:      Not specified, AC3, 2/0 (L,R) ch, 192 kbps, Delay 0 mSec      Not specified, AC3, 2/0 (L,R) ch, 192 kbps, Delay 0 mSec

* Menus Information *

VIDEO_TS MenuVideo:      PAL 16:9 (720x576) VBR      Auto Pan&ScanEnglish Language Unit :      Title Menu

VTS_01 MenuVideo:      PAL 16:9 (720x576) VBR      Auto LetterboxedAudio:      Not specified (Dolby AC3, 2 ch)English Language Unit :      Root Menu      Chapter (PTT) Menu

VTS_02 MenuVideo:      PAL 4:3 (720x576) VBR      Auto Pan&Scan, Auto LetterboxedEnglish Language Unit :      Root Menu      Chapter (PTT) Menu

VTS_03 MenuVideo:      PAL 4:3 (720x576) VBR      Auto Pan&Scan, Auto LetterboxedEnglish Language Unit :      Root Menu      Chapter (PTT) Menu

VTS_04 MenuVideo:      PAL 4:3 (720x576) VBR      Auto Pan&Scan, Auto LetterboxedEnglish Language Unit :      Root Menu      Chapter (PTT) Menu

VTS_05 MenuVideo:      PAL 4:3 (720x576) VBR      Auto Pan&Scan, Auto LetterboxedEnglish Language Unit :      Root Menu      Chapter (PTT) Menu

VTS_06 MenuVideo:      PAL 4:3 (720x576) VBR      Auto Pan&Scan, Auto LetterboxedEnglish Language Unit :      Root Menu      Chapter (PTT) Menu

VTS_07 MenuVideo:      PAL 4:3 (720x576) VBR      Auto Pan&Scan, Auto LetterboxedEnglish Language Unit :      Root Menu      Chapter (PTT) Menu

VTS_08 MenuVideo:      PAL 4:3 (720x576) VBR      Auto Pan&Scan, Auto LetterboxedEnglish Language Unit :      Root Menu      Chapter (PTT) Menu

VTS_09 MenuVideo:      PAL 4:3 (720x576) VBR      Auto Pan&Scan, Auto LetterboxedEnglish Language Unit :      Root Menu      Chapter (PTT) Menu

VTS_10 MenuVideo:      PAL 4:3 (720x576) VBR      Auto Pan&Scan, Auto LetterboxedEnglish Language Unit :      Root Menu      Chapter (PTT) Menu

VTS_11 MenuVideo:      PAL 4:3 (720x576) VBR      Auto Pan&Scan, Auto LetterboxedEnglish Language Unit :      Root Menu      Chapter (PTT) Menu

VTS_12 MenuVideo:      PAL 4:3 (720x576) VBR      Auto Pan&Scan, Auto LetterboxedEnglish Language Unit :      Root Menu      Chapter (PTT) Menu

VTS_13 MenuVideo:      PAL 4:3 (720x576) VBR      Auto Pan&Scan, Auto LetterboxedEnglish Language Unit :      Root Menu      Chapter (PTT) Menu

VTS_14 MenuVideo:      PAL 4:3 (720x576) VBR      Auto Pan&Scan, Auto LetterboxedEnglish Language Unit :      Root Menu      Chapter (PTT) Menu

VTS_15 MenuVideo:      PAL 4:3 (720x576) VBR      Auto Pan&Scan, Auto LetterboxedEnglish Language Unit :      Root Menu      Chapter (PTT) Menu

VTS_16 MenuVideo:      PAL 4:3 (720x576) VBR      Auto Pan&Scan, Auto LetterboxedEnglish Language Unit :      Root Menu      Chapter (PTT) Menu

VTS_17 MenuVideo:      PAL 4:3 (720x576) VBR      Auto Pan&Scan, Auto LetterboxedEnglish Language Unit :      Root Menu      Chapter (PTT) Menu

piratbit.ru

Измученный / The Tortured / 2009 / HDRip

Описание торрента

Торрент группа

Время: 01:21:40Качество: HDRipОзвучивание: Профессиональное (многоголосое)Видео: XviD, 1943 kbps, 720x400Аудио дорожка #1: русский, AC3 5.1, 448 kbps

Активный

Статус

Пользователь удален

Загрузил

Мультитрекерный

Тип

23d 00:43:14 назад

Активность

1.37 GB (1,470,720,000 байт)

Размер

4 Июня 2011, 19:58

Добавлен

Просмотров: 1565, Взят: 248, Скачан: 12

Статистика

Данные о торренте

Сказали спасибо

Аноним

11 Июня 2011, 10:08

Затянуто но неплохо-3

1

Всего 1 на 1 страницах по 10 на каждой странице.

Добавить комментарий

Что бы ваш голос засчитался, вам необходимо войти

Подборки торрентов

Скоро на сайте

torrentor-esupport.pw


Смотрите также